  0
SECTION
  2
HEADER
  9
$ACADVER
  1
AC1014
  9
$ACADMAINTVER
 70
             0
  9
$DWGCODEPAGE
  3
ANSI_1252
  9
$INSBASE
 10
0.0
 20
0.0
 30
0.0
  9
$EXTMIN
 10
1.00000000000000E+20
 20
1.00000000000000E+20
 30
1.00000000000000E+20
  9
$EXTMAX
 10
-1.00000000000000E+20
 20
-1.00000000000000E+20
 30
-1.00000000000000E+20
  9
$LIMMIN
 10
0.0
 20
0.0
  9
$LIMMAX
 10
0.0
 20
0.0
  9
$ORTHOMODE
 70
             0
  9
$REGENMODE
 70
             1
  9
$FILLMODE
 70
             1
  9
$QTEXTMODE
 70
             0
  9
$MIRRTEXT
 70
             1
  9
$DRAGMODE
 70
             2
  9
$LTSCALE
 40
1.0
  9
$OSMODE
 70
             0
  9
$ATTMODE
 70
             1
  9
$TEXTSIZE
 40
0.2
  9
$TRACEWID
 40
0.05
  9
$TEXTSTYLE
  7
STANDARD
  9
$CLAYER
  8
0
  9
$CELTYPE
  6
CONTINUOUS
  9
$CECOLOR
 62
           256
  9
$CELTSCALE
 40
1.0
  9
$DELOBJ
 70
             1
  9
$DISPSILH
 70
             0
  9
$DIMSCALE
 40
1.0
  9
$DIMASZ
 40
0.18
  9
$DIMEXO
 40
0.0625
  9
$DIMDLI
 40
0.38
  9
$DIMRND
 40
0.0
  9
$DIMDLE
 40
0.0
  9
$DIMEXE
 40
0.18
  9
$DIMTP
 40
0.0
  9
$DIMTM
 40
0.0
  9
$DIMTXT
 40
0.18
  9
$DIMCEN
 40
0.09
  9
$DIMTSZ
 40
0.0
  9
$DIMTOL
 70
             0
  9
$DIMLIM
 70
             0
  9
$DIMTIH
 70
             1
  9
$DIMTOH
 70
             1
  9
$DIMSE1
 70
             0
  9
$DIMSE2
 70
             0
  9
$DIMTAD
 70
             0
  9
$DIMZIN
 70
             0
  9
$DIMBLK
  1

  9
$DIMASO
 70
             1
  9
$DIMSHO
 70
             1
  9
$DIMPOST
  1

  9
$DIMAPOST
  1

  9
$DIMALT
 70
             0
  9
$DIMALTD
 70
             2
  9
$DIMALTF
 40
25.4
  9
$DIMLFAC
 40
1.0
  9
$DIMTOFL
 70
             0
  9
$DIMTVP
 40
0.0
  9
$DIMTIX
 70
             0
  9
$DIMSOXD
 70
             0
  9
$DIMSAH
 70
             0
  9
$DIMBLK1
  1

  9
$DIMBLK2
  1

  9
$DIMSTYLE
  2
STANDARD
  9
$DIMCLRD
 70
             0
  9
$DIMCLRE
 70
             0
  9
$DIMCLRT
 70
             0
  9
$DIMTFAC
 40
1.0
  9
$DIMGAP
 40
0.09
  9
$DIMJUST
 70
             0
  9
$DIMSD1
 70
             0
  9
$DIMSD2
 70
             0
  9
$DIMTOLJ
 70
             1
  9
$DIMTZIN
 70
             0
  9
$DIMALTZ
 70
             0
  9
$DIMALTTZ
 70
             0
  9
$DIMFIT
 70
             3
  9
$DIMUPT
 70
             0
  9
$DIMUNIT
 70
             2
  9
$DIMDEC
 70
             4
  9
$DIMTDEC
 70
             4
  9
$DIMALTU
 70
             2
  9
$DIMALTTD
 70
             2
  9
$DIMTXSTY
  7
STANDARD
  9
$DIMAUNIT
 70
             0
  9
$LUNITS
 70
             2
  9
$LUPREC
 70
             4
  9
$SKETCHINC
 40
0.1
  9
$FILLETRAD
 40
0.0
  9
$AUNITS
 70
             0
  9
$AUPREC
 70
             0
  9
$MENU
  1
acad
  9
$ELEVATION
 40
0.0
  9
$PELEVATION
 40
0.0
  9
$THICKNESS
 40
0.0
  9
$LIMCHECK
 70
             0
  9
$BLIPMODE
 70
             1
  9
$CHAMFERA
 40
0.0
  9
$CHAMFERB
 40
0.0
  9
$CHAMFERC
 40
0.0
  9
$CHAMFERD
 40
0.0
  9
$SKPOLY
 70
             0
  9
$TDCREATE
 40
0.000000000
  9
$TDUPDATE
 40
0.000000000
  9
$TDINDWG
 40
0.0000000000
  9
$TDUSRTIMER
 40
0.0000000000
  9
$USRTIMER
 70
             1
  9
$ANGBASE
 50
0.0
  9
$ANGDIR
 70
             0
  9
$PDMODE
 70
             0
  9
$PDSIZE
 40
0.0
  9
$PLINEWID
 40
0.0
  9
$COORDS
 70
             0
  9
$SPLFRAME
 70
             0
  9
$SPLINETYPE
 70
             6
  9
$SPLINESEGS
 70
             8
  9
$ATTDIA
 70
             0
  9
$ATTREQ
 70
             1
  9
$HANDLING
 70
             1
  9
$HANDSEED
  5
DD
  9
$SURFTAB1
 70
             6
  9
$SURFTAB2
 70
             6
  9
$SURFTYPE
 70
             6
  9
$SURFU
 70
             6
  9
$SURFV
 70
             6
  9
$UCSNAME
  2

  9
$UCSORG
 10
0.0
 20
0.0
 30
0.0
  9
$UCSXDIR
 10
1.0
 20
0.0
 30
0.0
  9
$UCSYDIR
 10
0.0
 20
1.0
 30
0.0
  9
$PUCSNAME
  2

  9
$PUCSORG
 10
0.0
 20
0.0
 30
0.0
  9
$PUCSXDIR
 10
1.0
 20
0.0
 30
0.0
  9
$PUCSYDIR
 10
0.0
 20
1.0
 30
0.0
  9
$USERI1
 70
             0
  9
$USERI2
 70
             0
  9
$USERI3
 70
             0
  9
$USERI4
 70
             0
  9
$USERI5
 70
             0
  9
$USERR1
 40
11.6
  9
$USERR2
 40
0.0
  9
$USERR3
 40
0.0
  9
$USERR4
 40
0.0
  9
$USERR5
 40
0.0
  9
$WORLDVIEW
 70
             1
  9
$SHADEDGE
 70
             3
  9
$SHADEDIF
 70
            70
  9
$TILEMODE
 70
             1
  9
$MAXACTVP
 70
            16
  9
$PINSBASE
 10
0.0
 20
0.0
 30
0.0
  9
$PLIMCHECK
 70
             0
  9
$PEXTMIN
 10
1.00000000000000E+20
 20
1.00000000000000E+20
 30
1.00000000000000E+20
  9
$PEXTMAX
 10
-1.00000000000000E+20
 20
-1.00000000000000E+20
 30
-1.00000000000000E+20
  9
$PLIMMIN
 10
0.0
 20
0.0
  9
$PLIMMAX
 10
12.0
 20
9.0
  9
$UNITMODE
 70
             0
  9
$VISRETAIN
 70
             0
  9
$PLINEGEN
 70
             1
  9
$PSLTSCALE
 70
             0
  9
$TREEDEPTH
 70
          3020
  9
$PICKSTYLE
 70
             1
  9
$CMLSTYLE
  2
STANDARD
  9
$CMLJUST
 70
             0
  9
$CMLSCALE
 40
1.0
  9
$PROXYGRAPHICS
 70
             0
  9
$MEASUREMENT
 70
             1
  0
ENDSEC
  0
SECTION
  2
CLASSES
  0
CLASS
  1
LWPOLYLINE
  2
AcDbPolyline
  3
"AutoCAD"
 90
        0
280
             0
281
             1
  0
CLASS
  1
IMAGE
  2
AcDbRasterImage
  3
ISM
 90
      127
280
             0
281
             1
  0
CLASS
  1
OLE2FRAME
  2
AcDbOle2Frame
  3
""
 90
        0
280
             0
281
             1
  0
CLASS
  1
HATCH
  2
AcDbHatch
  3
"ACAD_SEDONA"
 90
        0
280
             0
281
             1
  0
CLASS
  1
DICTIONARYVAR
  2
AcDbDictionaryVar
  3
"AutoCAD"
 90
        0
280
             0
281
             0
  0
CLASS
  1
RASTERVARIABLES
  2
AcDbRasterVariables
  3
ISM
 90
        0
280
             0
281
             0
  0
CLASS
  1
IMAGEDEF
  2
AcDbRasterImageDef
  3
ISM
 90
        0
280
             0
281
             0
  0
CLASS
  1
IMAGEDEF_REACTOR
  2
AcDbRasterImageDefReactor
  3
ISM
 90
        1
280
             0
281
             0
  0
CLASS
  1
IDBUFFER
  2
AcDbIdBuffer
  3
"Acad"
 90
        0
280
             0
281
             0
  0
CLASS
  1
SPATIAL_FILTER
  2
AcDbSpatialFilter
  3
"Acad"
 90
        0
280
             0
281
             0
  0
CLASS
  1
XRECORD
  2
AcDbXrecord
  3
"<Built In>"
 90
        0
280
             0
281
             0
  0
CLASS
  1
SORTENTSTABLE
  2
AcDbSortentsTable
  3
"AutoCAD"
 90
        0
280
             0
281
             0
  0
CLASS
  1
LAYER_INDEX
  2
AcDbLayerIndex
  3
"Acad"
 90
        0
280
             0
281
             0
  0
CLASS
  1
SPATIAL_INDEX
  2
AcDbSpatialIndex
  3
"Acad"
 90
        0
280
             0
281
             0
  0
CLASS
  1
OBJECT_PTR
  2
CAseDLPNTableRecord
  3
"ASE-LPNTableRecord"
 90
        1
280
             0
281
             0
  0
CLASS
  1
LAYOUT
  2
AcDbLayout
  3
"AutoCAD 2000"
 90
        1
280
             0
281
             0
  0
CLASS
  1
PLOTSETTINGS
  2
AcDbPlotSettings
  3
"AutoCAD 2000"
 90
        1
280
             0
281
             0
  0
CLASS
  1
ACDBDICTIONARYWDFLT
  2
AcDbDictionaryWithDefault
  3
"AutoCAD 2000"
 90
        1
280
             0
281
             0
  0
CLASS
  1
ACDBPLACEHOLDER
  2
AcDbPlaceHolder
  3
"AutoCAD 2000"
 90
        1
280
             0
281
             0
  0
ENDSEC
  0
SECTION
  2
TABLES
  0
TABLE
  2
VPORT
  5
7
100
AcDbSymbolTable
 70
             1
  0
VPORT
  5
15
100
AcDbSymbolTableRecord
100
AcDbViewportTableRecord
  2
*ACTIVE
 70
             0
 10
0.0
 20
0.0
 11
1.0
 21
1.0
 12
-57.4634524703082
 22
5.5
 13
0.0
 23
0.0
 14
1.0
 24
1.0
 15
0.0
 25
0.0
 16
0.0
 26
0.0
 36
1.0
 17
0.0
 27
0.0
 37
0.0
 40
102.31646412989454
 41
1.60267857142857
 42
50.0
 43
0.0
 44
0.0
 50
0.0
 51
0.0
 71
             0
 72
           100
 73
             1
 74
             1
 75
             0
 76
             0
 77
             0
 78
             0
  0
ENDTAB
  0
TABLE
  2
LTYPE
  5
4
100
AcDbSymbolTable
 70
            10
  0
LTYPE
  5
11
100
AcDbSymbolTableRecord
100
AcDbLinetypeTableRecord
  2
BYBLOCK
 70
            64
  3

 72
            65
 73
             0
 40
0.0
  0
LTYPE
  5
12
100
AcDbSymbolTableRecord
100
AcDbLinetypeTableRecord
  2
BYLAYER
 70
            64
  3

 72
            65
 73
             0
 40
0.0
  0
LTYPE
  5
13
100
AcDbSymbolTableRecord
100
AcDbLinetypeTableRecord
  2
CONTINUOUS
 70
            64
  3
Solid line
 72
            65
 73
             0
 40
0.0
  0
LTYPE
  5
1D
100
AcDbSymbolTableRecord
100
AcDbLinetypeTableRecord
  2
DASHED
 70
            64
  3
Dashed
 72
            65
 73
             2
 40
15.0
 49
12.0
 74
             0
 49
-3.0
 74
             0
  0
LTYPE
  5
1E
100
AcDbSymbolTableRecord
100
AcDbLinetypeTableRecord
  2
DOTTED
 70
            64
  3
Dotted
 72
            65
 73
             2
 40
3.5
 49
0.5
 74
             0
 49
-3.0
 74
             0
  0
LTYPE
  5
1F
100
AcDbSymbolTableRecord
100
AcDbLinetypeTableRecord
  2
DOT_CENTER
 70
            64
  3
Dot_Center
 72
            65
 73
             4
 40
2.0
 49
1.25
 74
             0
 49
-0.25
 74
             0
 49
0.25
 74
             0
 49
-0.25
 74
             0
  0
LTYPE
  5
20
100
AcDbSymbolTableRecord
100
AcDbLinetypeTableRecord
  2
LONG_DASHED
 70
            64
  3
Long_Dashed
 72
            65
 73
             2
 40
2.0
 49
1.5
 74
             0
 49
-0.5
 74
             0
  0
LTYPE
  5
21
100
AcDbSymbolTableRecord
100
AcDbLinetypeTableRecord
  2
DASH_CENTER
 70
            64
  3
Dash_Center
 72
            65
 73
             4
 40
36.0
 49
24.0
 74
             0
 49
-3.0
 74
             0
 49
6.0
 74
             0
 49
-3.0
 74
             0
  0
LTYPE
  5
22
100
AcDbSymbolTableRecord
100
AcDbLinetypeTableRecord
  2
PHANTOM
 70
            64
  3
Phantom
 72
            65
 73
             6
 40
2.5
 49
1.25
 74
             0
 49
-0.25
 74
             0
 49
0.25
 74
             0
 49
-0.25
 74
             0
 49
0.25
 74
             0
 49
-0.25
 74
             0
  0
LTYPE
  5
23
100
AcDbSymbolTableRecord
100
AcDbLinetypeTableRecord
  2
CENTER_DASH_DASH
 70
            64
  3
Center_Dash_Dash
 72
            65
 73
             6
 40
22.0
 49
12.0
 74
             0
 49
-3.0
 74
             0
 49
0.5
 74
             0
 49
-3.0
 74
             0
 49
0.5
 74
             0
 49
-3.0
 74
             0
  0
ENDTAB
  0
TABLE
  2
LAYER
  5
2
100
AcDbSymbolTable
 70
             2
  0
LAYER
  5
14
100
AcDbSymbolTableRecord
100
AcDbLayerTableRecord
  2
0
 70
             0
 62
             7
  6
CONTINUOUS
  0
LAYER
  5
24
100
AcDbSymbolTableRecord
100
AcDbLayerTableRecord
  2
1
 70
             0
 62
             7
  6
CONTINUOUS
  0
ENDTAB
  0
TABLE
  2
STYLE
  5
3
100
AcDbSymbolTable
 70
             3
  0
STYLE
  5
17
100
AcDbSymbolTableRecord
100
AcDbTextStyleTableRecord
  2
STANDARD
 70
             0
 40
0.0
 41
1.0
 50
0.0
 71
             0
 42
0.0
  3
txt
  4

  0
STYLE
  5
84
100
AcDbSymbolTableRecord
100
AcDbTextStyleTableRecord
  2
CONVERTER_1
 70
             0
 40
0.0
 41
0.9
 50
0.0
 71
             0
 42
0.0
  3
txt.shx
  4

  0
STYLE
  5
90
100
AcDbSymbolTableRecord
100
AcDbTextStyleTableRecord
  2
CONVERTER_2
 70
             0
 40
0.0
 41
0.9
 50
15.0
 71
             0
 42
0.0
  3
txt.shx
  4

  0
ENDTAB
  0
TABLE
  2
VIEW
  5
5
100
AcDbSymbolTable
 70
             0
  0
ENDTAB
  0
TABLE
  2
UCS
  5
6
100
AcDbSymbolTable
 70
             0
  0
ENDTAB
  0
TABLE
  2
APPID
  5
8
100
AcDbSymbolTable
 70
             1
  0
APPID
  5
16
100
AcDbSymbolTableRecord
100
AcDbRegAppTableRecord
  2
ACAD
 70
             0
  0
ENDTAB
  0
TABLE
  2
DIMSTYLE
  5
9
100
AcDbSymbolTable
 70
             7
  0
DIMSTYLE
105
18
100
AcDbSymbolTableRecord
100
AcDbDimStyleTableRecord
  2
STANDARD
 70
             0
  3

  4

  5

  6

  7

 40
1.0
 41
0.18
 42
0.0625
 43
0.38
 44
0.18
 45
0.0
 46
0.0
 47
0.0
 48
0.0
 71
             0
 72
             0
 73
             1
 74
             1
 75
             0
 76
             0
 77
             0
 78
             0
140
0.18
141
0.09
142
0.0
143
25.4
144
1.0
145
0.0
146
1.0
147
0.09
170
             0
171
             2
172
             0
173
             0
174
             0
175
             0
176
             0
177
             0
178
             0
270
             2
271
             4
272
             4
273
             2
274
             2
275
             0
280
             0
281
             0
282
             0
283
             1
284
             0
285
             0
286
             0
287
             0
288
             0
340
17
  0
DIMSTYLE
105
99
100
AcDbSymbolTableRecord
100
AcDbDimStyleTableRecord
  2
ME10_DIM_0
 70
             0
  3

  4

  5

  6
_OPEN30
  7
_OPEN30
 40
1.0
 41
2.5
 42
0.5
 43
0.38
 44
1.0
 45
0.0
 46
0.0
 47
0.0
 48
0.0
 71
             0
 72
             0
 73
             0
 74
             0
 75
             0
 76
             0
 77
             1
 78
             8
140
2.5
141
0.09
142
0.0
143
25.4
144
1.0
145
0.0
146
1.0
147
0.625
170
             0
171
             2
172
             0
173
             1
174
             0
175
             0
176
             2
177
             2
178
             2
270
             2
271
             2
272
             4
273
             2
274
             2
275
             0
280
             0
281
             0
282
             0
283
             1
284
             0
285
             0
286
             0
287
             0
288
             0
340
17
  0
DIMSTYLE
105
A6
100
AcDbSymbolTableRecord
100
AcDbDimStyleTableRecord
  2
ME10_DIM_1
 70
             0
  3

  4

  5

  6
_OPEN30
  7
_OPEN30
 40
1.0
 41
2.5
 42
0.5
 43
0.38
 44
1.0
 45
0.0
 46
0.0
 47
0.0
 48
0.0
 71
             0
 72
             0
 73
             0
 74
             0
 75
             0
 76
             0
 77
             1
 78
             8
140
2.5
141
0.09
142
0.0
143
25.4
144
1.0
145
0.0
146
1.0
147
0.625
170
             0
171
             2
172
             0
173
             1
174
             0
175
             0
176
             2
177
             2
178
             2
270
             2
271
             2
272
             4
273
             2
274
             2
275
             0
280
             0
281
             0
282
             0
283
             1
284
             0
285
             0
286
             0
287
             0
288
             0
340
17
  0
DIMSTYLE
105
B3
100
AcDbSymbolTableRecord
100
AcDbDimStyleTableRecord
  2
ME10_DIM_2
 70
             0
  3
{\Fgdt;n}<>
  4

  5

  6
_OPEN30
  7
_OPEN30
 40
1.0
 41
2.5
 42
0.5
 43
0.38
 44
1.0
 45
0.0
 46
0.0
 47
0.0
 48
0.0
 71
             0
 72
             0
 73
             0
 74
             0
 75
             0
 76
             0
 77
             1
 78
             8
140
2.5
141
0.09
142
0.0
143
25.4
144
1.0
145
0.0
146
1.0
147
0.625
170
             0
171
             2
172
             0
173
             1
174
             0
175
             0
176
             2
177
             2
178
             2
270
             2
271
             2
272
             4
273
             2
274
             2
275
             0
280
             0
281
             0
282
             0
283
             1
284
             0
285
             0
286
             0
287
             0
288
             0
340
17
  0
DIMSTYLE
105
C0
100
AcDbSymbolTableRecord
100
AcDbDimStyleTableRecord
  2
ME10_DIM_3
 70
             0
  3
{\Fgdt;n}<>
  4

  5

  6
_OPEN30
  7
_OPEN30
 40
1.0
 41
2.5
 42
0.5
 43
0.38
 44
1.0
 45
0.0
 46
0.0
 47
0.0
 48
0.0
 71
             0
 72
             0
 73
             0
 74
             0
 75
             0
 76
             0
 77
             1
 78
             8
140
2.5
141
0.09
142
0.0
143
25.4
144
1.0
145
0.0
146
1.0
147
0.625
170
             0
171
             2
172
             0
173
             1
174
             0
175
             0
176
             2
177
             2
178
             2
270
             2
271
             2
272
             4
273
             2
274
             2
275
             0
280
             0
281
             0
282
             0
283
             1
284
             0
285
             0
286
             0
287
             0
288
             0
340
17
  0
DIMSTYLE
105
CD
100
AcDbSymbolTableRecord
100
AcDbDimStyleTableRecord
  2
ME10_DIM_4
 70
             0
  3
{\Fgdt;n}<>
  4

  5

  6
_OPEN30
  7
_OPEN30
 40
1.0
 41
2.5
 42
0.5
 43
0.38
 44
1.0
 45
0.0
 46
0.0
 47
0.0
 48
0.0
 71
             0
 72
             0
 73
             0
 74
             0
 75
             0
 76
             0
 77
             1
 78
             8
140
2.5
141
0.09
142
0.0
143
25.4
144
1.0
145
0.0
146
1.0
147
0.625
170
             0
171
             2
172
             0
173
             1
174
             0
175
             0
176
             2
177
             2
178
             2
270
             2
271
             2
272
             4
273
             2
274
             2
275
             0
280
             0
281
             0
282
             0
283
             1
284
             0
285
             0
286
             0
287
             0
288
             0
340
17
  0
DIMSTYLE
105
DA
100
AcDbSymbolTableRecord
100
AcDbDimStyleTableRecord
  2
ME10_DIM_5
 70
             0
  3
(<>)
  4

  5

  6
_OPEN30
  7
_OPEN30
 40
1.0
 41
2.5
 42
0.5
 43
0.38
 44
1.0
 45
0.0
 46
0.0
 47
0.0
 48
0.0
 71
             0
 72
             0
 73
             0
 74
             0
 75
             0
 76
             0
 77
             1
 78
             8
140
2.5
141
0.09
142
0.0
143
25.4
144
1.0
145
0.0
146
1.0
147
0.625
170
             0
171
             2
172
             0
173
             1
174
             0
175
             0
176
             2
177
             2
178
             2
270
             2
271
             2
272
             4
273
             2
274
             2
275
             0
280
             0
281
             0
282
             0
283
             1
284
             0
285
             0
286
             0
287
             0
288
             0
340
17
  0
ENDTAB
  0
TABLE
  2
BLOCK_RECORD
  5
1
100
AcDbSymbolTable
 70
             7
  0
BLOCK_RECORD
  5
A
100
AcDbSymbolTableRecord
100
AcDbBlockTableRecord
  2
*MODEL_SPACE
  0
BLOCK_RECORD
  5
B
100
AcDbSymbolTableRecord
100
AcDbBlockTableRecord
  2
*PAPER_SPACE
  0
BLOCK_RECORD
  5
87
100
AcDbSymbolTableRecord
100
AcDbBlockTableRecord
  2
*D0
  0
BLOCK_RECORD
  5
93
100
AcDbSymbolTableRecord
100
AcDbBlockTableRecord
  2
_OPEN30
  0
BLOCK_RECORD
  5
9B
100
AcDbSymbolTableRecord
100
AcDbBlockTableRecord
  2
*D2
  0
BLOCK_RECORD
  5
A8
100
AcDbSymbolTableRecord
100
AcDbBlockTableRecord
  2
*D3
  0
BLOCK_RECORD
  5
B5
100
AcDbSymbolTableRecord
100
AcDbBlockTableRecord
  2
*D4
  0
BLOCK_RECORD
  5
C2
100
AcDbSymbolTableRecord
100
AcDbBlockTableRecord
  2
*D5
  0
BLOCK_RECORD
  5
CF
100
AcDbSymbolTableRecord
100
AcDbBlockTableRecord
  2
*D6
  0
ENDTAB
  0
ENDSEC
  0
SECTION
  2
BLOCKS
  0
BLOCK
  5
D
100
AcDbEntity
  8
0
100
AcDbBlockBegin
  2
*MODEL_SPACE
 70
             0
 10
0.0
 20
0.0
 30
0.0
  3
*MODEL_SPACE
  1

  0
ENDBLK
  5
E
100
AcDbEntity
  8
0
100
AcDbBlockEnd
  0
BLOCK
  5
F
100
AcDbEntity
 67
             1
  8
0
100
AcDbBlockBegin
  2
*PAPER_SPACE
 70
             0
 10
0.0
 20
0.0
 30
0.0
  3
*PAPER_SPACE
  1

  0
ENDBLK
  5
10
100
AcDbEntity
 67
             1
  8
0
100
AcDbBlockEnd
  0
BLOCK
  5
88
100
AcDbEntity
  8
0
100
AcDbBlockBegin
  2
*D0
 70
             1
 10
0.0
 20
0.0
 30
0.0
  3
*D0
  1

  0
LINE
  5
89
100
AcDbEntity
  8
0
  6
CONTINUOUS
 62
             2
100
AcDbLine
 10
-25.0
 20
-29.0
 11
0.0
 21
-29.0
  0
LINE
  5
8A
100
AcDbEntity
  8
0
  6
CONTINUOUS
 62
             2
100
AcDbLine
 10
-25.0
 20
-20.5
 11
-25.0
 21
-30.0
  0
LINE
  5
8B
100
AcDbEntity
  8
0
  6
CONTINUOUS
 62
             2
100
AcDbLine
 10
0.0
 20
-20.5
 11
0.0
 21
-30.0
  0
LINE
  5
8C
100
AcDbEntity
  8
0
 62
             2
100
AcDbLine
 10
-25.0
 20
-29.0
 11
-22.5
 21
-28.3301270189222
  0
LINE
  5
8D
100
AcDbEntity
  8
0
 62
             2
100
AcDbLine
 10
-25.0
 20
-29.0
 11
-22.5
 21
-29.66987298107781
  0
LINE
  5
8E
100
AcDbEntity
  8
0
 62
             2
100
AcDbLine
 10
0.0
 20
-29.0
 11
-2.5
 21
-29.66987298107781
  0
LINE
  5
8F
100
AcDbEntity
  8
0
 62
             2
100
AcDbLine
 10
0.0
 20
-29.0
 11
-2.5
 21
-28.33012701892219
  0
MTEXT
  5
91
100
AcDbEntity
  8
0
 62
             2
100
AcDbMText
 10
-14.70993649053891
 20
-28.0
 30
0.0
 40
2.5
 41
0.0
 71
             7
 72
             1
  1
25
  7
CONVERTER_2
 11
0.99999999999706
 21
0.00000242406841
 31
0.0
  0
ENDBLK
  5
92
100
AcDbEntity
  8
0
100
AcDbBlockEnd
  0
BLOCK
  5
94
100
AcDbEntity
  8
0
 62
             0
100
AcDbBlockBegin
  2
_OPEN30
 70
             0
 10
0.0
 20
0.0
 30
0.0
  3
_OPEN30
  1

  0
LINE
  5
95
100
AcDbEntity
  8
0
  6
BYBLOCK
 62
             0
100
AcDbLine
 10
-1.0
 20
0.267949
 11
0.0
 21
0.0
  0
LINE
  5
96
100
AcDbEntity
  8
0
  6
BYBLOCK
 62
             0
100
AcDbLine
 10
0.0
 20
0.0
 11
-1.0
 21
-0.267949
  0
LINE
  5
97
100
AcDbEntity
  8
0
  6
BYBLOCK
 62
             0
100
AcDbLine
 10
0.0
 20
0.0
 11
-1.0
 21
0.0
  0
ENDBLK
  5
98
100
AcDbEntity
  8
0
 62
             0
100
AcDbBlockEnd
  0
BLOCK
  5
9C
100
AcDbEntity
  8
0
100
AcDbBlockBegin
  2
*D2
 70
             1
 10
0.0
 20
0.0
 30
0.0
  3
*D2
  1

  0
LINE
  5
9D
100
AcDbEntity
  8
0
  6
CONTINUOUS
 62
             2
100
AcDbLine
 10
-50.0
 20
-36.0
 11
0.0
 21
-36.0
  0
LINE
  5
9E
100
AcDbEntity
  8
0
  6
CONTINUOUS
 62
             2
100
AcDbLine
 10
-50.0
 20
-15.0
 11
-50.0
 21
-37.0
  0
LINE
  5
9F
100
AcDbEntity
  8
0
  6
CONTINUOUS
 62
             2
100
AcDbLine
 10
0.0
 20
-20.5
 11
0.0
 21
-37.0
  0
LINE
  5
A0
100
AcDbEntity
  8
0
 62
             2
100
AcDbLine
 10
-50.0
 20
-36.0
 11
-47.5
 21
-35.33012701892219
  0
LINE
  5
A1
100
AcDbEntity
  8
0
 62
             2
100
AcDbLine
 10
-50.0
 20
-36.0
 11
-47.5
 21
-36.66987298107781
  0
LINE
  5
A2
100
AcDbEntity
  8
0
 62
             2
100
AcDbLine
 10
0.0
 20
-36.0
 11
-2.5
 21
-36.66987298107781
  0
LINE
  5
A3
100
AcDbEntity
  8
0
 62
             2
100
AcDbLine
 10
0.0
 20
-36.0
 11
-2.5
 21
-35.33012701892219
  0
MTEXT
  5
A4
100
AcDbEntity
  8
0
 62
             2
100
AcDbMText
 10
-27.20993649053891
 20
-35.0
 30
0.0
 40
2.5
 41
0.0
 71
             7
 72
             1
  1
50
  7
CONVERTER_2
 11
0.99999999999706
 21
0.00000242406841
 31
0.0
  0
ENDBLK
  5
A5
100
AcDbEntity
  8
0
100
AcDbBlockEnd
  0
BLOCK
  5
A9
100
AcDbEntity
  8
0
100
AcDbBlockBegin
  2
*D3
 70
             1
 10
0.0
 20
0.0
 30
0.0
  3
*D3
  1

  0
LINE
  5
AA
100
AcDbEntity
  8
0
  6
CONTINUOUS
 62
             2
100
AcDbLine
 10
-71.0
 20
-20.0
 11
-71.0
 21
20.0
  0
LINE
  5
AB
100
AcDbEntity
  8
0
  6
CONTINUOUS
 62
             2
100
AcDbLine
 10
-25.5
 20
-20.0
 11
-72.0
 21
-20.0
  0
LINE
  5
AC
100
AcDbEntity
  8
0
  6
CONTINUOUS
 62
             2
100
AcDbLine
 10
-25.5
 20
20.0
 11
-72.0
 21
20.0
  0
LINE
  5
AD
100
AcDbEntity
  8
0
 62
             2
100
AcDbLine
 10
-71.0
 20
-20.0
 11
-71.6698729810778
 21
-17.5
  0
LINE
  5
AE
100
AcDbEntity
  8
0
 62
             2
100
AcDbLine
 10
-71.0
 20
-20.0
 11
-70.3301270189222
 21
-17.5
  0
LINE
  5
AF
100
AcDbEntity
  8
0
 62
             2
100
AcDbLine
 10
-71.0
 20
20.0
 11
-70.3301270189222
 21
17.5
  0
LINE
  5
B0
100
AcDbEntity
  8
0
 62
             2
100
AcDbLine
 10
-71.0
 20
20.0
 11
-71.6698729810778
 21
17.5
  0
MTEXT
  5
B1
100
AcDbEntity
  8
0
 62
             2
100
AcDbMText
 10
-72.0
 20
-4.8099364905389
 30
0.0
 40
2.5
 41
0.0
 71
             7
 72
             1
  1
\C2;{\Fgdt;n}\C2;40
  7
CONVERTER_2
 11
0.0
 21
1.0
 31
0.0
  0
ENDBLK
  5
B2
100
AcDbEntity
  8
0
100
AcDbBlockEnd
  0
BLOCK
  5
B6
100
AcDbEntity
  8
0
100
AcDbBlockBegin
  2
*D4
 70
             1
 10
0.0
 20
0.0
 30
0.0
  3
*D4
  1

  0
LINE
  5
B7
100
AcDbEntity
  8
0
  6
CONTINUOUS
 62
             2
100
AcDbLine
 10
-64.0
 20
-14.5
 11
-64.0
 21
14.5
  0
LINE
  5
B8
100
AcDbEntity
  8
0
  6
CONTINUOUS
 62
             2
100
AcDbLine
 10
-50.5
 20
-14.5
 11
-65.0
 21
-14.5
  0
LINE
  5
B9
100
AcDbEntity
  8
0
  6
CONTINUOUS
 62
             2
100
AcDbLine
 10
-50.5
 20
14.5
 11
-65.0
 21
14.5
  0
LINE
  5
BA
100
AcDbEntity
  8
0
 62
             2
100
AcDbLine
 10
-64.0
 20
-14.5
 11
-64.6698729810778
 21
-12.0
  0
LINE
  5
BB
100
AcDbEntity
  8
0
 62
             2
100
AcDbLine
 10
-64.0
 20
-14.5
 11
-63.33012701892219
 21
-12.0
  0
LINE
  5
BC
100
AcDbEntity
  8
0
 62
             2
100
AcDbLine
 10
-64.0
 20
14.5
 11
-63.3301270189222
 21
12.0
  0
LINE
  5
BD
100
AcDbEntity
  8
0
 62
             2
100
AcDbLine
 10
-64.0
 20
14.5
 11
-64.6698729810778
 21
12.0
  0
MTEXT
  5
BE
100
AcDbEntity
  8
0
 62
             2
100
AcDbMText
 10
-65.0
 20
-4.8099364905389
 30
0.0
 40
2.5
 41
0.0
 71
             7
 72
             1
  1
\C2;{\Fgdt;n}\C2;29
  7
CONVERTER_2
 11
0.0
 21
1.0
 31
0.0
  0
ENDBLK
  5
BF
100
AcDbEntity
  8
0
100
AcDbBlockEnd
  0
BLOCK
  5
C3
100
AcDbEntity
  8
0
100
AcDbBlockBegin
  2
*D5
 70
             1
 10
0.0
 20
0.0
 30
0.0
  3
*D5
  1

  0
LINE
  5
C4
100
AcDbEntity
  8
0
  6
CONTINUOUS
 62
             2
100
AcDbLine
 10
-57.0
 20
-10.0
 11
-57.0
 21
10.0
  0
LINE
  5
C5
100
AcDbEntity
  8
0
  6
CONTINUOUS
 62
             2
100
AcDbLine
 10
-50.5
 20
-10.0
 11
-58.0
 21
-10.0
  0
LINE
  5
C6
100
AcDbEntity
  8
0
  6
CONTINUOUS
 62
             2
100
AcDbLine
 10
-50.5
 20
10.0
 11
-58.0
 21
10.0
  0
LINE
  5
C7
100
AcDbEntity
  8
0
 62
             2
100
AcDbLine
 10
-57.0
 20
-10.0
 11
-57.66987298107781
 21
-7.5
  0
LINE
  5
C8
100
AcDbEntity
  8
0
 62
             2
100
AcDbLine
 10
-57.0
 20
-10.0
 11
-56.33012701892219
 21
-7.5
  0
LINE
  5
C9
100
AcDbEntity
  8
0
 62
             2
100
AcDbLine
 10
-57.0
 20
10.0
 11
-56.3301270189222
 21
7.5
  0
LINE
  5
CA
100
AcDbEntity
  8
0
 62
             2
100
AcDbLine
 10
-57.0
 20
10.0
 11
-57.66987298107781
 21
7.5
  0
MTEXT
  5
CB
100
AcDbEntity
  8
0
 62
             2
100
AcDbMText
 10
-58.0
 20
-4.8099364905389
 30
0.0
 40
2.5
 41
0.0
 71
             7
 72
             1
  1
\C2;{\Fgdt;n}\C2;20
  7
CONVERTER_2
 11
0.0
 21
1.0
 31
0.0
  0
ENDBLK
  5
CC
100
AcDbEntity
  8
0
100
AcDbBlockEnd
  0
BLOCK
  5
D0
100
AcDbEntity
  8
0
100
AcDbBlockBegin
  2
*D6
 70
             1
 10
0.0
 20
0.0
 30
0.0
  3
*D6
  1

  0
LINE
  5
D1
100
AcDbEntity
  8
0
  6
CONTINUOUS
 62
             2
100
AcDbLine
 10
-71.0
 20
20.0
 11
-71.0
 21
36.0
  0
LINE
  5
D2
100
AcDbEntity
  8
0
  6
CONTINUOUS
 62
             2
100
AcDbLine
 10
-25.5
 20
20.0
 11
-72.0
 21
20.0
  0
LINE
  5
D3
100
AcDbEntity
  8
0
  6
CONTINUOUS
 62
             2
100
AcDbLine
 10
-19.2399375
 20
36.0
 11
-72.0
 21
36.0
  0
LINE
  5
D4
100
AcDbEntity
  8
0
 62
             2
100
AcDbLine
 10
-71.0
 20
20.0
 11
-71.6698729810778
 21
22.5
  0
LINE
  5
D5
100
AcDbEntity
  8
0
 62
             2
100
AcDbLine
 10
-71.0
 20
20.0
 11
-70.3301270189222
 21
22.5
  0
LINE
  5
D6
100
AcDbEntity
  8
0
 62
             2
100
AcDbLine
 10
-71.0
 20
36.0
 11
-70.3301270189222
 21
33.5
  0
LINE
  5
D7
100
AcDbEntity
  8
0
 62
             2
100
AcDbLine
 10
-71.0
 20
36.0
 11
-71.6698729810778
 21
33.5
  0
MTEXT
  5
D8
100
AcDbEntity
  8
0
 62
             2
100
AcDbMText
 10
-72.0
 20
23.3930870341419
 30
0.0
 40
2.5
 41
0.0
 71
             7
 72
             1
  1
\C2;(\C2;16\C2;)
  7
CONVERTER_2
 11
0.0
 21
1.0
 31
0.0
  0
ENDBLK
  5
D9
100
AcDbEntity
  8
0
100
AcDbBlockEnd
  0
ENDSEC
  0
SECTION
  2
ENTITIES
  0
DIMENSION
  5
DB
100
AcDbEntity
  8
1
100
AcDbDimension
  2
*D6
 10
-71.0
 20
20.0
 11
-73.25
 21
27.2780235246808
 31
0.0
 53
90.0
  1
<>
  3
ME10_DIM_5
100
AcDbAlignedDimension
 13
-18.7399375
 23
36.0
 14
-25.0
 24
20.0
 50
90.0
100
AcDbRotatedDimension
  0
DIMENSION
  5
CE
100
AcDbEntity
  8
1
100
AcDbDimension
  2
*D5
 10
-57.0
 20
-10.0
 11
-59.25
 21
0.0
 31
0.0
 53
90.0
  1
<>
  3
ME10_DIM_4
100
AcDbAlignedDimension
 13
-50.0
 23
10.0
 14
-50.0
 24
-10.0
 50
90.0
100
AcDbRotatedDimension
  0
DIMENSION
  5
C1
100
AcDbEntity
  8
1
100
AcDbDimension
  2
*D4
 10
-64.0
 20
-14.5
 11
-66.25
 21
0.0
 31
0.0
 53
90.0
  1
<>
  3
ME10_DIM_3
100
AcDbAlignedDimension
 13
-50.0
 23
14.5
 14
-50.0
 24
-14.5
 50
90.0
100
AcDbRotatedDimension
  0
DIMENSION
  5
B4
100
AcDbEntity
  8
1
100
AcDbDimension
  2
*D3
 10
-71.0
 20
-20.0
 11
-73.25
 21
0.0
 31
0.0
 53
90.0
  1
<>
  3
ME10_DIM_2
100
AcDbAlignedDimension
 13
-25.0
 23
20.0
 14
-25.0
 24
-20.0
 50
90.0
100
AcDbRotatedDimension
  0
DIMENSION
  5
A7
100
AcDbEntity
  8
1
100
AcDbDimension
  2
*D2
 10
-50.0
 20
-36.0
 11
-25.0
 21
-33.75
 31
0.0
 53
0.00013888888889
  1
<>
  3
ME10_DIM_1
100
AcDbAlignedDimension
 13
0.0
 23
-20.0
 14
-50.0
 24
-14.5
100
AcDbRotatedDimension
  0
DIMENSION
  5
9A
100
AcDbEntity
  8
1
100
AcDbDimension
  2
*D0
 10
-25.0
 20
-29.0
 11
-12.5
 21
-26.75
 31
0.0
 53
0.00013888888889
  1
<>
  3
ME10_DIM_0
100
AcDbAlignedDimension
 13
0.0
 23
-20.0
 14
-25.0
 24
-20.0
100
AcDbRotatedDimension
  0
MTEXT
  5
86
100
AcDbEntity
  8
1
 62
             2
100
AcDbMText
 10
6.29903810567666
 20
24.10640646055101
 30
0.0
 40
2.5
 41
0.0
 71
             4
 72
             1
  1
M16X1
  7
CONVERTER_1
  0
MTEXT
  5
85
100
AcDbEntity
  8
1
 62
             2
100
AcDbMText
 10
-24.65777775919366
 20
46.25
 30
0.0
 40
2.5
 41
0.0
 71
             6
 72
             1
  1
R1/8 (PT1/8)
  7
CONVERTER_1
  0
LEADER
  5
83
100
AcDbEntity
  8
1
  6
CONTINUOUS
 62
             2
100
AcDbLeader
  3
Standard
 71
             0
 73
             3
 74
             0
 75
             0
 40
0.0
 76
             3
 10
-3.0
 20
8.0
 30
0.0
 10
5.0
 20
21.85640646055101
 30
0.0
 10
17.0730950593836
 20
21.85640646055101
 30
0.0
 77
             2
  0
LEADER
  5
80
100
AcDbEntity
  8
1
  6
CONTINUOUS
 62
             2
100
AcDbLeader
  3
Standard
 71
             0
 73
             3
 74
             0
 75
             0
 40
0.0
 76
             3
 10
-18.7399375
 20
36.0
 30
0.0
 10
-23.35873965351701
 20
44.0
 30
0.0
 10
-47.2509087440434
 20
44.0
 30
0.0
 77
             2
  0
XLINE
  5
7D
100
AcDbEntity
  8
1
  6
DOTTED
 62
             1
100
AcDbXline
 10
-132.0
 20
-37.0
 30
0.0
 11
1.0
 21
0.0
 31
0.0
  0
XLINE
  5
7C
100
AcDbEntity
  8
1
  6
DOTTED
 62
             1
100
AcDbXline
 10
-132.0
 20
48.0
 30
0.0
 11
1.0
 21
0.0
 31
0.0
  0
XLINE
  5
7B
100
AcDbEntity
  8
1
  6
DOTTED
 62
             1
100
AcDbXline
 10
-132.0
 20
-22.0
 30
0.0
 11
0.0
 21
1.0
 31
0.0
  0
XLINE
  5
7A
100
AcDbEntity
  8
1
  6
DOTTED
 62
             1
100
AcDbXline
 10
17.0
 20
-22.0
 30
0.0
 11
0.0
 21
1.0
 31
0.0
  0
CIRCLE
  5
79
100
AcDbEntity
  8
1
  6
CONTINUOUS
 62
             7
100
AcDbCircle
 10
-110.0
 20
0.0
 40
16.0
  0
CIRCLE
  5
78
100
AcDbEntity
  8
1
  6
CONTINUOUS
 62
             7
100
AcDbCircle
 10
-110.0
 20
0.0
 40
10.0
  0
CIRCLE
  5
77
100
AcDbEntity
  8
1
  6
CONTINUOUS
 62
             7
100
AcDbCircle
 10
-110.0
 20
0.0
 40
8.0
  0
CIRCLE
  5
76
100
AcDbEntity
  8
1
  6
CONTINUOUS
 62
             7
100
AcDbCircle
 10
-110.0
 20
0.0
 40
7.5
  0
CIRCLE
  5
75
100
AcDbEntity
  8
1
  6
CONTINUOUS
 62
             7
100
AcDbCircle
 10
-110.0
 20
0.0
 40
14.5
  0
CIRCLE
  5
74
100
AcDbEntity
  8
1
  6
CONTINUOUS
 62
             7
100
AcDbCircle
 10
-110.0
 20
0.0
 40
20.0
  0
ARC
  5
73
100
AcDbEntity
  8
1
  6
CONTINUOUS
 62
             7
100
AcDbCircle
 10
-11.0
 20
19.3349364905389
 40
8.6650635094611
100
AcDbArc
 50
69.74384199958364
 51
110.25615800041638
  0
ARC
  5
72
100
AcDbEntity
  8
1
  6
CONTINUOUS
 62
             7
100
AcDbCircle
 10
-17.0
 20
19.3349364905389
 40
8.6650635094611
100
AcDbArc
 50
69.74384199958364
 51
110.25615800041638
  0
ARC
  5
71
100
AcDbEntity
  8
1
  6
CONTINUOUS
 62
             7
100
AcDbCircle
 10
-11.0
 20
31.66506350946122
 40
8.66506350946121
100
AcDbArc
 50
-110.25615800041609
 51
-69.74384199958392
  0
ARC
  5
70
100
AcDbEntity
  8
1
  6
CONTINUOUS
 62
             7
100
AcDbCircle
 10
-17.0
 20
31.66506350946122
 40
8.66506350946121
100
AcDbArc
 50
-110.25615800041609
 51
-69.74384199958392
  0
ARC
  5
6F
100
AcDbEntity
  8
1
  6
CONTINUOUS
 62
             7
100
AcDbCircle
 10
-104.8038475772934
 20
26.06698729810787
 40
3.06698729810787
100
AcDbArc
 50
-124.38424746804159
 51
-55.61575253195863
  0
ARC
  5
6E
100
AcDbEntity
  8
1
  6
CONTINUOUS
 62
             7
100
AcDbCircle
 10
-110.0
 20
34.46410161513765
 40
11.46410161513767
100
AcDbArc
 50
-107.58795377399419
 51
-72.41204622600635
  0
ARC
  5
6D
100
AcDbEntity
  8
1
  6
CONTINUOUS
 62
             7
100
AcDbCircle
 10
-115.1961524227066
 20
26.06698729810788
 40
3.06698729810787
100
AcDbArc
 50
-124.38424746804127
 51
-55.61575253196028
  0
ARC
  5
6C
100
AcDbEntity
  8
1
  6
CONTINUOUS
 62
             7
100
AcDbCircle
 10
-104.8038475772934
 20
24.93301270189213
 40
3.06698729810786
100
AcDbArc
 50
55.61575253195863
 51
124.38424746804159
  0
ARC
  5
6B
100
AcDbEntity
  8
1
  6
CONTINUOUS
 62
             7
100
AcDbCircle
 10
-110.0
 20
16.53589838486235
 40
11.46410161513763
100
AcDbArc
 50
72.41204622600635
 51
107.58795377399419
  0
ARC
  5
6A
100
AcDbEntity
  8
1
  6
CONTINUOUS
 62
             7
100
AcDbCircle
 10
-115.1961524227066
 20
24.93301270189213
 40
3.0669872981078
100
AcDbArc
 50
55.61575253196016
 51
124.38424746804137
  0
LINE
  5
69
100
AcDbEntity
  8
1
  6
DOTTED
 62
             7
100
AcDbLine
 10
-20.0
 20
-14.5
 11
-20.0
 21
14.5
  0
LINE
  5
68
100
AcDbEntity
  8
1
  6
DOTTED
 62
             7
100
AcDbLine
 10
-50.0
 20
-10.0
 11
-25.0
 21
-10.0
  0
LINE
  5
67
100
AcDbEntity
  8
1
  6
DOTTED
 62
             7
100
AcDbLine
 10
-25.0
 20
10.0
 11
-50.0
 21
10.0
  0
LINE
  5
66
100
AcDbEntity
  8
1
  6
DOTTED
 62
             7
100
AcDbLine
 10
-20.0
 20
14.5
 11
-25.0
 21
10.0
  0
LINE
  5
65
100
AcDbEntity
  8
1
  6
DOTTED
 62
             7
100
AcDbLine
 10
-20.0
 20
-14.5
 11
-25.0
 21
-10.0
  0
LINE
  5
64
100
AcDbEntity
  8
1
  6
CONTINUOUS
 62
             7
100
AcDbLine
 10
-50.0
 20
14.5
 11
-26.5
 21
14.5
  0
LINE
  5
63
100
AcDbEntity
  8
1
  6
CONTINUOUS
 62
             7
100
AcDbLine
 10
-50.0
 20
-14.5
 11
-50.0
 21
14.5
  0
LINE
  5
62
100
AcDbEntity
  8
1
  6
CONTINUOUS
 62
             7
100
AcDbLine
 10
-26.5
 20
-14.5
 11
-50.0
 21
-14.5
  0
LINE
  5
61
100
AcDbEntity
  8
1
  6
CONTINUOUS
 62
             7
100
AcDbLine
 10
-26.5
 20
-14.5
 11
-25.0
 21
-16.0
  0
LINE
  5
60
100
AcDbEntity
  8
1
  6
CONTINUOUS
 62
             7
100
AcDbLine
 10
-26.5
 20
14.5
 11
-25.0
 21
16.0
  0
LINE
  5
5F
100
AcDbEntity
  8
1
  6
CONTINUOUS
 62
             7
100
AcDbLine
 10
-26.5
 20
14.5
 11
-26.5
 21
-14.5
  0
LINE
  5
5E
100
AcDbEntity
  8
1
  6
DOT_CENTER
 62
             7
100
AcDbLine
 10
-132.0
 20
0.0
 11
-88.0
 21
0.0
  0
LINE
  5
5D
100
AcDbEntity
  8
1
  6
DOTTED
 62
             7
100
AcDbLine
 10
-11.0
 20
14.5
 11
-11.0
 21
36.0
  0
LINE
  5
5C
100
AcDbEntity
  8
1
  6
DOTTED
 62
             7
100
AcDbLine
 10
-17.0
 20
14.5
 11
-17.0
 21
36.0
  0
LINE
  5
5B
100
AcDbEntity
  8
1
  6
CONTINUOUS
 62
             7
100
AcDbLine
 10
-18.8961875
 20
20.0
 11
-18.9899375
 21
23.0
  0
LINE
  5
5A
100
AcDbEntity
  8
1
  6
CONTINUOUS
 62
             7
100
AcDbLine
 10
-18.3151875
 20
20.0
 11
-18.4089375
 21
23.0
  0
LINE
  5
59
100
AcDbEntity
  8
1
  6
CONTINUOUS
 62
             7
100
AcDbLine
 10
-9.5910625
 20
23.0
 11
-9.6848125
 21
20.0
  0
LINE
  5
58
100
AcDbEntity
  8
1
  6
CONTINUOUS
 62
             7
100
AcDbLine
 10
-9.0100625
 20
22.99999999999999
 11
-9.1038125
 21
20.0
  0
LINE
  5
57
100
AcDbEntity
  8
1
  6
CONTINUOUS
 62
             7
100
AcDbLine
 10
-8.0
 20
23.0
 11
-20.0
 21
23.0
  0
LINE
  5
56
100
AcDbEntity
  8
1
  6
CONTINUOUS
 62
             7
100
AcDbLine
 10
-8.0
 20
28.0
 11
-8.0
 21
23.0
  0
LINE
  5
55
100
AcDbEntity
  8
1
  6
CONTINUOUS
 62
             7
100
AcDbLine
 10
-20.0
 20
28.0
 11
-8.0
 21
28.0
  0
LINE
  5
54
100
AcDbEntity
  8
1
  6
CONTINUOUS
 62
             7
100
AcDbLine
 10
-20.0
 20
23.0
 11
-20.0
 21
28.0
  0
LINE
  5
53
100
AcDbEntity
  8
1
  6
CONTINUOUS
 62
             7
100
AcDbLine
 10
-14.0
 20
27.46410161513775
 11
-14.0
 21
23.53589838486225
  0
LINE
  5
52
100
AcDbEntity
  8
1
  6
CONTINUOUS
 62
             7
100
AcDbLine
 10
-114.8773181004739
 20
19.39617921516477
 11
-114.9899375
 21
22.99999999999999
  0
LINE
  5
51
100
AcDbEntity
  8
1
  6
CONTINUOUS
 62
             7
100
AcDbLine
 10
-114.3005673767835
 20
19.53215605707025
 11
-114.40893749999999
 21
22.99999999999999
  0
LINE
  5
50
100
AcDbEntity
  8
1
  6
CONTINUOUS
 62
             7
100
AcDbLine
 10
-105.59106250000001
 20
22.99999999999999
 11
-105.69943262321659
 21
19.53215605707025
  0
LINE
  5
4F
100
AcDbEntity
  8
1
  6
CONTINUOUS
 62
             7
100
AcDbLine
 10
-105.0100625
 20
22.99999999999999
 11
-105.1226818995261
 21
19.39617921516476
  0
LINE
  5
4E
100
AcDbEntity
  8
1
  6
DOT_CENTER
 62
             7
100
AcDbLine
 10
-110.0
 20
-22.0
 11
-110.0
 21
37.0
  0
LINE
  5
4D
100
AcDbEntity
  8
1
  6
CONTINUOUS
 62
             7
100
AcDbLine
 10
-105.2600625
 20
36.0
 11
-105.0100625
 21
28.0
  0
LINE
  5
4C
100
AcDbEntity
  8
1
  6
CONTINUOUS
 62
             7
100
AcDbLine
 10
-105.84106250000001
 20
36.0
 11
-105.59106250000001
 21
28.0
  0
LINE
  5
4B
100
AcDbEntity
  8
1
  6
CONTINUOUS
 62
             7
100
AcDbLine
 10
-114.40893749999999
 20
28.0
 11
-114.15893749999999
 21
36.0
  0
LINE
  5
4A
100
AcDbEntity
  8
1
  6
CONTINUOUS
 62
             7
100
AcDbLine
 10
-114.9899375
 20
28.0
 11
-114.7399375
 21
36.0
  0
LINE
  5
49
100
AcDbEntity
  8
1
  6
CONTINUOUS
 62
             7
100
AcDbLine
 10
-114.7399375
 20
36.0
 11
-105.2600625
 21
36.0
  0
LINE
  5
48
100
AcDbEntity
  8
1
  6
CONTINUOUS
 62
             7
100
AcDbLine
 10
-111.0
 20
32.03
 11
-109.0
 21
32.03
  0
LINE
  5
47
100
AcDbEntity
  8
1
  6
CONTINUOUS
 62
             7
100
AcDbLine
 10
-103.0717967697245
 20
23.53589838486225
 11
-103.0717967697245
 21
27.46410161513775
  0
LINE
  5
46
100
AcDbEntity
  8
1
  6
CONTINUOUS
 62
             7
100
AcDbLine
 10
-106.53589838486231
 20
23.53589838486225
 11
-106.53589838486231
 21
27.46410161513775
  0
LINE
  5
45
100
AcDbEntity
  8
1
  6
CONTINUOUS
 62
             7
100
AcDbLine
 10
-113.46410161513781
 20
23.53589838486225
 11
-113.46410161513781
 21
27.46410161513775
  0
LINE
  5
44
100
AcDbEntity
  8
1
  6
CONTINUOUS
 62
             7
100
AcDbLine
 10
-116.9282032302755
 20
23.53589838486225
 11
-116.9282032302755
 21
27.46410161513775
  0
LINE
  5
43
100
AcDbEntity
  8
1
  6
CONTINUOUS
 62
             7
100
AcDbLine
 10
-104.0
 20
23.0
 11
-116.0
 21
23.0
  0
LINE
  5
42
100
AcDbEntity
  8
1
  6
CONTINUOUS
 62
             7
100
AcDbLine
 10
-103.0717967697245
 20
23.53589838486225
 11
-104.0
 21
23.0
  0
LINE
  5
41
100
AcDbEntity
  8
1
  6
CONTINUOUS
 62
             7
100
AcDbLine
 10
-116.9282032302755
 20
23.53589838486225
 11
-116.0
 21
23.0
  0
LINE
  5
40
100
AcDbEntity
  8
1
  6
CONTINUOUS
 62
             7
100
AcDbLine
 10
-103.0717967697245
 20
27.46410161513775
 11
-104.0
 21
28.0
  0
LINE
  5
3F
100
AcDbEntity
  8
1
  6
CONTINUOUS
 62
             7
100
AcDbLine
 10
-116.9282032302755
 20
27.46410161513775
 11
-116.0
 21
28.0
  0
LINE
  5
3E
100
AcDbEntity
  8
1
  6
CONTINUOUS
 62
             7
100
AcDbLine
 10
-116.0
 20
28.0
 11
-104.0
 21
28.0
  0
LINE
  5
3D
100
AcDbEntity
  8
1
  6
CONTINUOUS
 62
             7
100
AcDbLine
 10
-15.0
 20
32.03
 11
-13.0
 21
32.03
  0
LINE
  5
3C
100
AcDbEntity
  8
1
  6
CONTINUOUS
 62
             7
100
AcDbLine
 10
-18.7399375
 20
36.0
 11
-9.2600625
 21
36.0
  0
LINE
  5
3B
100
AcDbEntity
  8
1
  6
CONTINUOUS
 62
             7
100
AcDbLine
 10
-18.9899375
 20
28.0
 11
-18.7399375
 21
36.0
  0
LINE
  5
3A
100
AcDbEntity
  8
1
  6
CONTINUOUS
 62
             7
100
AcDbLine
 10
-18.4089375
 20
28.0
 11
-18.1589375
 21
36.0
  0
LINE
  5
39
100
AcDbEntity
  8
1
  6
CONTINUOUS
 62
             7
100
AcDbLine
 10
-9.8410625
 20
36.0
 11
-9.5910625
 21
28.0
  0
LINE
  5
38
100
AcDbEntity
  8
1
  6
CONTINUOUS
 62
             7
100
AcDbLine
 10
-9.2600625
 20
36.0
 11
-9.0100625
 21
28.0
  0
LINE
  5
37
100
AcDbEntity
  8
1
  6
DOT_CENTER
 62
             7
100
AcDbLine
 10
-14.0
 20
12.5
 11
-14.0
 21
37.0
  0
LINE
  5
36
100
AcDbEntity
  8
1
  6
DOT_CENTER
 62
             7
100
AcDbLine
 10
-52.0
 20
0.0
 11
2.0
 21
0.0
  0
LINE
  5
35
100
AcDbEntity
  8
1
  6
DOTTED
 62
             7
100
AcDbLine
 10
-6.0
 20
-7.5
 11
0.0
 21
-7.5
  0
LINE
  5
34
100
AcDbEntity
  8
1
  6
DOTTED
 62
             7
100
AcDbLine
 10
-6.0
 20
7.5
 11
0.0
 21
7.5
  0
LINE
  5
33
100
AcDbEntity
  8
1
  6
DOTTED
 62
             7
100
AcDbLine
 10
-6.0
 20
-8.0
 11
-6.0
 21
8.0
  0
LINE
  5
32
100
AcDbEntity
  8
1
  6
DOTTED
 62
             7
100
AcDbLine
 10
-8.0
 20
14.5
 11
-8.0
 21
-14.5
  0
LINE
  5
31
100
AcDbEntity
  8
1
  6
DOTTED
 62
             7
100
AcDbLine
 10
-6.0
 20
-8.0
 11
0.0
 21
-8.0
  0
LINE
  5
30
100
AcDbEntity
  8
1
  6
DOTTED
 62
             7
100
AcDbLine
 10
-8.0
 20
-14.5
 11
-6.0
 21
-8.0
  0
LINE
  5
2F
100
AcDbEntity
  8
1
  6
DOTTED
 62
             7
100
AcDbLine
 10
-20.0
 20
-14.5
 11
-8.0
 21
-14.5
  0
LINE
  5
2E
100
AcDbEntity
  8
1
  6
DOTTED
 62
             7
100
AcDbLine
 10
-6.0
 20
8.0
 11
0.0
 21
8.0
  0
LINE
  5
2D
100
AcDbEntity
  8
1
  6
DOTTED
 62
             7
100
AcDbLine
 10
-8.0
 20
14.5
 11
-6.0
 21
8.0
  0
LINE
  5
2C
100
AcDbEntity
  8
1
  6
DOTTED
 62
             7
100
AcDbLine
 10
-20.0
 20
14.5
 11
-8.0
 21
14.5
  0
LINE
  5
2B
100
AcDbEntity
  8
1
  6
CONTINUOUS
 62
             7
100
AcDbLine
 10
-25.0
 20
20.0
 11
-25.0
 21
-20.0
  0
LINE
  5
2A
100
AcDbEntity
  8
1
  6
CONTINUOUS
 62
             7
100
AcDbLine
 10
0.0
 20
20.0
 11
-25.0
 21
20.0
  0
LINE
  5
29
100
AcDbEntity
  8
1
  6
CONTINUOUS
 62
             7
100
AcDbLine
 10
0.0
 20
-20.0
 11
0.0
 21
20.0
  0
LINE
  5
28
100
AcDbEntity
  8
1
  6
CONTINUOUS
 62
             7
100
AcDbLine
 10
-25.0
 20
-20.0
 11
0.0
 21
-20.0
  0
LINE
  5
7E
100
AcDbEntity
  8
1
 62
             2
100
AcDbLine
 10
-18.7399375
 20
36.0
 11
-20.57006451892219
 21
37.8301270189222
  0
LINE
  5
7F
100
AcDbEntity
  8
1
 62
             2
100
AcDbLine
 10
-18.7399375
 20
36.0
 11
-19.40981048107781
 21
38.5
  0
LINE
  5
81
100
AcDbEntity
  8
1
 62
             2
100
AcDbLine
 10
-3.0
 20
8.0
 11
-2.33012701892219
 21
10.5
  0
LINE
  5
82
100
AcDbEntity
  8
1
 62
             2
100
AcDbLine
 10
-3.0
 20
8.0
 11
-1.16987298107781
 21
9.83012701892219
  0
ENDSEC
  0
SECTION
  2
OBJECTS
  0
DICTIONARY
  5
19
100
AcDbDictionary
  3
ACAD_GROUP
350
1A
  3
ACAD_MLINESTYLE
350
1B
  0
DICTIONARY
  5
1A
102
{ACAD_REACTORS
330
19
102
}
100
AcDbDictionary
  0
DICTIONARY
  5
1B
102
{ACAD_REACTORS
330
19
102
}
100
AcDbDictionary
  3
STANDARD
350
1C
  0
MLINESTYLE
  5
1C
102
{ACAD_REACTORS
330
1B
102
}
100
AcDbMlineStyle
  2
STANDARD
 70
             0
  3

 62
             0
 51
90.0
 52
90.0
 71
             2
 49
0.5
 62
           256
  6
BYLAYER
 49
-0.5
 62
           256
  6
BYLAYER
  0
ENDSEC
  0
EOF
