  0
SECTION
  2
HEADER
  9
$ACADVER
  1
AC1014
  9
$ACADMAINTVER
 70
     9
  9
$DWGCODEPAGE
  3
ANSI_932
  9
$INSBASE
 10
0.0
 20
0.0
 30
0.0
  9
$EXTMIN
 10
86.4188801187759
 20
107.627652856
 30
0.0
  9
$EXTMAX
 10
268.98610776574
 20
212.7489747488
 30
0.0
  9
$LIMMIN
 10
0.0
 20
0.0
  9
$LIMMAX
 10
12.0
 20
9.0
  9
$ORTHOMODE
 70
     0
  9
$REGENMODE
 70
     1
  9
$FILLMODE
 70
     1
  9
$QTEXTMODE
 70
     0
  9
$MIRRTEXT
 70
     1
  9
$DRAGMODE
 70
     2
  9
$LTSCALE
 40
1.0
  9
$OSMODE
 70
    37
  9
$ATTMODE
 70
     1
  9
$TEXTSIZE
 40
0.2
  9
$TRACEWID
 40
0.05
  9
$TEXTSTYLE
  7
STANDARD
  9
$CLAYER
  8
0
  9
$CELTYPE
  6
BYLAYER
  9
$CECOLOR
 62
   256
  9
$CELTSCALE
 40
1.0
  9
$DELOBJ
 70
     1
  9
$DISPSILH
 70
     0
  9
$DIMSCALE
 40
1.0
  9
$DIMASZ
 40
0.18
  9
$DIMEXO
 40
0.0625
  9
$DIMDLI
 40
0.38
  9
$DIMRND
 40
0.0
  9
$DIMDLE
 40
0.0
  9
$DIMEXE
 40
0.18
  9
$DIMTP
 40
0.0
  9
$DIMTM
 40
0.0
  9
$DIMTXT
 40
0.18
  9
$DIMCEN
 40
0.09
  9
$DIMTSZ
 40
0.0
  9
$DIMTOL
 70
     0
  9
$DIMLIM
 70
     0
  9
$DIMTIH
 70
     1
  9
$DIMTOH
 70
     1
  9
$DIMSE1
 70
     0
  9
$DIMSE2
 70
     0
  9
$DIMTAD
 70
     0
  9
$DIMZIN
 70
     0
  9
$DIMBLK
  1

  9
$DIMASO
 70
     1
  9
$DIMSHO
 70
     1
  9
$DIMPOST
  1

  9
$DIMAPOST
  1

  9
$DIMALT
 70
     0
  9
$DIMALTD
 70
     2
  9
$DIMALTF
 40
25.4
  9
$DIMLFAC
 40
1.0
  9
$DIMTOFL
 70
     0
  9
$DIMTVP
 40
0.0
  9
$DIMTIX
 70
     0
  9
$DIMSOXD
 70
     0
  9
$DIMSAH
 70
     0
  9
$DIMBLK1
  1

  9
$DIMBLK2
  1

  9
$DIMSTYLE
  2
STANDARD
  9
$DIMCLRD
 70
     0
  9
$DIMCLRE
 70
     0
  9
$DIMCLRT
 70
     0
  9
$DIMTFAC
 40
1.0
  9
$DIMGAP
 40
0.09
  9
$DIMJUST
 70
     0
  9
$DIMSD1
 70
     0
  9
$DIMSD2
 70
     0
  9
$DIMTOLJ
 70
     1
  9
$DIMTZIN
 70
     0
  9
$DIMALTZ
 70
     0
  9
$DIMALTTZ
 70
     0
  9
$DIMFIT
 70
     3
  9
$DIMUPT
 70
     0
  9
$DIMUNIT
 70
     2
  9
$DIMDEC
 70
     4
  9
$DIMTDEC
 70
     4
  9
$DIMALTU
 70
     2
  9
$DIMALTTD
 70
     2
  9
$DIMTXSTY
  7
STANDARD
  9
$DIMAUNIT
 70
     0
  9
$LUNITS
 70
     2
  9
$LUPREC
 70
     4
  9
$SKETCHINC
 40
0.1
  9
$FILLETRAD
 40
0.5
  9
$AUNITS
 70
     0
  9
$AUPREC
 70
     0
  9
$MENU
  1
.
  9
$ELEVATION
 40
0.0
  9
$PELEVATION
 40
0.0
  9
$THICKNESS
 40
0.0
  9
$LIMCHECK
 70
     0
  9
$CHAMFERA
 40
0.0
  9
$CHAMFERB
 40
0.0
  9
$CHAMFERC
 40
0.0
  9
$CHAMFERD
 40
0.0
  9
$SKPOLY
 70
     0
  9
$TDCREATE
 40
2458439.647638137
  9
$TDUPDATE
 40
2458439.647685671
  9
$TDINDWG
 40
0.0000000116
  9
$TDUSRTIMER
 40
0.0000000116
  9
$USRTIMER
 70
     1
  9
$ANGBASE
 50
0.0
  9
$ANGDIR
 70
     0
  9
$PDMODE
 70
     0
  9
$PDSIZE
 40
0.0
  9
$PLINEWID
 40
0.0
  9
$COORDS
 70
     1
  9
$SPLFRAME
 70
     0
  9
$SPLINETYPE
 70
     6
  9
$SPLINESEGS
 70
     8
  9
$ATTDIA
 70
     0
  9
$ATTREQ
 70
     1
  9
$HANDLING
 70
     1
  9
$HANDSEED
  5
535
  9
$SURFTAB1
 70
     6
  9
$SURFTAB2
 70
     6
  9
$SURFTYPE
 70
     6
  9
$SURFU
 70
     6
  9
$SURFV
 70
     6
  9
$UCSNAME
  2

  9
$UCSORG
 10
0.0
 20
0.0
 30
0.0
  9
$UCSXDIR
 10
1.0
 20
0.0
 30
0.0
  9
$UCSYDIR
 10
0.0
 20
1.0
 30
0.0
  9
$PUCSNAME
  2

  9
$PUCSORG
 10
0.0
 20
0.0
 30
0.0
  9
$PUCSXDIR
 10
1.0
 20
0.0
 30
0.0
  9
$PUCSYDIR
 10
0.0
 20
1.0
 30
0.0
  9
$USERI1
 70
     0
  9
$USERI2
 70
     0
  9
$USERI3
 70
     0
  9
$USERI4
 70
     0
  9
$USERI5
 70
     0
  9
$USERR1
 40
20.0
  9
$USERR2
 40
0.0
  9
$USERR3
 40
0.0
  9
$USERR4
 40
0.0
  9
$USERR5
 40
0.0
  9
$WORLDVIEW
 70
     1
  9
$SHADEDGE
 70
     3
  9
$SHADEDIF
 70
    70
  9
$TILEMODE
 70
     1
  9
$MAXACTVP
 70
    64
  9
$PINSBASE
 10
0.0
 20
0.0
 30
0.0
  9
$PLIMCHECK
 70
     0
  9
$PEXTMIN
 10
1.00000000000000E+20
 20
1.00000000000000E+20
 30
1.00000000000000E+20
  9
$PEXTMAX
 10
-1.00000000000000E+20
 20
-1.00000000000000E+20
 30
-1.00000000000000E+20
  9
$PLIMMIN
 10
0.0
 20
0.0
  9
$PLIMMAX
 10
12.0
 20
9.0
  9
$UNITMODE
 70
     0
  9
$VISRETAIN
 70
     1
  9
$PLINEGEN
 70
     0
  9
$PSLTSCALE
 70
     1
  9
$TREEDEPTH
 70
  3020
  9
$PICKSTYLE
 70
     1
  9
$CMLSTYLE
  2
STANDARD
  9
$CMLJUST
 70
     0
  9
$CMLSCALE
 40
1.0
  9
$PROXYGRAPHICS
 70
     1
  9
$MEASUREMENT
 70
     1
  0
ENDSEC
  0
SECTION
  2
CLASSES
  0
CLASS
  1
ACDBDICTIONARYWDFLT
  2
AcDbDictionaryWithDefault
  3
ObjectDBX Classes
 90
        0
280
     0
281
     0
  0
CLASS
  1
VISUALSTYLE
  2
AcDbVisualStyle
  3
ObjectDBX Classes
 90
     4095
280
     0
281
     0
  0
CLASS
  1
MATERIAL
  2
AcDbMaterial
  3
ObjectDBX Classes
 90
     1153
280
     0
281
     0
  0
CLASS
  1
SCALE
  2
AcDbScale
  3
ObjectDBX Classes
 90
     1153
280
     0
281
     0
  0
CLASS
  1
TABLESTYLE
  2
AcDbTableStyle
  3
ObjectDBX Classes
 90
     4095
280
     0
281
     0
  0
CLASS
  1
MLEADERSTYLE
  2
AcDbMLeaderStyle
  3
ACDB_MLEADERSTYLE_CLASS
 90
     4095
280
     0
281
     0
  0
CLASS
  1
SUN
  2
AcDbSun
  3
SCENEOE
 90
     1153
280
     0
281
     0
  0
CLASS
  1
DICTIONARYVAR
  2
AcDbDictionaryVar
  3
ObjectDBX Classes
 90
        0
280
     0
281
     0
  0
CLASS
  1
XRECORD
  2
AcDbXrecord
  3
ObjectDBX Classes
 90
        0
280
     0
281
     0
  0
CLASS
  1
LWPOLYLINE
  2
AcDbPolyline
  3
ObjectDBX Classes
 90
        0
280
     0
281
     1
  0
CLASS
  1
HATCH
  2
AcDbHatch
  3
ObjectDBX Classes
 90
        0
280
     0
281
     1
  0
CLASS
  1
ACDBPLACEHOLDER
  2
AcDbPlaceHolder
  3
ObjectDBX Classes
 90
        0
280
     0
281
     0
  0
CLASS
  1
LAYOUT
  2
AcDbLayout
  3
ObjectDBX Classes
 90
        0
280
     0
281
     0
  0
ENDSEC
  0
SECTION
  2
TABLES
  0
TABLE
  2
VPORT
  5
8
102
{ACAD_XDICTIONARY
360
52A
102
}
330
0
100
AcDbSymbolTable
 70
     1
  0
VPORT
  5
29
330
8
100
AcDbSymbolTableRecord
100
AcDbViewportTableRecord
  2
*ACTIVE
 70
     0
 10
0.0
 20
0.0
 11
1.0
 21
1.0
 12
177.7024939422579
 22
160.1883138024
 13
0.0
 23
0.0
 14
0.5
 24
0.5
 15
0.5
 25
0.5
 16
0.0
 26
0.0
 36
1.0
 17
0.0
 27
0.0
 37
0.0
 40
125.3051946858272
 41
1.60267857142857
 42
50.0
 43
0.0
 44
0.0
 50
0.0
 51
0.0
 71
     0
 72
   100
 73
     1
 74
     3
 75
     0
 76
     0
 77
     0
 78
     0
  0
ENDTAB
  0
TABLE
  2
LTYPE
  5
5
330
0
100
AcDbSymbolTable
 70
     8
  0
LTYPE
  5
14
330
5
100
AcDbSymbolTableRecord
100
AcDbLinetypeTableRecord
  2
BYBLOCK
 70
     0
  3

 72
    65
 73
     0
 40
0.0
  0
LTYPE
  5
15
330
5
100
AcDbSymbolTableRecord
100
AcDbLinetypeTableRecord
  2
BYLAYER
 70
     0
  3

 72
    65
 73
     0
 40
0.0
  0
LTYPE
  5
16
330
5
100
AcDbSymbolTableRecord
100
AcDbLinetypeTableRecord
  2
CONTINUOUS
 70
     0
  3
Solid line
 72
    65
 73
     0
 40
0.0
  0
LTYPE
  5
6E
330
5
100
AcDbSymbolTableRecord
100
AcDbLinetypeTableRecord
  2
DASHED
 70
     0
  3
Dashed
 72
    65
 73
     2
 40
15.0
 49
7.0
 74
     0
 49
-8.0
 74
     0
  0
LTYPE
  5
6F
330
5
100
AcDbSymbolTableRecord
100
AcDbLinetypeTableRecord
  2
DOTTED
 70
     0
  3
Dotted
 72
    65
 73
     2
 40
1.0
 49
0.0
 74
     0
 49
-1.0
 74
     0
  0
LTYPE
  5
70
330
5
100
AcDbSymbolTableRecord
100
AcDbLinetypeTableRecord
  2
DOT_CENTER
 70
     0
  3
Dot_Center
 72
    65
 73
     4
 40
14.0
 49
12.0
 74
     0
 49
-1.0
 74
     0
 49
0.0
 74
     0
 49
-1.0
 74
     0
  0
LTYPE
  5
71
330
5
100
AcDbSymbolTableRecord
100
AcDbLinetypeTableRecord
  2
LONG_DASHED
 70
     0
  3
Long_Dashed
 72
    65
 73
     2
 40
15.0
 49
10.0
 74
     0
 49
-5.0
 74
     0
  0
LTYPE
  5
72
330
5
100
AcDbSymbolTableRecord
100
AcDbLinetypeTableRecord
  2
DASH_CENTER
 70
     0
  3
Dash_Center
 72
    65
 73
     4
 40
14.0
 49
11.0
 74
     0
 49
-1.0
 74
     0
 49
1.0
 74
     0
 49
-1.0
 74
     0
  0
LTYPE
  5
73
330
5
100
AcDbSymbolTableRecord
100
AcDbLinetypeTableRecord
  2
PHANTOM
 70
     0
  3
Phantom
 72
    65
 73
     6
 40
13.0
 49
10.0
 74
     0
 49
-1.0
 74
     0
 49
0.0
 74
     0
 49
-1.0
 74
     0
 49
0.0
 74
     0
 49
-1.0
 74
     0
  0
LTYPE
  5
74
330
5
100
AcDbSymbolTableRecord
100
AcDbLinetypeTableRecord
  2
CENTER_DASH_DASH
 70
     0
  3
Center_Dash_Dash
 72
    65
 73
     6
 40
14.0
 49
9.0
 74
     0
 49
-1.0
 74
     0
 49
1.0
 74
     0
 49
-1.0
 74
     0
 49
1.0
 74
     0
 49
-1.0
 74
     0
  0
ENDTAB
  0
TABLE
  2
LAYER
  5
2
330
0
100
AcDbSymbolTable
 70
     4
  0
LAYER
  5
10
330
2
100
AcDbSymbolTableRecord
100
AcDbLayerTableRecord
  2
0
 70
     0
 62
     7
  6
CONTINUOUS
  0
LAYER
  5
75
330
2
100
AcDbSymbolTableRecord
100
AcDbLayerTableRecord
  2
1
 70
     0
 62
     7
  6
CONTINUOUS
  0
LAYER
  5
76
330
2
100
AcDbSymbolTableRecord
100
AcDbLayerTableRecord
  2
Z_OM_DIM
 70
     0
 62
     7
  6
CONTINUOUS
  0
LAYER
  5
77
330
2
100
AcDbSymbolTableRecord
100
AcDbLayerTableRecord
  2
Z_OM_OUTLINE
 70
     0
 62
     7
  6
CONTINUOUS
  0
ENDTAB
  0
TABLE
  2
STYLE
  5
3
330
0
100
AcDbSymbolTable
 70
     2
  0
STYLE
  5
11
330
3
100
AcDbSymbolTableRecord
100
AcDbTextStyleTableRecord
  2
STANDARD
 70
     0
 40
0.0
 41
1.0
 50
0.0
 71
     0
 42
0.2
  3
txt
  4

  0
STYLE
  5
4A8
330
3
100
AcDbSymbolTableRecord
100
AcDbTextStyleTableRecord
  2
CONVERTER_11
 70
     0
 40
0.0
 41
0.9
 50
0.0
 71
     0
 42
0.2
  3
txt.shx
  4

  0
ENDTAB
  0
TABLE
  2
VIEW
  5
6
330
0
100
AcDbSymbolTable
 70
     0
  0
ENDTAB
  0
TABLE
  2
UCS
  5
7
330
0
100
AcDbSymbolTable
 70
     0
  0
ENDTAB
  0
TABLE
  2
APPID
  5
9
330
0
100
AcDbSymbolTable
 70
     2
  0
APPID
  5
12
330
9
100
AcDbSymbolTableRecord
100
AcDbRegAppTableRecord
  2
ACAD
 70
     0
  0
APPID
  5
534
330
9
100
AcDbSymbolTableRecord
100
AcDbRegAppTableRecord
  2
ACAD_MLEADERVER
 70
     0
  0
ENDTAB
  0
TABLE
  2
DIMSTYLE
  5
A
330
0
100
AcDbSymbolTable
 70
     8
  0
DIMSTYLE
105
27
330
A
100
AcDbSymbolTableRecord
100
AcDbDimStyleTableRecord
  2
STANDARD
 70
     0
  3

  4

  5

  6

  7

 40
1.0
 41
0.18
 42
0.0625
 43
0.38
 44
0.18
 45
0.0
 46
0.0
 47
0.0
 48
0.0
140
0.18
141
0.09
142
0.0
143
25.4
144
1.0
145
0.0
146
1.0
147
0.09
 71
     0
 72
     0
 73
     1
 74
     1
 75
     0
 76
     0
 77
     0
 78
     0
170
     0
171
     2
172
     0
173
     0
174
     0
175
     0
176
     0
177
     0
178
     0
270
     2
271
     4
272
     4
273
     2
274
     2
340
11
275
     0
280
     0
281
     0
282
     0
283
     1
284
     0
285
     0
286
     0
287
     3
288
     0
  0
DIMSTYLE
105
4B2
102
{ACAD_REACTORS
330
4B3
102
}
330
A
100
AcDbSymbolTableRecord
100
AcDbDimStyleTableRecord
  2
ME10_DIM_10
 70
     0
  3

  4

  5

  6
OPEN30
  7
OPEN30
 40
1.0
 41
2.5
 42
0.5
 43
0.38
 44
2.121320343
 45
0.0
 46
0.0
 47
0.0
 48
0.0
140
2.5
141
0.09
142
0.0
143
25.4
144
1.0
145
0.0
146
1.0
147
1.0
 71
     0
 72
     0
 73
     0
 74
     0
 75
     0
 76
     0
 77
     1
 78
    12
170
     0
171
     2
172
     1
173
     1
174
     1
175
     1
176
     2
177
     2
178
     2
270
     2
271
     2
272
     4
273
     2
274
     2
340
4A8
275
     0
280
     0
281
     0
282
     0
283
     1
284
     0
285
     0
286
     0
287
     3
288
     0
  0
DIMSTYLE
105
4BF
102
{ACAD_REACTORS
330
4C0
102
}
330
A
100
AcDbSymbolTableRecord
100
AcDbDimStyleTableRecord
  2
ME10_DIM_11
 70
     0
  3

  4

  5

  6
OPEN30
  7
OPEN30
 40
1.0
 41
2.5
 42
0.5
 43
0.38
 44
2.121320343
 45
0.0
 46
0.0
 47
0.0
 48
0.0
140
2.5
141
0.09
142
0.0
143
25.4
144
1.0
145
0.0
146
1.0
147
1.0
 71
     0
 72
     0
 73
     0
 74
     0
 75
     0
 76
     0
 77
     1
 78
    12
170
     0
171
     2
172
     1
173
     1
174
     1
175
     1
176
     2
177
     2
178
     2
270
     2
271
     2
272
     4
273
     2
274
     2
340
4A8
275
     0
280
     0
281
     0
282
     0
283
     1
284
     0
285
     0
286
     0
287
     3
288
     0
  0
DIMSTYLE
105
4CC
102
{ACAD_REACTORS
330
4CD
102
}
330
A
100
AcDbSymbolTableRecord
100
AcDbDimStyleTableRecord
  2
ME10_DIM_12
 70
     0
  3

  4

  5

  6
OPEN30
  7
OPEN30
 40
1.0
 41
2.5
 42
0.5
 43
0.38
 44
2.121320343
 45
0.0
 46
0.0
 47
0.0
 48
0.0
140
2.5
141
0.09
142
0.0
143
25.4
144
1.0
145
0.0
146
1.0
147
1.0
 71
     0
 72
     0
 73
     0
 74
     0
 75
     0
 76
     0
 77
     1
 78
    12
170
     0
171
     2
172
     1
173
     1
174
     1
175
     1
176
     2
177
     2
178
     2
270
     2
271
     2
272
     4
273
     2
274
     2
340
4A8
275
     0
280
     0
281
     0
282
     0
283
     1
284
     0
285
     0
286
     0
287
     3
288
     0
  0
DIMSTYLE
105
4D9
102
{ACAD_REACTORS
330
4DA
102
}
330
A
100
AcDbSymbolTableRecord
100
AcDbDimStyleTableRecord
  2
ME10_DIM_13
 70
     0
  3

  4

  5

  6
OPEN30
  7
OPEN30
 40
1.0
 41
2.5
 42
0.5
 43
0.38
 44
2.121320343
 45
0.0
 46
0.0
 47
0.0
 48
0.0
140
2.5
141
0.09
142
0.0
143
25.4
144
1.0
145
0.0
146
1.0
147
1.0
 71
     0
 72
     0
 73
     0
 74
     0
 75
     0
 76
     0
 77
     1
 78
    12
170
     0
171
     2
172
     1
173
     1
174
     1
175
     1
176
     2
177
     2
178
     2
270
     2
271
     2
272
     4
273
     2
274
     2
340
4A8
275
     0
280
     0
281
     0
282
     0
283
     1
284
     0
285
     0
286
     0
287
     3
288
     0
  0
DIMSTYLE
105
4E6
102
{ACAD_REACTORS
330
4E7
102
}
330
A
100
AcDbSymbolTableRecord
100
AcDbDimStyleTableRecord
  2
ME10_DIM_14
 70
     0
  3

  4

  5

  6
OPEN30
  7
OPEN30
 40
1.0
 41
2.5
 42
0.5
 43
0.38
 44
2.121320343
 45
0.0
 46
0.0
 47
0.0
 48
0.0
140
2.5
141
0.09
142
0.0
143
25.4
144
1.0
145
0.0
146
1.0
147
1.0
 71
     0
 72
     0
 73
     0
 74
     0
 75
     0
 76
     0
 77
     1
 78
    12
170
     0
171
     2
172
     1
173
     1
174
     1
175
     1
176
     2
177
     2
178
     2
270
     2
271
     2
272
     4
273
     2
274
     2
340
4A8
275
     0
280
     0
281
     0
282
     0
283
     1
284
     0
285
     0
286
     0
287
     3
288
     0
  0
DIMSTYLE
105
4F3
102
{ACAD_REACTORS
330
4F4
102
}
330
A
100
AcDbSymbolTableRecord
100
AcDbDimStyleTableRecord
  2
ME10_DIM_15
 70
     0
  3

  4

  5

  6
OPEN30
  7
OPEN30
 40
1.0
 41
2.5
 42
0.5
 43
0.38
 44
2.121320343
 45
0.0
 46
0.0
 47
0.0
 48
0.0
140
2.5
141
0.09
142
0.0
143
25.4
144
1.0
145
0.0
146
1.0
147
1.0
 71
     0
 72
     0
 73
     0
 74
     0
 75
     0
 76
     0
 77
     1
 78
    12
170
     0
171
     2
172
     1
173
     1
174
     1
175
     1
176
     2
177
     2
178
     2
270
     2
271
     2
272
     4
273
     2
274
     2
340
4A8
275
     0
280
     0
281
     0
282
     0
283
     1
284
     0
285
     0
286
     0
287
     3
288
     0
  0
DIMSTYLE
105
500
102
{ACAD_REACTORS
330
501
102
}
330
A
100
AcDbSymbolTableRecord
100
AcDbDimStyleTableRecord
  2
ME10_DIM_16
 70
     0
  3

  4

  5

  6
OPEN30
  7
OPEN30
 40
1.0
 41
2.5
 42
0.5
 43
0.38
 44
2.121320343
 45
0.0
 46
0.0
 47
0.0
 48
0.0
140
2.5
141
0.09
142
0.0
143
25.4
144
1.0
145
0.0
146
1.0
147
1.0
 71
     0
 72
     0
 73
     0
 74
     0
 75
     0
 76
     0
 77
     1
 78
    12
170
     0
171
     2
172
     1
173
     1
174
     1
175
     1
176
     2
177
     2
178
     2
270
     2
271
     2
272
     4
273
     2
274
     2
340
4A8
275
     0
280
     0
281
     0
282
     0
283
     1
284
     0
285
     0
286
     0
287
     3
288
     0
  0
ENDTAB
  0
TABLE
  2
BLOCK_RECORD
  5
1
330
0
100
AcDbSymbolTable
 70
     9
  0
BLOCK_RECORD
  5
1F
330
1
100
AcDbSymbolTableRecord
100
AcDbBlockTableRecord
  2
*MODEL_SPACE
  0
BLOCK_RECORD
  5
1B
330
1
100
AcDbSymbolTableRecord
100
AcDbBlockTableRecord
  2
*PAPER_SPACE
  0
BLOCK_RECORD
  5
4A0
330
1
100
AcDbSymbolTableRecord
100
AcDbBlockTableRecord
  2
*D1
  0
BLOCK_RECORD
  5
4AC
330
1
100
AcDbSymbolTableRecord
100
AcDbBlockTableRecord
  2
_OPEN30
  0
BLOCK_RECORD
  5
4B4
330
1
100
AcDbSymbolTableRecord
100
AcDbBlockTableRecord
  2
*D3
  0
BLOCK_RECORD
  5
4C1
330
1
100
AcDbSymbolTableRecord
100
AcDbBlockTableRecord
  2
*D4
  0
BLOCK_RECORD
  5
4CE
330
1
100
AcDbSymbolTableRecord
100
AcDbBlockTableRecord
  2
*D5
  0
BLOCK_RECORD
  5
4DB
330
1
100
AcDbSymbolTableRecord
100
AcDbBlockTableRecord
  2
*D6
  0
BLOCK_RECORD
  5
4E8
330
1
100
AcDbSymbolTableRecord
100
AcDbBlockTableRecord
  2
*D7
  0
BLOCK_RECORD
  5
4F5
330
1
100
AcDbSymbolTableRecord
100
AcDbBlockTableRecord
  2
*D8
  0
ENDTAB
  0
ENDSEC
  0
SECTION
  2
BLOCKS
  0
BLOCK
  5
20
330
1F
100
AcDbEntity
  8
0
100
AcDbBlockBegin
  2
*MODEL_SPACE
 70
     0
 10
0.0
 20
0.0
 30
0.0
  3
*MODEL_SPACE
  1

  0
ENDBLK
  5
21
330
1F
100
AcDbEntity
  8
0
100
AcDbBlockEnd
  0
BLOCK
  5
1C
330
1B
100
AcDbEntity
 67
     1
  8
0
100
AcDbBlockBegin
  2
*PAPER_SPACE
 70
     0
 10
0.0
 20
0.0
 30
0.0
  3
*PAPER_SPACE
  1

  0
ENDBLK
  5
1D
330
1B
100
AcDbEntity
 67
     1
  8
0
100
AcDbBlockEnd
  0
BLOCK
  5
4AA
330
4A0
100
AcDbEntity
  8
0
100
AcDbBlockBegin
  2
*D1
 70
     1
 10
0.0
 20
0.0
 30
0.0
  3
*D1
  1

  0
LINE
  5
4A1
330
4A0
100
AcDbEntity
  8
1
  6
CONTINUOUS
 62
     2
100
AcDbLine
 10
138.833685757168
 20
175.5887888911399
 30
0.0
 11
138.833685757168
 21
212.7489747488
 31
0.0
  0
LINE
  5
4A2
330
4A0
100
AcDbEntity
  8
1
  6
CONTINUOUS
 62
     2
100
AcDbLine
 10
133.236623159917
 20
175.5887888911399
 30
0.0
 11
140.955006100168
 21
175.5887888911399
 31
0.0
  0
LINE
  5
4A3
330
4A0
100
AcDbEntity
  8
1
  6
CONTINUOUS
 62
     2
100
AcDbLine
 10
123.729111569
 20
212.7489747488
 30
0.0
 11
140.955006100168
 21
212.7489747488
 31
0.0
  0
LINE
  5
4A4
330
4A0
100
AcDbEntity
  8
1
 62
     2
100
AcDbLine
 10
138.833685757168
 20
212.7489747488
 30
0.0
 11
139.5035587382458
 21
210.2489747488
 31
0.0
  0
LINE
  5
4A5
330
4A0
100
AcDbEntity
  8
1
 62
     2
100
AcDbLine
 10
138.833685757168
 20
212.7489747488
 30
0.0
 11
138.1638127760902
 21
210.2489747488
 31
0.0
  0
LINE
  5
4A6
330
4A0
100
AcDbEntity
  8
1
 62
     2
100
AcDbLine
 10
138.833685757168
 20
175.5887888911399
 30
0.0
 11
138.1638127760902
 21
178.0887888911399
 31
0.0
  0
LINE
  5
4A7
330
4A0
100
AcDbEntity
  8
1
 62
     2
100
AcDbLine
 10
138.833685757168
 20
175.5887888911399
 30
0.0
 11
139.5035587382458
 21
178.0887888911399
 31
0.0
  0
MTEXT
  5
4A9
330
4A0
100
AcDbEntity
  8
1
 62
     2
100
AcDbMText
 10
137.833685757168
 20
193.767167223687
 30
0.0
 40
2.5
 41
0.0
 71
     7
 72
     1
  1
37
  7
CONVERTER_11
 11
0.0
 21
1.0
 31
0.0
1001
ACAD
1000
MTEXTBEGIN
1070
    44
1040
0.60024009603842
1000
MTEXTEND
  0
ENDBLK
  5
4AB
330
4A0
100
AcDbEntity
  8
0
100
AcDbBlockEnd
  0
BLOCK
  5
4AD
330
4AC
100
AcDbEntity
  8
0
100
AcDbBlockBegin
  2
_OPEN30
 70
     0
 10
0.0
 20
0.0
 30
0.0
  3
_OPEN30
  1

  0
LINE
  5
4AF
330
4AC
100
AcDbEntity
  8
0
  6
BYBLOCK
 62
     0
100
AcDbLine
 10
-1.0
 20
0.267949
 30
0.0
 11
0.0
 21
0.0
 31
0.0
  0
LINE
  5
4B0
330
4AC
100
AcDbEntity
  8
0
  6
BYBLOCK
 62
     0
100
AcDbLine
 10
0.0
 20
0.0
 30
0.0
 11
-1.0
 21
-0.267949
 31
0.0
  0
LINE
  5
4B1
330
4AC
100
AcDbEntity
  8
0
  6
BYBLOCK
 62
     0
100
AcDbLine
 10
0.0
 20
0.0
 30
0.0
 11
-1.0
 21
0.0
 31
0.0
  0
ENDBLK
  5
4AE
330
4AC
100
AcDbEntity
  8
0
100
AcDbBlockEnd
  0
BLOCK
  5
4BD
330
4B4
100
AcDbEntity
  8
0
100
AcDbBlockBegin
  2
*D3
 70
     1
 10
0.0
 20
0.0
 30
0.0
  3
*D3
  1

  0
LINE
  5
4B5
330
4B4
100
AcDbEntity
  8
1
  6
CONTINUOUS
 62
     2
100
AcDbLine
 10
232.8962499931
 20
116.748973199
 30
0.0
 11
162.8962496951
 21
116.748973199
 31
0.0
  0
LINE
  5
4B6
330
4B4
100
AcDbEntity
  8
1
  6
CONTINUOUS
 62
     2
100
AcDbLine
 10
232.8962499931
 20
125.7489745401
 30
0.0
 11
232.8962499931
 21
114.627652856
 31
0.0
  0
LINE
  5
4B7
330
4B4
100
AcDbEntity
  8
1
  6
CONTINUOUS
 62
     2
100
AcDbLine
 10
162.8962496951
 20
125.2488990211
 30
0.0
 11
162.8962496951
 21
114.627652856
 31
0.0
  0
LINE
  5
4B8
330
4B4
100
AcDbEntity
  8
1
 62
     2
100
AcDbLine
 10
162.8962496951
 20
116.748973199
 30
0.0
 11
165.3962496951
 21
117.4188461800778
 31
0.0
  0
LINE
  5
4B9
330
4B4
100
AcDbEntity
  8
1
 62
     2
100
AcDbLine
 10
162.8962496951
 20
116.748973199
 30
0.0
 11
165.3962496951
 21
116.0791002179222
 31
0.0
  0
LINE
  5
4BA
330
4B4
100
AcDbEntity
  8
1
 62
     2
100
AcDbLine
 10
232.8962499931
 20
116.748973199
 30
0.0
 11
230.3962499931
 21
116.0791002179222
 31
0.0
  0
LINE
  5
4BB
330
4B4
100
AcDbEntity
  8
1
 62
     2
100
AcDbLine
 10
232.8962499931
 20
116.748973199
 30
0.0
 11
230.3962499931
 21
117.4188461800778
 31
0.0
  0
MTEXT
  5
4BC
330
4B4
100
AcDbEntity
  8
1
 62
     2
100
AcDbMText
 10
196.0512528741909
 20
117.7489687265975
 30
0.0
 40
2.5
 41
0.0
 71
     7
 72
     1
  1
70
  7
CONVERTER_11
 11
0.9999999999882478
 21
4.848136811095759E-6
 31
0.0
1001
ACAD
1000
MTEXTBEGIN
1070
    44
1040
0.60024009603842
1000
MTEXTEND
  0
ENDBLK
  5
4BE
330
4B4
100
AcDbEntity
  8
0
100
AcDbBlockEnd
  0
BLOCK
  5
4CA
330
4C1
100
AcDbEntity
  8
0
100
AcDbBlockBegin
  2
*D4
 70
     1
 10
0.0
 20
0.0
 30
0.0
  3
*D4
  1

  0
LINE
  5
4C2
330
4C1
100
AcDbEntity
  8
1
  6
CONTINUOUS
 62
     2
100
AcDbLine
 10
162.8962496951
 20
116.748973199
 30
0.0
 11
152.8962496950439
 21
116.748973199
 31
0.0
  0
LINE
  5
4C3
330
4C1
100
AcDbEntity
  8
1
  6
CONTINUOUS
 62
     2
100
AcDbLine
 10
162.8962496951
 20
125.2488990211
 30
0.0
 11
162.8962496951
 21
114.627652856
 31
0.0
  0
LINE
  5
4C4
330
4C1
100
AcDbEntity
  8
1
  6
CONTINUOUS
 62
     2
100
AcDbLine
 10
152.8962496950439
 20
167.417631280651
 30
0.0
 11
152.8962496950439
 21
114.627652856
 31
0.0
  0
LINE
  5
4C5
330
4C1
100
AcDbEntity
  8
1
 62
     2
100
AcDbLine
 10
152.8962496950439
 20
116.748973199
 30
0.0
 11
155.3962496950439
 21
117.4188461800778
 31
0.0
  0
LINE
  5
4C6
330
4C1
100
AcDbEntity
  8
1
 62
     2
100
AcDbLine
 10
152.8962496950439
 20
116.748973199
 30
0.0
 11
155.3962496950439
 21
116.0791002179222
 31
0.0
  0
LINE
  5
4C7
330
4C1
100
AcDbEntity
  8
1
 62
     2
100
AcDbLine
 10
162.8962496951
 20
116.748973199
 30
0.0
 11
160.3962496951
 21
116.0791002179222
 31
0.0
  0
LINE
  5
4C8
330
4C1
100
AcDbEntity
  8
1
 62
     2
100
AcDbLine
 10
162.8962496951
 20
116.748973199
 30
0.0
 11
160.3962496951
 21
117.4188461800778
 31
0.0
  0
MTEXT
  5
4C9
330
4C1
100
AcDbEntity
  8
1
 62
     2
100
AcDbMText
 10
156.0512527251629
 20
117.7489687265975
 30
0.0
 40
2.5
 41
0.0
 71
     7
 72
     1
  1
10
  7
CONVERTER_11
 11
0.9999999999882478
 21
4.848136811095759E-6
 31
0.0
1001
ACAD
1000
MTEXTBEGIN
1070
    44
1040
0.60024009603842
1000
MTEXTEND
  0
ENDBLK
  5
4CB
330
4C1
100
AcDbEntity
  8
0
100
AcDbBlockEnd
  0
BLOCK
  5
4D7
330
4CE
100
AcDbEntity
  8
0
100
AcDbBlockBegin
  2
*D5
 70
     1
 10
0.0
 20
0.0
 30
0.0
  3
*D5
  1

  0
LINE
  5
4CF
330
4CE
100
AcDbEntity
  8
1
  6
CONTINUOUS
 62
     2
100
AcDbLine
 10
145.833685757168
 20
123.748973199
 30
0.0
 11
145.833685757168
 21
212.7489747488
 31
0.0
  0
LINE
  5
4D0
330
4CE
100
AcDbEntity
  8
1
  6
CONTINUOUS
 62
     2
100
AcDbLine
 10
123.729111569
 20
123.748973199
 30
0.0
 11
147.955006100168
 21
123.748973199
 31
0.0
  0
LINE
  5
4D1
330
4CE
100
AcDbEntity
  8
1
  6
CONTINUOUS
 62
     2
100
AcDbLine
 10
123.729111569
 20
212.7489747488
 30
0.0
 11
147.955006100168
 21
212.7489747488
 31
0.0
  0
LINE
  5
4D2
330
4CE
100
AcDbEntity
  8
1
 62
     2
100
AcDbLine
 10
145.833685757168
 20
212.7489747488
 30
0.0
 11
146.5035587382458
 21
210.2489747488
 31
0.0
  0
LINE
  5
4D3
330
4CE
100
AcDbEntity
  8
1
 62
     2
100
AcDbLine
 10
145.833685757168
 20
212.7489747488
 30
0.0
 11
145.1638127760902
 21
210.2489747488
 31
0.0
  0
LINE
  5
4D4
330
4CE
100
AcDbEntity
  8
1
 62
     2
100
AcDbLine
 10
145.833685757168
 20
123.748973199
 30
0.0
 11
145.1638127760902
 21
126.248973199
 31
0.0
  0
LINE
  5
4D5
330
4CE
100
AcDbEntity
  8
1
 62
     2
100
AcDbLine
 10
145.833685757168
 20
123.748973199
 30
0.0
 11
146.5035587382458
 21
126.248973199
 31
0.0
  0
MTEXT
  5
4D6
330
4CE
100
AcDbEntity
  8
1
 62
     2
100
AcDbMText
 10
144.833685757168
 20
166.4039739739
 30
0.0
 40
2.5
 41
0.0
 71
     7
 72
     1
  1
89
  7
CONVERTER_11
 11
0.0
 21
1.0
 31
0.0
1001
ACAD
1000
MTEXTBEGIN
1070
    44
1040
0.60024009603842
1000
MTEXTEND
  0
ENDBLK
  5
4D8
330
4CE
100
AcDbEntity
  8
0
100
AcDbBlockEnd
  0
BLOCK
  5
4E4
330
4DB
100
AcDbEntity
  8
0
100
AcDbBlockBegin
  2
*D6
 70
     1
 10
0.0
 20
0.0
 30
0.0
  3
*D6
  1

  0
LINE
  5
4DC
330
4DB
100
AcDbEntity
  8
1
  6
CONTINUOUS
 62
     2
100
AcDbLine
 10
101.7291108389
 20
116.748973199
 30
0.0
 11
124.2291117329
 21
116.748973199
 31
0.0
  0
LINE
  5
4DD
330
4DB
100
AcDbEntity
  8
1
  6
CONTINUOUS
 62
     2
100
AcDbLine
 10
101.7291108389
 20
124.1957929813
 30
0.0
 11
101.7291108389
 21
114.627652856
 31
0.0
  0
LINE
  5
4DE
330
4DB
100
AcDbEntity
  8
1
  6
CONTINUOUS
 62
     2
100
AcDbLine
 10
124.2291117329
 20
124.1957929813
 30
0.0
 11
124.2291117329
 21
114.627652856
 31
0.0
  0
LINE
  5
4DF
330
4DB
100
AcDbEntity
  8
1
 62
     2
100
AcDbLine
 10
124.2291117329
 20
116.748973199
 30
0.0
 11
121.7291117329
 21
116.0791002179222
 31
0.0
  0
LINE
  5
4E0
330
4DB
100
AcDbEntity
  8
1
 62
     2
100
AcDbLine
 10
124.2291117329
 20
116.748973199
 30
0.0
 11
121.7291117329
 21
117.4188461800778
 31
0.0
  0
LINE
  5
4E1
330
4DB
100
AcDbEntity
  8
1
 62
     2
100
AcDbLine
 10
101.7291108389
 20
116.748973199
 30
0.0
 11
104.2291108389
 21
117.4188461800778
 31
0.0
  0
LINE
  5
4E2
330
4DB
100
AcDbEntity
  8
1
 62
     2
100
AcDbLine
 10
101.7291108389
 20
116.748973199
 30
0.0
 11
104.2291108389
 21
116.0791002179222
 31
0.0
  0
MTEXT
  5
4E3
330
4DB
100
AcDbEntity
  8
1
 62
     2
100
AcDbMText
 10
109.2891143159964
 20
117.7489642541913
 30
0.0
 40
2.5
 41
0.0
 71
     7
 72
     1
  1
22.5
  7
CONVERTER_11
 11
0.9999999999882478
 21
4.848136811095759E-6
 31
0.0
1001
ACAD
1000
MTEXTBEGIN
1070
    44
1040
0.60024009603842
1000
MTEXTEND
  0
ENDBLK
  5
4E5
330
4DB
100
AcDbEntity
  8
0
100
AcDbBlockEnd
  0
BLOCK
  5
4F1
330
4E8
100
AcDbEntity
  8
0
100
AcDbBlockBegin
  2
*D7
 70
     1
 10
0.0
 20
0.0
 30
0.0
  3
*D7
  1

  0
LINE
  5
4E9
330
4E8
100
AcDbEntity
  8
1
  6
CONTINUOUS
 62
     2
100
AcDbLine
 10
127.436712372893
 20
109.748973199
 30
0.0
 11
98.436712372893
 21
109.748973199
 31
0.0
  0
LINE
  5
4EA
330
4E8
100
AcDbEntity
  8
1
  6
CONTINUOUS
 62
     2
100
AcDbLine
 10
127.436712372893
 20
140.3091429467798
 30
0.0
 11
127.436712372893
 21
107.627652856
 31
0.0
  0
LINE
  5
4EB
330
4E8
100
AcDbEntity
  8
1
  6
CONTINUOUS
 62
     2
100
AcDbLine
 10
98.436712372893
 20
140.3091429467798
 30
0.0
 11
98.436712372893
 21
107.627652856
 31
0.0
  0
LINE
  5
4EC
330
4E8
100
AcDbEntity
  8
1
 62
     2
100
AcDbLine
 10
98.436712372893
 20
109.748973199
 30
0.0
 11
100.936712372893
 21
110.4188461800778
 31
0.0
  0
LINE
  5
4ED
330
4E8
100
AcDbEntity
  8
1
 62
     2
100
AcDbLine
 10
98.436712372893
 20
109.748973199
 30
0.0
 11
100.936712372893
 21
109.0791002179222
 31
0.0
  0
LINE
  5
4EE
330
4E8
100
AcDbEntity
  8
1
 62
     2
100
AcDbLine
 10
127.436712372893
 20
109.748973199
 30
0.0
 11
124.936712372893
 21
109.0791002179222
 31
0.0
  0
LINE
  5
4EF
330
4E8
100
AcDbEntity
  8
1
 62
     2
100
AcDbLine
 10
127.436712372893
 20
109.748973199
 30
0.0
 11
124.936712372893
 21
110.4188461800778
 31
0.0
  0
MTEXT
  5
4F0
330
4E8
100
AcDbEntity
  8
1
 62
     2
100
AcDbMText
 10
109.2467154029894
 20
110.7489642541913
 30
0.0
 40
2.5
 41
0.0
 71
     7
 72
     1
  1
29.5
  7
CONVERTER_11
 11
0.9999999999882478
 21
4.848136811095759E-6
 31
0.0
1001
ACAD
1000
MTEXTBEGIN
1070
    44
1040
0.60024009603842
1000
MTEXTEND
  0
ENDBLK
  5
4F2
330
4E8
100
AcDbEntity
  8
0
100
AcDbBlockEnd
  0
BLOCK
  5
4FE
330
4F5
100
AcDbEntity
  8
0
100
AcDbBlockBegin
  2
*D8
 70
     1
 10
0.0
 20
0.0
 30
0.0
  3
*D8
  1

  0
LINE
  5
4F6
330
4F5
100
AcDbEntity
  8
1
  6
CONTINUOUS
 62
     2
100
AcDbLine
 10
232.8962499931
 20
116.748973199
 30
0.0
 11
262.8962499931
 21
116.748973199
 31
0.0
  0
LINE
  5
4F7
330
4F5
100
AcDbEntity
  8
1
  6
CONTINUOUS
 62
     2
100
AcDbLine
 10
232.8962499931
 20
158.0888041499398
 30
0.0
 11
232.8962499931
 21
114.627652856
 31
0.0
  0
LINE
  5
4F8
330
4F5
100
AcDbEntity
  8
1
  6
CONTINUOUS
 62
     2
100
AcDbLine
 10
262.8962499931
 20
135.0888041499398
 30
0.0
 11
262.8962499931
 21
114.627652856
 31
0.0
  0
LINE
  5
4F9
330
4F5
100
AcDbEntity
  8
1
 62
     2
100
AcDbLine
 10
262.8962499931
 20
116.748973199
 30
0.0
 11
260.3962499931
 21
116.0791002179222
 31
0.0
  0
LINE
  5
4FA
330
4F5
100
AcDbEntity
  8
1
 62
     2
100
AcDbLine
 10
262.8962499931
 20
116.748973199
 30
0.0
 11
260.3962499931
 21
117.4188461800778
 31
0.0
  0
LINE
  5
4FB
330
4F5
100
AcDbEntity
  8
1
 62
     2
100
AcDbLine
 10
232.8962499931
 20
116.748973199
 30
0.0
 11
235.3962499931
 21
117.4188461800778
 31
0.0
  0
LINE
  5
4FC
330
4F5
100
AcDbEntity
  8
1
 62
     2
100
AcDbLine
 10
232.8962499931
 20
116.748973199
 30
0.0
 11
235.3962499931
 21
116.0791002179222
 31
0.0
  0
MTEXT
  5
4FD
330
4F5
100
AcDbEntity
  8
1
 62
     2
100
AcDbMText
 10
246.051253023191
 20
117.7489687265975
 30
0.0
 40
2.5
 41
0.0
 71
     7
 72
     1
  1
30
  7
CONVERTER_11
 11
0.9999999999882478
 21
4.848136811095759E-6
 31
0.0
1001
ACAD
1000
MTEXTBEGIN
1070
    44
1040
0.60024009603842
1000
MTEXTEND
  0
ENDBLK
  5
4FF
330
4F5
100
AcDbEntity
  8
0
100
AcDbBlockEnd
  0
ENDSEC
  0
SECTION
  2
ENTITIES
  0
POINT
  5
78
330
1F
100
AcDbEntity
  8
1
 62
     7
100
AcDbPoint
 10
132.736623159917
 20
175.58878889114
 30
0.0
  0
POINT
  5
79
330
1F
100
AcDbEntity
  8
1
 62
     7
100
AcDbPoint
 10
123.229111569
 20
212.7489747488
 30
0.0
  0
POINT
  5
7A
330
1F
100
AcDbEntity
  8
1
 62
     7
100
AcDbPoint
 10
232.8962499931
 20
126.2489745401
 30
0.0
  0
POINT
  5
7B
330
1F
100
AcDbEntity
  8
1
 62
     7
100
AcDbPoint
 10
162.8962496951
 20
125.7488990211
 30
0.0
  0
POINT
  5
7C
330
1F
100
AcDbEntity
  8
1
 62
     7
100
AcDbPoint
 10
162.8962496951
 20
125.7488990211
 30
0.0
  0
POINT
  5
7D
330
1F
100
AcDbEntity
  8
1
 62
     7
100
AcDbPoint
 10
152.896249695044
 20
167.917631280651
 30
0.0
  0
POINT
  5
7E
330
1F
100
AcDbEntity
  8
1
 62
     7
100
AcDbPoint
 10
123.229111569
 20
123.748973199
 30
0.0
  0
POINT
  5
7F
330
1F
100
AcDbEntity
  8
1
 62
     7
100
AcDbPoint
 10
123.229111569
 20
212.7489747488
 30
0.0
  0
POINT
  5
80
330
1F
100
AcDbEntity
  8
1
 62
     7
100
AcDbPoint
 10
101.7291108389
 20
124.6957929813
 30
0.0
  0
POINT
  5
81
330
1F
100
AcDbEntity
  8
1
 62
     7
100
AcDbPoint
 10
124.2291117329
 20
124.6957929813
 30
0.0
  0
POINT
  5
82
330
1F
100
AcDbEntity
  8
1
 62
     7
100
AcDbPoint
 10
127.436712372893
 20
140.80914294678
 30
0.0
  0
POINT
  5
83
330
1F
100
AcDbEntity
  8
1
 62
     7
100
AcDbPoint
 10
98.4367123728933
 20
140.80914294678
 30
0.0
  0
POINT
  5
84
330
1F
100
AcDbEntity
  8
1
 62
     7
100
AcDbPoint
 10
232.8962499931
 20
158.58880414994
 30
0.0
  0
POINT
  5
85
330
1F
100
AcDbEntity
  8
1
 62
     7
100
AcDbPoint
 10
262.8962499931
 20
135.58880414994
 30
0.0
  0
POINT
  5
86
330
1F
100
AcDbEntity
  8
1
 62
     3
100
AcDbPoint
 10
152.896249695044
 20
167.917631280651
 30
0.0
  0
POINT
  5
87
330
1F
100
AcDbEntity
  8
Z_OM_DIM
 62
     7
100
AcDbPoint
 10
127.436712285002
 20
140.747703002347
 30
0.0
  0
POINT
  5
88
330
1F
100
AcDbEntity
  8
Z_OM_DIM
 62
     7
100
AcDbPoint
 10
98.4367123728933
 20
140.80914294678
 30
0.0
  0
POINT
  5
89
330
1F
100
AcDbEntity
  8
Z_OM_DIM
 62
     7
100
AcDbPoint
 10
98.4367123728933
 20
140.80914294678
 30
0.0
  0
POINT
  5
8A
330
1F
100
AcDbEntity
  8
Z_OM_DIM
 62
     7
100
AcDbPoint
 10
98.4367123728933
 20
211.58880414994
 30
0.0
  0
POINT
  5
8B
330
1F
100
AcDbEntity
  8
Z_OM_DIM
 62
     7
100
AcDbPoint
 10
126.355356453104
 20
211.58880414994
 30
0.0
  0
LINE
  5
8C
330
1F
100
AcDbEntity
  8
0
  6
CONTINUOUS
 62
     7
100
AcDbLine
 10
109.0183240959
 20
206.7335895166744
 30
0.0
 11
109.108338144505
 21
206.7335893585654
 31
0.0
  0
LINE
  5
8D
330
1F
100
AcDbEntity
  8
0
  6
CONTINUOUS
 62
     7
100
AcDbLine
 10
107.9341526627496
 20
206.2489739739499
 30
0.0
 11
107.7201345328741
 21
206.2490151436035
 31
0.0
  0
LINE
  5
8E
330
1F
100
AcDbEntity
  8
0
  6
CONTINUOUS
 62
     7
100
AcDbLine
 10
104.4791109446002
 20
206.2489739739499
 30
0.0
 11
106.0769948811916
 21
206.2489739739499
 31
0.0
  0
LINE
  5
8F
330
1F
100
AcDbEntity
  8
0
  6
CONTINUOUS
 62
     7
100
AcDbLine
 10
106.3037622742494
 20
206.8566599111613
 30
0.0
 11
105.6277389787434
 21
207.4428214018924
 31
0.0
  0
LINE
  5
90
330
1F
100
AcDbEntity
  8
0
  6
CONTINUOUS
 62
     7
100
AcDbLine
 10
105.673092457355
 20
207.5643585893346
 30
0.0
 11
106.399295003588
 21
207.5643585893346
 31
0.0
  0
LINE
  5
91
330
1F
100
AcDbEntity
  8
0
  6
CONTINUOUS
 62
     7
100
AcDbLine
 10
106.8738373106008
 20
207.4290870371217
 30
0.0
 11
106.5576269683464
 21
206.2489739739499
 31
0.0
  0
LINE
  5
92
330
1F
100
AcDbEntity
  8
0
  6
CONTINUOUS
 62
     7
100
AcDbLine
 10
106.5576269683464
 20
206.2489739739499
 30
0.0
 11
107.0593377326991
 21
206.2489739739499
 31
0.0
  0
LINE
  5
93
330
1F
100
AcDbEntity
  8
0
  6
CONTINUOUS
 62
     7
100
AcDbLine
 10
107.0593377326991
 20
206.2489739739499
 30
0.0
 11
107.2613179516635
 21
207.0027744132491
 31
0.0
  0
LINE
  5
94
330
1F
100
AcDbEntity
  8
0
  6
CONTINUOUS
 62
     7
100
AcDbLine
 10
107.461933315585
 20
206.9490196884972
 30
0.0
 11
107.3911141670523
 21
206.6847190280239
 31
0.0
  0
LINE
  5
95
330
1F
100
AcDbEntity
  8
0
  6
CONTINUOUS
 62
     7
100
AcDbLine
 10
108.5337087115235
 20
206.2489739739499
 30
0.0
 11
108.8659012251188
 21
206.2489739739499
 31
0.0
  0
LINE
  5
96
330
1F
100
AcDbEntity
  8
0
  6
CONTINUOUS
 62
     7
100
AcDbLine
 10
109.1656792495056
 20
206.3528201277961
 30
0.0
 11
109.1378537564455
 21
206.2489739739499
 31
0.0
  0
LINE
  5
97
330
1F
100
AcDbEntity
  8
0
  6
CONTINUOUS
 62
     7
100
AcDbLine
 10
109.1378537564455
 20
206.2489739739499
 30
0.0
 11
109.639564520798
 21
206.2489739739499
 31
0.0
  0
LINE
  5
98
330
1F
100
AcDbEntity
  8
0
  6
CONTINUOUS
 62
     7
100
AcDbLine
 10
109.639564520798
 20
206.2489739739499
 30
0.0
 11
109.827795589418
 21
206.9514618856024
 31
0.0
  0
LINE
  5
99
330
1F
100
AcDbEntity
  8
0
  6
CONTINUOUS
 62
     7
100
AcDbLine
 10
110.0455574734323
 20
206.9616988450098
 30
0.0
 11
109.9713409551513
 21
206.6847190280239
 31
0.0
  0
LINE
  5
9A
330
1F
100
AcDbEntity
  8
0
  6
CONTINUOUS
 62
     7
100
AcDbLine
 10
110.3056998950207
 20
206.2489739739499
 30
0.0
 11
110.5143794508485
 21
206.2489739739499
 31
0.0
  0
LINE
  5
9B
330
1F
100
AcDbEntity
  8
0
  6
CONTINUOUS
 62
     7
100
AcDbLine
 10
110.8141574752356
 20
206.3528201277961
 30
0.0
 11
110.7863319821753
 21
206.2489739739499
 31
0.0
  0
LINE
  5
9C
330
1F
100
AcDbEntity
  8
0
  6
CONTINUOUS
 62
     7
100
AcDbLine
 10
110.7863319821753
 20
206.2489739739499
 30
0.0
 11
111.2880427465281
 21
206.2489739739499
 31
0.0
  0
LINE
  5
9D
330
1F
100
AcDbEntity
  8
0
  6
CONTINUOUS
 62
     7
100
AcDbLine
 10
111.2880427465281
 20
206.2489739739499
 30
0.0
 11
111.4693992399756
 21
206.925805621779
 31
0.0
  0
LINE
  5
9E
330
1F
100
AcDbEntity
  8
0
  6
CONTINUOUS
 62
     7
100
AcDbLine
 10
111.6700146038971
 20
207.0797432047192
 30
0.0
 11
111.6885649326039
 21
207.0797432047192
 31
0.0
  0
LINE
  5
9F
330
1F
100
AcDbEntity
  8
0
  6
CONTINUOUS
 62
     7
100
AcDbLine
 10
111.9541781207505
 20
206.2489739739499
 30
0.0
 11
112.1628576765785
 21
206.2489739739499
 31
0.0
  0
LINE
  5
A0
330
1F
100
AcDbEntity
  8
0
  6
CONTINUOUS
 62
     7
100
AcDbLine
 10
112.7624137253523
 20
206.2489739739499
 30
0.0
 11
113.6477679940018
 21
206.2489739739499
 31
0.0
  0
LINE
  5
A1
330
1F
100
AcDbEntity
  8
0
  6
CONTINUOUS
 62
     7
100
AcDbLine
 10
114.0155628278581
 20
206.7282935334313
 30
0.0
 11
113.8809093485484
 21
207.2308271596306
 31
0.0
  0
LINE
  5
A2
330
1F
100
AcDbEntity
  8
0
  6
CONTINUOUS
 62
     7
100
AcDbLine
 10
113.4462427267184
 20
207.5643585893346
 30
0.0
 11
113.1325635979246
 21
207.5643585893346
 31
0.0
  0
LINE
  5
A3
330
1F
100
AcDbEntity
  8
0
  6
CONTINUOUS
 62
     7
100
AcDbLine
 10
112.6978969760943
 20
207.2308271596306
 30
0.0
 11
112.6059099598864
 21
206.8875269415055
 31
0.0
  0
LINE
  5
A4
330
1F
100
AcDbEntity
  8
0
  6
CONTINUOUS
 62
     7
100
AcDbLine
 10
112.4052945959649
 20
206.7335893585654
 30
0.0
 11
112.298394935964
 21
206.7335893585654
 31
0.0
  0
LINE
  5
A5
330
1F
100
AcDbEntity
  8
0
  6
CONTINUOUS
 62
     7
100
AcDbLine
 10
111.5580040898893
 20
207.256483423454
 30
0.0
 11
111.7703512929039
 21
208.0489739739498
 31
0.0
  0
LINE
  5
A6
330
1F
100
AcDbEntity
  8
0
  6
CONTINUOUS
 62
     7
100
AcDbLine
 10
111.7703512929039
 20
208.0489739739498
 30
0.0
 11
111.2686405285514
 21
208.0489739739498
 31
0.0
  0
LINE
  5
A7
330
1F
100
AcDbEntity
  8
0
  6
CONTINUOUS
 62
     7
100
AcDbLine
 10
111.2686405285514
 20
208.0489739739498
 30
0.0
 11
110.9574317341566
 21
206.8875269415055
 31
0.0
  0
LINE
  5
A8
330
1F
100
AcDbEntity
  8
0
  6
CONTINUOUS
 62
     7
100
AcDbLine
 10
110.7568163702348
 20
206.7335893585654
 30
0.0
 11
110.6665930751921
 21
206.7335893585654
 31
0.0
  0
LINE
  5
A9
330
1F
100
AcDbEntity
  8
0
  6
CONTINUOUS
 62
     7
100
AcDbLine
 10
110.5328494992442
 20
206.9078873801949
 30
0.0
 11
110.5919928942425
 21
207.1286135352607
 31
0.0
  0
LINE
  5
AA
330
1F
100
AcDbEntity
  8
0
  6
CONTINUOUS
 62
     7
100
AcDbLine
 10
109.9232750145039
 20
207.3077959511008
 30
0.0
 11
109.9920207662266
 21
207.5643585893346
 31
0.0
  0
LINE
  5
AB
330
1F
100
AcDbEntity
  8
0
  6
CONTINUOUS
 62
     7
100
AcDbLine
 10
109.9920207662266
 20
207.5643585893346
 30
0.0
 11
109.490310001874
 21
207.5643585893346
 31
0.0
  0
LINE
  5
AC
330
1F
100
AcDbEntity
  8
0
  6
CONTINUOUS
 62
     7
100
AcDbLine
 10
109.490310001874
 20
207.5643585893346
 30
0.0
 11
109.3089535084265
 21
206.8875269415055
 31
0.0
  0
LINE
  5
AD
330
1F
100
AcDbEntity
  8
0
  6
CONTINUOUS
 62
     7
100
AcDbLine
 10
108.8843712735144
 20
206.9078873801949
 30
0.0
 11
109.0602722038576
 21
207.5643585893346
 31
0.0
  0
LINE
  5
AE
330
1F
100
AcDbEntity
  8
0
  6
CONTINUOUS
 62
     7
100
AcDbLine
 10
108.5585614395051
 20
207.5643585893346
 30
0.0
 11
108.3772049460575
 21
206.8875269415055
 31
0.0
  0
LINE
  5
AF
330
1F
100
AcDbEntity
  8
0
  6
CONTINUOUS
 62
     7
100
AcDbLine
 10
108.1765895821359
 20
206.7335893585654
 30
0.0
 11
108.086366287093
 21
206.7335893585654
 31
0.0
  0
LINE
  5
B0
330
1F
100
AcDbEntity
  8
0
  6
CONTINUOUS
 62
     7
100
AcDbLine
 10
107.9526227111452
 20
206.9078873801949
 30
0.0
 11
108.0117661061436
 21
207.1286135352607
 31
0.0
  0
LINE
  5
B1
330
1F
100
AcDbEntity
  8
0
  6
CONTINUOUS
 62
     7
100
AcDbLine
 10
107.3430482264049
 20
207.3077959511008
 30
0.0
 11
107.5416462790751
 21
208.0489739739498
 31
0.0
  0
LINE
  5
B2
330
1F
100
AcDbEntity
  8
0
  6
CONTINUOUS
 62
     7
100
AcDbLine
 10
107.5416462790751
 20
208.0489739739498
 30
0.0
 11
107.0399355147225
 21
208.0489739739498
 31
0.0
  0
LINE
  5
B3
330
1F
100
AcDbEntity
  8
0
  6
CONTINUOUS
 62
     7
100
AcDbLine
 10
107.0399355147225
 20
208.0489739739498
 30
0.0
 11
107.002834857309
 21
207.9105124354884
 31
0.0
  0
LINE
  5
B4
330
1F
100
AcDbEntity
  8
0
  6
CONTINUOUS
 62
     7
100
AcDbLine
 10
106.399295003588
 20
208.0489739739498
 30
0.0
 11
105.2270326791227
 21
208.0489739739498
 31
0.0
  0
LINE
  5
B5
330
1F
100
AcDbEntity
  8
0
  6
CONTINUOUS
 62
     7
100
AcDbLine
 10
105.0002652860649
 20
207.4412880367387
 30
0.0
 11
105.6762885815709
 21
206.8551265460077
 31
0.0
  0
LINE
  5
B6
330
1F
100
AcDbEntity
  8
0
  6
CONTINUOUS
 62
     7
100
AcDbLine
 10
104.6089632455474
 20
206.7335893585654
 30
0.0
 11
104.4791109446002
 21
206.2489739739499
 31
0.0
  0
LINE
  5
B7
330
1F
100
AcDbEntity
  8
0
  6
CONTINUOUS
 62
     7
100
AcDbLine
 10
113.1385011912222
 20
207.0027744132491
 30
0.0
 11
113.1130762873432
 21
206.9078873801949
 31
0.0
  0
LINE
  5
B8
330
1F
100
AcDbEntity
  8
0
  6
CONTINUOUS
 62
     7
100
AcDbLine
 10
113.246819863291
 20
206.7335893585654
 30
0.0
 11
113.3319864613519
 21
206.7335893585654
 31
0.0
  0
LINE
  5
B9
330
1F
100
AcDbEntity
  8
0
  6
CONTINUOUS
 62
     7
100
AcDbLine
 10
113.4657300372995
 20
206.9078873801949
 30
0.0
 11
113.4403051334206
 21
207.0027744132491
 31
0.0
  0
LINE
  5
BA
330
1F
100
AcDbEntity
  8
0
  6
CONTINUOUS
 62
     7
100
AcDbLine
 10
113.3399974514597
 20
207.0797432047192
 30
0.0
 11
113.2388088731831
 21
207.0797432047192
 31
0.0
  0
LINE
  5
BB
330
1F
100
AcDbEntity
  8
0
  6
CONTINUOUS
 62
     7
100
AcDbLine
 10
111.6775827445488
 20
206.8032563454695
 30
0.0
 11
111.6515811593637
 21
206.8032563454695
 31
0.0
  0
LINE
  5
BC
330
1F
100
AcDbEntity
  8
0
  6
CONTINUOUS
 62
     7
100
AcDbLine
 10
111.6515811593637
 20
206.8032563454695
 30
0.0
 11
111.6198191808811
 21
206.6847190280239
 31
0.0
  0
LINE
  5
BD
330
1F
100
AcDbEntity
  8
0
  6
CONTINUOUS
 62
     7
100
AcDbLine
 10
109.0602722038576
 20
207.5643585893346
 30
0.0
 11
108.9898753519524
 21
207.5643585893346
 31
0.0
  0
LINE
  5
BE
330
1F
100
AcDbEntity
  8
0
  6
CONTINUOUS
 62
     7
100
AcDbLine
 10
108.740260263651
 20
207.5643585893346
 30
0.0
 11
108.5585614395051
 21
207.5643585893346
 31
0.0
  0
LINE
  5
BF
330
1F
100
AcDbEntity
  8
0
  6
CONTINUOUS
 62
     7
100
AcDbLine
 10
105.6309351029594
 20
206.7335893585654
 30
0.0
 11
104.6089632455474
 21
206.7335893585654
 31
0.0
  0
LINE
  5
FD
330
1F
100
AcDbEntity
  8
1
  6
CONTINUOUS
 62
     7
100
AcDbLine
 10
115.28126271136
 20
132.3489739739
 30
0.0
 11
116.48126271136
 21
132.3489739739
 31
0.0
  0
LINE
  5
FE
330
1F
100
AcDbEntity
  8
1
  6
CONTINUOUS
 62
     7
100
AcDbLine
 10
118.48126271136
 20
132.3489739739
 30
0.0
 11
119.68126271136
 21
132.3489739739
 31
0.0
  0
LINE
  5
FF
330
1F
100
AcDbEntity
  8
1
  6
CONTINUOUS
 62
     7
100
AcDbLine
 10
119.68126271136
 20
132.3489739739
 30
0.0
 11
117.48126271136
 21
130.1489739739
 31
0.0
  0
LINE
  5
100
330
1F
100
AcDbEntity
  8
1
  6
CONTINUOUS
 62
     7
100
AcDbLine
 10
115.28126271136
 20
132.3489739739
 30
0.0
 11
117.48126271136
 21
130.1489739739
 31
0.0
  0
LINE
  5
101
330
1F
100
AcDbEntity
  8
1
  6
CONTINUOUS
 62
     7
100
AcDbLine
 10
116.48126271136
 20
132.3489739739
 30
0.0
 11
117.48126271136
 21
131.3489739739
 31
0.0
  0
LINE
  5
102
330
1F
100
AcDbEntity
  8
1
  6
CONTINUOUS
 62
     7
100
AcDbLine
 10
118.48126271136
 20
132.3489739739
 30
0.0
 11
117.48126271136
 21
131.3489739739
 31
0.0
  0
LINE
  5
103
330
1F
100
AcDbEntity
  8
1
  6
CONTINUOUS
 62
     7
100
AcDbLine
 10
117.48126271136
 20
149.1489739739
 30
0.0
 11
118.48126271136
 21
148.1489739739
 31
0.0
  0
LINE
  5
104
330
1F
100
AcDbEntity
  8
1
  6
CONTINUOUS
 62
     7
100
AcDbLine
 10
117.48126271136
 20
149.1489739739
 30
0.0
 11
116.48126271136
 21
148.1489739739
 31
0.0
  0
LINE
  5
105
330
1F
100
AcDbEntity
  8
1
  6
CONTINUOUS
 62
     7
100
AcDbLine
 10
117.48126271136
 20
150.3489739739
 30
0.0
 11
115.28126271136
 21
148.1489739739
 31
0.0
  0
LINE
  5
106
330
1F
100
AcDbEntity
  8
1
  6
CONTINUOUS
 62
     7
100
AcDbLine
 10
117.48126271136
 20
150.3489739739
 30
0.0
 11
119.68126271136
 21
148.1489739739
 31
0.0
  0
LINE
  5
107
330
1F
100
AcDbEntity
  8
1
  6
CONTINUOUS
 62
     7
100
AcDbLine
 10
119.68126271136
 20
148.1489739739
 30
0.0
 11
118.48126271136
 21
148.1489739739
 31
0.0
  0
LINE
  5
108
330
1F
100
AcDbEntity
  8
1
  6
CONTINUOUS
 62
     7
100
AcDbLine
 10
116.48126271136
 20
148.1489739739
 30
0.0
 11
115.28126271136
 21
148.1489739739
 31
0.0
  0
LINE
  5
109
330
1F
100
AcDbEntity
  8
1
  6
CONTINUOUS
 62
     7
100
AcDbLine
 10
114.6791112277
 20
142.7489739739
 30
0.0
 11
120.2791112277
 21
142.7489739739
 31
0.0
  0
LINE
  5
10A
330
1F
100
AcDbEntity
  8
1
  6
CONTINUOUS
 62
     7
100
AcDbLine
 10
120.4791112277
 20
147.5489739739
 30
0.0
 11
120.4791112277
 21
142.9489739739
 31
0.0
  0
LINE
  5
10B
330
1F
100
AcDbEntity
  8
1
  6
CONTINUOUS
 62
     7
100
AcDbLine
 10
120.4791112277
 20
147.5489739739
 30
0.0
 11
114.4791112277
 21
147.5489739739
 31
0.0
  0
LINE
  5
10C
330
1F
100
AcDbEntity
  8
1
  6
CONTINUOUS
 62
     7
100
AcDbLine
 10
114.4791112277
 20
147.5489739739
 30
0.0
 11
114.4791112277
 21
142.9489739739
 31
0.0
  0
LINE
  5
10D
330
1F
100
AcDbEntity
  8
1
  6
CONTINUOUS
 62
     7
100
AcDbLine
 10
120.2791112277
 20
142.2489739739
 30
0.0
 11
114.6791112277
 21
142.2489739739
 31
0.0
  0
LINE
  5
10E
330
1F
100
AcDbEntity
  8
1
  6
CONTINUOUS
 62
     7
100
AcDbLine
 10
120.9791112277
 20
142.9489739739
 30
0.0
 11
120.9791112277
 21
150.1489739739
 31
0.0
  0
LINE
  5
10F
330
1F
100
AcDbEntity
  8
1
  6
CONTINUOUS
 62
     7
100
AcDbLine
 10
113.9791112277
 20
142.9489739739
 30
0.0
 11
113.9791112277
 21
150.1489739739
 31
0.0
  0
LINE
  5
110
330
1F
100
AcDbEntity
  8
1
  6
CONTINUOUS
 62
     7
100
AcDbLine
 10
114.6791112277
 20
150.8489739739
 30
0.0
 11
120.2791112277
 21
150.8489739739
 31
0.0
  0
LINE
  5
111
330
1F
100
AcDbEntity
  8
1
  6
CONTINUOUS
 62
     7
100
AcDbLine
 10
120.2791112277
 20
129.6489739739
 30
0.0
 11
114.6791112277
 21
129.6489739739
 31
0.0
  0
LINE
  5
112
330
1F
100
AcDbEntity
  8
1
  6
CONTINUOUS
 62
     7
100
AcDbLine
 10
113.9791112277
 20
130.3489739739
 30
0.0
 11
113.9791112277
 21
137.5489739739
 31
0.0
  0
LINE
  5
113
330
1F
100
AcDbEntity
  8
1
  6
CONTINUOUS
 62
     7
100
AcDbLine
 10
120.9791112277
 20
130.3489739739
 30
0.0
 11
120.9791112277
 21
137.5489739739
 31
0.0
  0
LINE
  5
114
330
1F
100
AcDbEntity
  8
1
  6
CONTINUOUS
 62
     7
100
AcDbLine
 10
114.6791112277
 20
138.2489739739
 30
0.0
 11
120.2791112277
 21
138.2489739739
 31
0.0
  0
LINE
  5
115
330
1F
100
AcDbEntity
  8
1
  6
CONTINUOUS
 62
     7
100
AcDbLine
 10
114.4791112277
 20
137.5489739739
 30
0.0
 11
114.4791112277
 21
132.9489739739
 31
0.0
  0
LINE
  5
116
330
1F
100
AcDbEntity
  8
1
  6
CONTINUOUS
 62
     7
100
AcDbLine
 10
114.4791112277
 20
132.9489739739
 30
0.0
 11
120.4791112277
 21
132.9489739739
 31
0.0
  0
LINE
  5
117
330
1F
100
AcDbEntity
  8
1
  6
CONTINUOUS
 62
     7
100
AcDbLine
 10
120.4791112277
 20
137.5489739739
 30
0.0
 11
120.4791112277
 21
132.9489739739
 31
0.0
  0
LINE
  5
118
330
1F
100
AcDbEntity
  8
1
  6
CONTINUOUS
 62
     7
100
AcDbLine
 10
120.2791112277
 20
137.7489739739
 30
0.0
 11
114.6791112277
 21
137.7489739739
 31
0.0
  0
LINE
  5
119
330
1F
100
AcDbEntity
  8
1
  6
CONTINUOUS
 62
     7
100
AcDbLine
 10
110.009776143386
 20
130.1489739739
 30
0.0
 11
109.384956169313
 21
130.1489739739
 31
0.0
  0
LINE
  5
11A
330
1F
100
AcDbEntity
  8
1
  6
CONTINUOUS
 62
     7
100
AcDbLine
 10
108.509776143386
 20
131.2489739739
 30
0.0
 11
110.009776143386
 21
130.1489739739
 31
0.0
  0
LINE
  5
11B
330
1F
100
AcDbEntity
  8
1
  6
CONTINUOUS
 62
     7
100
AcDbLine
 10
110.009776143386
 20
132.3489739739
 30
0.0
 11
108.509776143386
 21
131.2489739739
 31
0.0
  0
LINE
  5
11C
330
1F
100
AcDbEntity
  8
1
  6
CONTINUOUS
 62
     7
100
AcDbLine
 10
110.009776143386
 20
132.3489739739
 30
0.0
 11
109.384956169313
 21
132.3489739739
 31
0.0
  0
LINE
  5
11D
330
1F
100
AcDbEntity
  8
1
  6
CONTINUOUS
 62
     7
100
AcDbLine
 10
107.884956169313
 20
131.2489739739
 30
0.0
 11
109.384956169313
 21
130.1489739739
 31
0.0
  0
LINE
  5
11E
330
1F
100
AcDbEntity
  8
1
  6
CONTINUOUS
 62
     7
100
AcDbLine
 10
109.384956169313
 20
132.3489739739
 30
0.0
 11
107.884956169313
 21
131.2489739739
 31
0.0
  0
LINE
  5
11F
330
1F
100
AcDbEntity
  8
1
  6
CONTINUOUS
 62
     7
100
AcDbLine
 10
108.916341188759
 20
130.1489739739
 30
0.0
 11
107.97911122765
 21
130.1489739739
 31
0.0
  0
LINE
  5
120
330
1F
100
AcDbEntity
  8
1
  6
CONTINUOUS
 62
     7
100
AcDbLine
 10
107.416341188759
 20
131.2489739739
 30
0.0
 11
108.916341188759
 21
130.1489739739
 31
0.0
  0
LINE
  5
121
330
1F
100
AcDbEntity
  8
1
  6
CONTINUOUS
 62
     7
100
AcDbLine
 10
108.916341188759
 20
132.3489739739
 30
0.0
 11
107.416341188759
 21
131.2489739739
 31
0.0
  0
LINE
  5
122
330
1F
100
AcDbEntity
  8
1
  6
CONTINUOUS
 62
     7
100
AcDbLine
 10
107.97911122765
 20
132.3489739739
 30
0.0
 11
108.916341188759
 21
132.3489739739
 31
0.0
  0
LINE
  5
123
330
1F
100
AcDbEntity
  8
1
  6
CONTINUOUS
 62
     7
100
AcDbLine
 10
106.47911122765
 20
131.2489739739
 30
0.0
 11
107.97911122765
 21
130.1489739739
 31
0.0
  0
LINE
  5
124
330
1F
100
AcDbEntity
  8
1
  6
CONTINUOUS
 62
     7
100
AcDbLine
 10
106.47911122765
 20
131.2489739739
 30
0.0
 11
107.97911122765
 21
132.3489739739
 31
0.0
  0
LINE
  5
125
330
1F
100
AcDbEntity
  8
1
  6
CONTINUOUS
 62
     7
100
AcDbLine
 10
111.2791112277
 20
137.7489739739
 30
0.0
 11
105.6791112277
 21
137.7489739739
 31
0.0
  0
LINE
  5
126
330
1F
100
AcDbEntity
  8
1
  6
CONTINUOUS
 62
     7
100
AcDbLine
 10
105.4791112277
 20
132.9489739739
 30
0.0
 11
105.4791112277
 21
137.5489739739
 31
0.0
  0
LINE
  5
127
330
1F
100
AcDbEntity
  8
1
  6
CONTINUOUS
 62
     7
100
AcDbLine
 10
105.4791112277
 20
132.9489739739
 30
0.0
 11
111.4791112277
 21
132.9489739739
 31
0.0
  0
LINE
  5
128
330
1F
100
AcDbEntity
  8
1
  6
CONTINUOUS
 62
     7
100
AcDbLine
 10
111.4791112277
 20
132.9489739739
 30
0.0
 11
111.4791112277
 21
137.5489739739
 31
0.0
  0
LINE
  5
129
330
1F
100
AcDbEntity
  8
1
  6
CONTINUOUS
 62
     7
100
AcDbLine
 10
105.6791112277
 20
138.2489739739
 30
0.0
 11
111.2791112277
 21
138.2489739739
 31
0.0
  0
LINE
  5
12A
330
1F
100
AcDbEntity
  8
1
  6
CONTINUOUS
 62
     7
100
AcDbLine
 10
111.9791112277
 20
137.5489739739
 30
0.0
 11
111.9791112277
 21
130.3489739739
 31
0.0
  0
LINE
  5
12B
330
1F
100
AcDbEntity
  8
1
  6
CONTINUOUS
 62
     7
100
AcDbLine
 10
104.9791112277
 20
137.5489739739
 30
0.0
 11
104.9791112277
 21
130.3489739739
 31
0.0
  0
LINE
  5
12C
330
1F
100
AcDbEntity
  8
1
  6
CONTINUOUS
 62
     7
100
AcDbLine
 10
111.2791112277
 20
129.6489739739
 30
0.0
 11
105.6791112277
 21
129.6489739739
 31
0.0
  0
LINE
  5
12D
330
1F
100
AcDbEntity
  8
1
  6
CONTINUOUS
 62
     7
100
AcDbLine
 10
105.6791112277
 20
150.8489739739
 30
0.0
 11
111.2791112277
 21
150.8489739739
 31
0.0
  0
LINE
  5
12E
330
1F
100
AcDbEntity
  8
1
  6
CONTINUOUS
 62
     7
100
AcDbLine
 10
111.9791112277
 20
150.1489739739
 30
0.0
 11
111.9791112277
 21
142.9489739739
 31
0.0
  0
LINE
  5
12F
330
1F
100
AcDbEntity
  8
1
  6
CONTINUOUS
 62
     7
100
AcDbLine
 10
104.9791112277
 20
150.1489739739
 30
0.0
 11
104.9791112277
 21
142.9489739739
 31
0.0
  0
LINE
  5
130
330
1F
100
AcDbEntity
  8
1
  6
CONTINUOUS
 62
     7
100
AcDbLine
 10
111.2791112277
 20
142.2489739739
 30
0.0
 11
105.6791112277
 21
142.2489739739
 31
0.0
  0
LINE
  5
131
330
1F
100
AcDbEntity
  8
1
  6
CONTINUOUS
 62
     7
100
AcDbLine
 10
111.4791112277
 20
142.9489739739
 30
0.0
 11
111.4791112277
 21
147.5489739739
 31
0.0
  0
LINE
  5
132
330
1F
100
AcDbEntity
  8
1
  6
CONTINUOUS
 62
     7
100
AcDbLine
 10
111.4791112277
 20
147.5489739739
 30
0.0
 11
105.4791112277
 21
147.5489739739
 31
0.0
  0
LINE
  5
133
330
1F
100
AcDbEntity
  8
1
  6
CONTINUOUS
 62
     7
100
AcDbLine
 10
105.4791112277
 20
142.9489739739
 30
0.0
 11
105.4791112277
 21
147.5489739739
 31
0.0
  0
LINE
  5
134
330
1F
100
AcDbEntity
  8
1
  6
CONTINUOUS
 62
     7
100
AcDbLine
 10
105.6791112277
 20
142.7489739739
 30
0.0
 11
111.2791112277
 21
142.7489739739
 31
0.0
  0
LINE
  5
135
330
1F
100
AcDbEntity
  8
1
  6
DOT_CENTER
 62
     7
100
AcDbLine
 10
132.736623159917
 20
175.58878889114
 30
0.0
 11
86.4188801187759
 21
175.58878889114
 31
0.0
  0
LINE
  5
136
330
1F
100
AcDbEntity
  8
1
  6
CONTINUOUS
 62
     7
100
AcDbLine
 10
218.2983088031
 20
210.1684624337
 30
0.0
 11
218.2983088031
 21
209.0489754461
 31
0.0
  0
LINE
  5
137
330
1F
100
AcDbEntity
  8
1
  6
CONTINUOUS
 62
     7
100
AcDbLine
 10
165.8264082115
 20
123.748973199
 30
0.0
 11
165.8264082115
 21
125.7489735269
 31
0.0
  0
LINE
  5
138
330
1F
100
AcDbEntity
  8
1
  6
CONTINUOUS
 62
     7
100
AcDbLine
 10
165.8264082115
 20
212.7489747488
 30
0.0
 11
165.8264082115
 21
210.7489744209
 31
0.0
  0
LINE
  5
139
330
1F
100
AcDbEntity
  8
1
  6
CONTINUOUS
 62
     7
100
AcDbLine
 10
102.729110838874
 20
210.749050126339
 30
0.0
 11
102.729110838874
 21
207.7315190815
 31
0.0
  0
LINE
  5
13A
330
1F
100
AcDbEntity
  8
1
  6
CONTINUOUS
 62
     7
100
AcDbLine
 10
102.729110838874
 20
125.748897821461
 30
0.0
 11
102.729110838874
 21
129.2664298796
 31
0.0
  0
LINE
  5
13B
330
1F
100
AcDbEntity
  8
1
  6
CONTINUOUS
 62
     7
100
AcDbLine
 10
123.229110838827
 20
210.749050126339
 30
0.0
 11
123.229110838827
 21
125.748897821461
 31
0.0
  0
LINE
  5
13C
330
1F
100
AcDbEntity
  8
0
  6
CONTINUOUS
 62
     7
100
AcDbLine
 10
162.8962496951
 20
212.0489740752
 30
0.0
 11
162.8962496951
 21
210.7490489267
 31
0.0
  0
LINE
  5
13D
330
1F
100
AcDbEntity
  8
0
  6
CONTINUOUS
 62
     7
100
AcDbLine
 10
162.8962496951
 20
125.7488990211
 30
0.0
 11
162.8962496951
 21
210.7490489267
 31
0.0
  0
LINE
  5
13E
330
1F
100
AcDbEntity
  8
0
  6
CONTINUOUS
 62
     7
100
AcDbLine
 10
162.8962496951
 20
125.7488990211
 30
0.0
 11
162.8962496951
 21
124.4489738726
 31
0.0
  0
LINE
  5
13F
330
1F
100
AcDbEntity
  8
0
  6
CONTINUOUS
 62
     7
100
AcDbLine
 10
163.5962496701
 20
212.7489747488
 30
0.0
 11
162.8962496951
 21
212.0489740752
 31
0.0
  0
LINE
  5
140
330
1F
100
AcDbEntity
  8
0
  6
CONTINUOUS
 62
     7
100
AcDbLine
 10
162.8962496951
 20
124.4489738726
 30
0.0
 11
163.5962496701
 21
123.748973199
 31
0.0
  0
LINE
  5
141
330
1F
100
AcDbEntity
  8
0
  6
CONTINUOUS
 62
     7
100
AcDbLine
 10
165.8264082115
 20
210.7489744209
 30
0.0
 11
217.7886890903
 21
210.7489744209
 31
0.0
  0
LINE
  5
142
330
1F
100
AcDbEntity
  8
0
  6
CONTINUOUS
 62
     7
100
AcDbLine
 10
217.7886890903
 20
210.7489744209
 30
0.0
 11
217.7893521919
 21
210.7489744209
 31
0.0
  0
LINE
  5
143
330
1F
100
AcDbEntity
  8
0
  6
CONTINUOUS
 62
     7
100
AcDbLine
 10
218.2874495819
 20
210.2925518536
 30
0.0
 11
218.2983088031
 21
210.1684624337
 31
0.0
  0
LINE
  5
144
330
1F
100
AcDbEntity
  8
0
  6
CONTINUOUS
 62
     7
100
AcDbLine
 10
165.8264082115
 20
125.7489735269
 30
0.0
 11
232.3962489798
 21
125.7489735269
 31
0.0
  0
LINE
  5
145
330
1F
100
AcDbEntity
  8
0
  6
CONTINUOUS
 62
     7
100
AcDbLine
 10
218.2983088031
 20
209.0489754461
 30
0.0
 11
232.3962489798
 21
209.0489754461
 31
0.0
  0
LINE
  5
146
330
1F
100
AcDbEntity
  8
0
  6
CONTINUOUS
 62
     7
100
AcDbLine
 10
232.8962499931
 20
126.2489745401
 30
0.0
 11
232.8962499931
 21
208.5489744329
 31
0.0
  0
LINE
  5
147
330
1F
100
AcDbEntity
  8
0
  6
CONTINUOUS
 62
     7
100
AcDbLine
 10
165.8264082115
 20
212.7489747488
 30
0.0
 11
163.5962496701
 21
212.7489747488
 31
0.0
  0
LINE
  5
148
330
1F
100
AcDbEntity
  8
0
  6
CONTINUOUS
 62
     7
100
AcDbLine
 10
163.5962496701
 20
123.748973199
 30
0.0
 11
165.8264082115
 21
123.748973199
 31
0.0
  0
LINE
  5
149
330
1F
100
AcDbEntity
  8
0
  6
CONTINUOUS
 62
     7
100
AcDbLine
 10
183.2462495848
 20
128.9489755415
 30
0.0
 11
189.2462505683
 21
128.9489755415
 31
0.0
  0
LINE
  5
14A
330
1F
100
AcDbEntity
  8
0
  6
CONTINUOUS
 62
     7
100
AcDbLine
 10
189.2462505683
 20
131.5489748501
 30
0.0
 11
183.2462495848
 21
131.5489748501
 31
0.0
  0
LINE
  5
14B
330
1F
100
AcDbEntity
  8
0
  6
CONTINUOUS
 62
     7
100
AcDbLine
 10
179.4667674884
 20
133.2489738249
 30
0.0
 11
225.8962507083
 21
133.2489738249
 31
0.0
  0
LINE
  5
14C
330
1F
100
AcDbEntity
  8
0
  6
CONTINUOUS
 62
     7
100
AcDbLine
 10
179.4667674884
 20
133.2489738249
 30
0.0
 11
177.8962493598
 21
134.7714217388
 31
0.0
  0
LINE
  5
14D
330
1F
100
AcDbEntity
  8
0
  6
CONTINUOUS
 62
     7
100
AcDbLine
 10
177.8962493598
 20
203.2489741229
 30
0.0
 11
177.8962493598
 21
134.7714217388
 31
0.0
  0
LINE
  5
14E
330
1F
100
AcDbEntity
  8
0
  6
CONTINUOUS
 62
     7
100
AcDbLine
 10
225.8962507083
 20
203.2489741229
 30
0.0
 11
177.8962493598
 21
203.2489741229
 31
0.0
  0
LINE
  5
14F
330
1F
100
AcDbEntity
  8
0
  6
CONTINUOUS
 62
     7
100
AcDbLine
 10
225.8962507083
 20
133.2489738249
 30
0.0
 11
225.8962507083
 21
203.2489741229
 31
0.0
  0
LINE
  5
150
330
1F
100
AcDbEntity
  8
0
  6
CONTINUOUS
 62
     7
100
AcDbLine
 10
228.5462508633
 20
134.648975172
 30
0.0
 11
230.0462464526
 21
134.648975172
 31
0.0
  0
LINE
  5
151
330
1F
100
AcDbEntity
  8
0
  6
CONTINUOUS
 62
     7
100
AcDbLine
 10
228.5462508633
 20
138.2489746444
 30
0.0
 11
228.5462508633
 21
134.648975172
 31
0.0
  0
LINE
  5
152
330
1F
100
AcDbEntity
  8
0
  6
CONTINUOUS
 62
     7
100
AcDbLine
 10
230.0462464526
 20
138.2489746444
 30
0.0
 11
228.5462508633
 21
138.2489746444
 31
0.0
  0
LINE
  5
153
330
1F
100
AcDbEntity
  8
0
  6
CONTINUOUS
 62
     7
100
AcDbLine
 10
230.0462464526
 20
134.648975172
 30
0.0
 11
230.0462464526
 21
138.2489746444
 31
0.0
  0
LINE
  5
154
330
1F
100
AcDbEntity
  8
0
  6
CONTINUOUS
 62
     7
100
AcDbLine
 10
162.0462496838
 20
143.6642108009
 30
0.0
 11
162.0462496838
 21
145.2489735082
 31
0.0
  0
LINE
  5
155
330
1F
100
AcDbEntity
  8
0
  6
CONTINUOUS
 62
     7
100
AcDbLine
 10
162.0462496838
 20
145.2489735082
 30
0.0
 11
162.0462496838
 21
146.8337343529
 31
0.0
  0
LINE
  5
156
330
1F
100
AcDbEntity
  8
0
  6
CONTINUOUS
 62
     7
100
AcDbLine
 10
162.0462496838
 20
133.6642126635
 30
0.0
 11
162.0462496838
 21
135.2489735082
 31
0.0
  0
LINE
  5
157
330
1F
100
AcDbEntity
  8
0
  6
CONTINUOUS
 62
     7
100
AcDbLine
 10
162.0462496838
 20
135.2489735082
 30
0.0
 11
162.0462496838
 21
136.8337343529
 31
0.0
  0
LINE
  5
158
330
1F
100
AcDbEntity
  8
0
  6
CONTINUOUS
 62
     7
100
AcDbLine
 10
162.0462496838
 20
155.6642126635
 30
0.0
 11
162.0462496838
 21
157.2489735082
 31
0.0
  0
LINE
  5
159
330
1F
100
AcDbEntity
  8
0
  6
CONTINUOUS
 62
     7
100
AcDbLine
 10
162.0462496838
 20
157.2489735082
 30
0.0
 11
162.0462496838
 21
158.8337352843
 31
0.0
  0
LINE
  5
15A
330
1F
100
AcDbEntity
  8
0
  6
CONTINUOUS
 62
     7
100
AcDbLine
 10
218.8962514236
 20
210.0489737474
 30
0.0
 11
223.0962480142
 21
210.0489737474
 31
0.0
  0
LINE
  5
15B
330
1F
100
AcDbEntity
  8
0
  6
CONTINUOUS
 62
     7
100
AcDbLine
 10
223.0962480142
 20
210.0489737474
 30
0.0
 11
223.0962480142
 21
209.0489754461
 31
0.0
  0
LINE
  5
15C
330
1F
100
AcDbEntity
  8
0
  6
CONTINUOUS
 62
     7
100
AcDbLine
 10
223.0962480142
 20
210.0489737474
 30
0.0
 11
223.8962503805
 21
210.0489737474
 31
0.0
  0
LINE
  5
15D
330
1F
100
AcDbEntity
  8
0
  6
CONTINUOUS
 62
     7
100
AcDbLine
 10
223.5962490275
 20
209.7489723944
 30
0.0
 11
223.5962490275
 21
209.0489754461
 31
0.0
  0
LINE
  5
15E
330
1F
100
AcDbEntity
  8
0
  6
CONTINUOUS
 62
     7
100
AcDbLine
 10
223.8962503805
 20
210.0489737474
 30
0.0
 11
232.296247287
 21
210.0489737474
 31
0.0
  0
LINE
  5
15F
330
1F
100
AcDbEntity
  8
0
  6
CONTINUOUS
 62
     7
100
AcDbLine
 10
232.3962489798
 20
209.0489754461
 30
0.0
 11
232.5962523654
 21
209.0489754461
 31
0.0
  0
LINE
  5
160
330
1F
100
AcDbEntity
  8
0
  6
CONTINUOUS
 62
     7
100
AcDbLine
 10
232.5962523654
 20
209.7489723944
 30
0.0
 11
232.5962523654
 21
209.0489754461
 31
0.0
  0
LINE
  5
161
330
1F
100
AcDbEntity
  8
0
  6
CONTINUOUS
 62
     7
100
AcDbLine
 10
154.0962497427
 20
173.2487368405
 30
0.0
 11
154.0962497427
 21
173.2472723358
 31
0.0
  0
LINE
  5
162
330
1F
100
AcDbEntity
  8
0
  6
CONTINUOUS
 62
     7
100
AcDbLine
 10
162.3962496713
 20
173.2487368405
 30
0.0
 11
154.0962497427
 21
173.2487368405
 31
0.0
  0
LINE
  5
163
330
1F
100
AcDbEntity
  8
0
  6
CONTINUOUS
 62
     7
100
AcDbLine
 10
154.0962497427
 20
165.3137935334
 30
0.0
 11
154.0962497427
 21
165.2492112022
 31
0.0
  0
LINE
  5
164
330
1F
100
AcDbEntity
  8
0
  6
CONTINUOUS
 62
     7
100
AcDbLine
 10
162.3962496713
 20
165.2492112022
 30
0.0
 11
154.0962497427
 21
165.2492112022
 31
0.0
  0
LINE
  5
165
330
1F
100
AcDbEntity
  8
0
  6
CONTINUOUS
 62
     7
100
AcDbLine
 10
154.0962497427
 20
173.2472723358
 30
0.0
 11
154.0962497427
 21
173.1522751049
 31
0.0
  0
LINE
  5
166
330
1F
100
AcDbEntity
  8
0
  6
CONTINUOUS
 62
     7
100
AcDbLine
 10
154.0962497427
 20
173.2472723358
 30
0.0
 11
162.3962496713
 21
173.2472723358
 31
0.0
  0
LINE
  5
167
330
1F
100
AcDbEntity
  8
0
  6
CONTINUOUS
 62
     7
100
AcDbLine
 10
154.0962497427
 20
165.3275582482
 30
0.0
 11
154.0962497427
 21
165.3137935334
 31
0.0
  0
LINE
  5
168
330
1F
100
AcDbEntity
  8
0
  6
CONTINUOUS
 62
     7
100
AcDbLine
 10
154.0962497427
 20
165.3137935334
 30
0.0
 11
162.3962496713
 21
165.3137935334
 31
0.0
  0
LINE
  5
169
330
1F
100
AcDbEntity
  8
0
  6
CONTINUOUS
 62
     7
100
AcDbLine
 10
154.0962497427
 20
173.1522751049
 30
0.0
 11
154.0962497427
 21
173.1356458746
 31
0.0
  0
LINE
  5
16A
330
1F
100
AcDbEntity
  8
0
  6
CONTINUOUS
 62
     7
100
AcDbLine
 10
162.3962496713
 20
173.1522751049
 30
0.0
 11
154.0962497427
 21
173.1522751049
 31
0.0
  0
LINE
  5
16B
330
1F
100
AcDbEntity
  8
0
  6
CONTINUOUS
 62
     7
100
AcDbLine
 10
154.0962497427
 20
165.5488977682
 30
0.0
 11
154.0962497427
 21
165.3275582482
 31
0.0
  0
LINE
  5
16C
330
1F
100
AcDbEntity
  8
0
  6
CONTINUOUS
 62
     7
100
AcDbLine
 10
162.3962496713
 20
165.3275582482
 30
0.0
 11
154.0962497427
 21
165.3275582482
 31
0.0
  0
LINE
  5
16D
330
1F
100
AcDbEntity
  8
0
  6
CONTINUOUS
 62
     7
100
AcDbLine
 10
154.0962497427
 20
173.1356458746
 30
0.0
 11
154.0962497427
 21
172.8852202193
 31
0.0
  0
LINE
  5
16E
330
1F
100
AcDbEntity
  8
0
  6
CONTINUOUS
 62
     7
100
AcDbLine
 10
154.0962497427
 20
173.1356458746
 30
0.0
 11
162.3962496713
 21
173.1356458746
 31
0.0
  0
LINE
  5
16F
330
1F
100
AcDbEntity
  8
0
  6
CONTINUOUS
 62
     7
100
AcDbLine
 10
154.0962497427
 20
165.5772900683
 30
0.0
 11
154.0962497427
 21
165.5488977682
 31
0.0
  0
LINE
  5
170
330
1F
100
AcDbEntity
  8
0
  6
CONTINUOUS
 62
     7
100
AcDbLine
 10
154.0962497427
 20
165.5488977682
 30
0.0
 11
162.3962496713
 21
165.5488977682
 31
0.0
  0
LINE
  5
171
330
1F
100
AcDbEntity
  8
0
  6
CONTINUOUS
 62
     7
100
AcDbLine
 10
154.0962497427
 20
172.8852202193
 30
0.0
 11
154.0962497427
 21
172.8541526951
 31
0.0
  0
LINE
  5
172
330
1F
100
AcDbEntity
  8
0
  6
CONTINUOUS
 62
     7
100
AcDbLine
 10
162.3962496713
 20
172.8852202193
 30
0.0
 11
154.0962497427
 21
172.8852202193
 31
0.0
  0
LINE
  5
173
330
1F
100
AcDbEntity
  8
0
  6
CONTINUOUS
 62
     7
100
AcDbLine
 10
154.0962497427
 20
165.9457131297
 30
0.0
 11
154.0962497427
 21
165.5772900683
 31
0.0
  0
LINE
  5
174
330
1F
100
AcDbEntity
  8
0
  6
CONTINUOUS
 62
     7
100
AcDbLine
 10
162.3962496713
 20
165.5772900683
 30
0.0
 11
154.0962497427
 21
165.5772900683
 31
0.0
  0
LINE
  5
175
330
1F
100
AcDbEntity
  8
0
  6
CONTINUOUS
 62
     7
100
AcDbLine
 10
154.0962497427
 20
172.8541526951
 30
0.0
 11
154.0962497427
 21
172.4592439838
 31
0.0
  0
LINE
  5
176
330
1F
100
AcDbEntity
  8
0
  6
CONTINUOUS
 62
     7
100
AcDbLine
 10
154.0962497427
 20
172.8541526951
 30
0.0
 11
162.3962496713
 21
172.8541526951
 31
0.0
  0
LINE
  5
177
330
1F
100
AcDbEntity
  8
0
  6
CONTINUOUS
 62
     7
100
AcDbLine
 10
154.0962497427
 20
165.9874920276
 30
0.0
 11
154.0962497427
 21
165.9457131297
 31
0.0
  0
LINE
  5
178
330
1F
100
AcDbEntity
  8
0
  6
CONTINUOUS
 62
     7
100
AcDbLine
 10
154.0962497427
 20
165.9457131297
 30
0.0
 11
162.3962496713
 21
165.9457131297
 31
0.0
  0
LINE
  5
179
330
1F
100
AcDbEntity
  8
0
  6
CONTINUOUS
 62
     7
100
AcDbLine
 10
154.0962497427
 20
172.4592439838
 30
0.0
 11
154.0962497427
 21
172.4150960342
 31
0.0
  0
LINE
  5
17A
330
1F
100
AcDbEntity
  8
0
  6
CONTINUOUS
 62
     7
100
AcDbLine
 10
162.3962496713
 20
172.4592439838
 30
0.0
 11
154.0962497427
 21
172.4592439838
 31
0.0
  0
LINE
  5
17B
330
1F
100
AcDbEntity
  8
0
  6
CONTINUOUS
 62
     7
100
AcDbLine
 10
154.0962497427
 20
166.4868969944
 30
0.0
 11
154.0962497427
 21
165.9874920276
 31
0.0
  0
LINE
  5
17C
330
1F
100
AcDbEntity
  8
0
  6
CONTINUOUS
 62
     7
100
AcDbLine
 10
162.3962496713
 20
165.9874920276
 30
0.0
 11
154.0962497427
 21
165.9874920276
 31
0.0
  0
LINE
  5
17D
330
1F
100
AcDbEntity
  8
0
  6
CONTINUOUS
 62
     7
100
AcDbLine
 10
154.0962497427
 20
172.4150960342
 30
0.0
 11
154.0962497427
 21
171.8929637697
 31
0.0
  0
LINE
  5
17E
330
1F
100
AcDbEntity
  8
0
  6
CONTINUOUS
 62
     7
100
AcDbLine
 10
154.0962497427
 20
172.4150960342
 30
0.0
 11
162.3962496713
 21
172.4150960342
 31
0.0
  0
LINE
  5
17F
330
1F
100
AcDbEntity
  8
0
  6
CONTINUOUS
 62
     7
100
AcDbLine
 10
154.0962497427
 20
166.5402365158
 30
0.0
 11
154.0962497427
 21
166.4868969944
 31
0.0
  0
LINE
  5
180
330
1F
100
AcDbEntity
  8
0
  6
CONTINUOUS
 62
     7
100
AcDbLine
 10
154.0962497427
 20
166.4868969944
 30
0.0
 11
162.3962496713
 21
166.4868969944
 31
0.0
  0
LINE
  5
181
330
1F
100
AcDbEntity
  8
0
  6
CONTINUOUS
 62
     7
100
AcDbLine
 10
154.0962497427
 20
171.8929637697
 30
0.0
 11
154.0962497427
 21
171.837664862
 31
0.0
  0
LINE
  5
182
330
1F
100
AcDbEntity
  8
0
  6
CONTINUOUS
 62
     7
100
AcDbLine
 10
162.3962496713
 20
171.8929637697
 30
0.0
 11
154.0962497427
 21
171.8929637697
 31
0.0
  0
LINE
  5
183
330
1F
100
AcDbEntity
  8
0
  6
CONTINUOUS
 62
     7
100
AcDbLine
 10
154.0962497427
 20
167.0750396567
 30
0.0
 11
154.0962497427
 21
166.5402365158
 31
0.0
  0
LINE
  5
184
330
1F
100
AcDbEntity
  8
0
  6
CONTINUOUS
 62
     7
100
AcDbLine
 10
162.3962496713
 20
166.5402365158
 30
0.0
 11
154.0962497427
 21
166.5402365158
 31
0.0
  0
LINE
  5
185
330
1F
100
AcDbEntity
  8
0
  6
CONTINUOUS
 62
     7
100
AcDbLine
 10
154.0962497427
 20
171.837664862
 30
0.0
 11
154.0962497427
 21
171.3062445175
 31
0.0
  0
LINE
  5
186
330
1F
100
AcDbEntity
  8
0
  6
CONTINUOUS
 62
     7
100
AcDbLine
 10
154.0962497427
 20
171.837664862
 30
0.0
 11
162.3962496713
 21
171.837664862
 31
0.0
  0
LINE
  5
187
330
1F
100
AcDbEntity
  8
0
  6
CONTINUOUS
 62
     7
100
AcDbLine
 10
154.0962497427
 20
167.1487967957
 30
0.0
 11
154.0962497427
 21
167.0750396567
 31
0.0
  0
LINE
  5
188
330
1F
100
AcDbEntity
  8
0
  6
CONTINUOUS
 62
     7
100
AcDbLine
 10
162.7962496976
 20
167.0750396567
 30
0.0
 11
154.0962497427
 21
167.0750396567
 31
0.0
  0
LINE
  5
189
330
1F
100
AcDbEntity
  8
0
  6
CONTINUOUS
 62
     7
100
AcDbLine
 10
154.0962497427
 20
167.2113657239
 30
0.0
 11
154.0962497427
 21
167.1487967957
 31
0.0
  0
LINE
  5
18A
330
1F
100
AcDbEntity
  8
0
  6
CONTINUOUS
 62
     7
100
AcDbLine
 10
154.0962497427
 20
167.1487967957
 30
0.0
 11
162.3962496713
 21
167.1487967957
 31
0.0
  0
LINE
  5
18B
330
1F
100
AcDbEntity
  8
0
  6
CONTINUOUS
 62
     7
100
AcDbLine
 10
154.0962497427
 20
167.7191471805
 30
0.0
 11
154.0962497427
 21
167.2113657239
 31
0.0
  0
LINE
  5
18C
330
1F
100
AcDbEntity
  8
0
  6
CONTINUOUS
 62
     7
100
AcDbLine
 10
162.3962496713
 20
167.2113657239
 30
0.0
 11
154.0962497427
 21
167.2113657239
 31
0.0
  0
LINE
  5
18D
330
1F
100
AcDbEntity
  8
0
  6
CONTINUOUS
 62
     7
100
AcDbLine
 10
154.0962497427
 20
171.3062445175
 30
0.0
 11
154.0962497427
 21
171.211128543
 31
0.0
  0
LINE
  5
18E
330
1F
100
AcDbEntity
  8
0
  6
CONTINUOUS
 62
     7
100
AcDbLine
 10
162.7962496976
 20
171.3062445175
 30
0.0
 11
154.0962497427
 21
171.3062445175
 31
0.0
  0
LINE
  5
18F
330
1F
100
AcDbEntity
  8
0
  6
CONTINUOUS
 62
     7
100
AcDbLine
 10
154.0962497427
 20
171.211128543
 30
0.0
 11
154.0962497427
 21
171.1470952266
 31
0.0
  0
LINE
  5
190
330
1F
100
AcDbEntity
  8
0
  6
CONTINUOUS
 62
     7
100
AcDbLine
 10
162.3962496713
 20
171.211128543
 30
0.0
 11
154.0962497427
 21
171.211128543
 31
0.0
  0
LINE
  5
191
330
1F
100
AcDbEntity
  8
0
  6
CONTINUOUS
 62
     7
100
AcDbLine
 10
154.0962497427
 20
171.1470952266
 30
0.0
 11
154.0962497427
 21
170.6470634796
 31
0.0
  0
LINE
  5
192
330
1F
100
AcDbEntity
  8
0
  6
CONTINUOUS
 62
     7
100
AcDbLine
 10
154.0962497427
 20
171.1470952266
 30
0.0
 11
162.3962496713
 21
171.1470952266
 31
0.0
  0
LINE
  5
193
330
1F
100
AcDbEntity
  8
0
  6
CONTINUOUS
 62
     7
100
AcDbLine
 10
154.0962497427
 20
167.9024843449
 30
0.0
 11
154.0962497427
 21
167.7191471805
 31
0.0
  0
LINE
  5
194
330
1F
100
AcDbEntity
  8
0
  6
CONTINUOUS
 62
     7
100
AcDbLine
 10
162.7962496976
 20
167.7191471805
 30
0.0
 11
154.0962497427
 21
167.7191471805
 31
0.0
  0
LINE
  5
195
330
1F
100
AcDbEntity
  8
0
  6
CONTINUOUS
 62
     7
100
AcDbLine
 10
154.0962497427
 20
168.4301154871
 30
0.0
 11
154.0962497427
 21
167.9715481711
 31
0.0
  0
LINE
  5
196
330
1F
100
AcDbEntity
  8
0
  6
CONTINUOUS
 62
     7
100
AcDbLine
 10
154.0962497427
 20
167.9715481711
 30
0.0
 11
154.0962497427
 21
167.9024843449
 31
0.0
  0
LINE
  5
197
330
1F
100
AcDbEntity
  8
0
  6
CONTINUOUS
 62
     7
100
AcDbLine
 10
154.0962497427
 20
167.9024843449
 30
0.0
 11
162.3962496713
 21
167.9024843449
 31
0.0
  0
LINE
  5
198
330
1F
100
AcDbEntity
  8
0
  6
CONTINUOUS
 62
     7
100
AcDbLine
 10
162.3962496713
 20
167.9715481711
 30
0.0
 11
154.0962497427
 21
167.9715481711
 31
0.0
  0
LINE
  5
199
330
1F
100
AcDbEntity
  8
0
  6
CONTINUOUS
 62
     7
100
AcDbLine
 10
154.0962497427
 20
170.6470634796
 30
0.0
 11
154.0962497427
 21
170.4435375993
 31
0.0
  0
LINE
  5
19A
330
1F
100
AcDbEntity
  8
0
  6
CONTINUOUS
 62
     7
100
AcDbLine
 10
162.7962496976
 20
170.6470634796
 30
0.0
 11
154.0962497427
 21
170.6470634796
 31
0.0
  0
LINE
  5
19B
330
1F
100
AcDbEntity
  8
0
  6
CONTINUOUS
 62
     7
100
AcDbLine
 10
154.0962497427
 20
170.4435375993
 30
0.0
 11
154.0962497427
 21
170.3735687312
 31
0.0
  0
LINE
  5
19C
330
1F
100
AcDbEntity
  8
0
  6
CONTINUOUS
 62
     7
100
AcDbLine
 10
162.3962496713
 20
170.4435375993
 30
0.0
 11
154.0962497427
 21
170.4435375993
 31
0.0
  0
LINE
  5
19D
330
1F
100
AcDbEntity
  8
0
  6
CONTINUOUS
 62
     7
100
AcDbLine
 10
154.0962497427
 20
170.3735687312
 30
0.0
 11
154.0962497427
 21
169.9267794153
 31
0.0
  0
LINE
  5
19E
330
1F
100
AcDbEntity
  8
0
  6
CONTINUOUS
 62
     7
100
AcDbLine
 10
154.0962497427
 20
170.3735687312
 30
0.0
 11
162.3962496713
 21
170.3735687312
 31
0.0
  0
LINE
  5
19F
330
1F
100
AcDbEntity
  8
0
  6
CONTINUOUS
 62
     7
100
AcDbLine
 10
154.0962497427
 20
169.1768718426
 30
0.0
 11
154.0962497427
 21
168.7875603217
 31
0.0
  0
LINE
  5
1A0
330
1F
100
AcDbEntity
  8
0
  6
CONTINUOUS
 62
     7
100
AcDbLine
 10
154.0962497427
 20
169.9267794153
 30
0.0
 11
154.0962497427
 21
169.6237384583
 31
0.0
  0
LINE
  5
1A1
330
1F
100
AcDbEntity
  8
0
  6
CONTINUOUS
 62
     7
100
AcDbLine
 10
162.7962496976
 20
169.9267794153
 30
0.0
 11
154.0962497427
 21
169.9267794153
 31
0.0
  0
LINE
  5
1A2
330
1F
100
AcDbEntity
  8
0
  6
CONTINUOUS
 62
     7
100
AcDbLine
 10
154.0962497427
 20
168.7150199847
 30
0.0
 11
154.0962497427
 21
168.4301154871
 31
0.0
  0
LINE
  5
1A3
330
1F
100
AcDbEntity
  8
0
  6
CONTINUOUS
 62
     7
100
AcDbLine
 10
162.7962496976
 20
168.4301154871
 30
0.0
 11
154.0962497427
 21
168.4301154871
 31
0.0
  0
LINE
  5
1A4
330
1F
100
AcDbEntity
  8
0
  6
CONTINUOUS
 62
     7
100
AcDbLine
 10
154.0962497427
 20
168.7875603217
 30
0.0
 11
154.0962497427
 21
168.7150199847
 31
0.0
  0
LINE
  5
1A5
330
1F
100
AcDbEntity
  8
0
  6
CONTINUOUS
 62
     7
100
AcDbLine
 10
154.0962497427
 20
168.7150199847
 30
0.0
 11
162.3962496713
 21
168.7150199847
 31
0.0
  0
LINE
  5
1A6
330
1F
100
AcDbEntity
  8
0
  6
CONTINUOUS
 62
     7
100
AcDbLine
 10
162.3962496713
 20
168.7875603217
 30
0.0
 11
154.0962497427
 21
168.7875603217
 31
0.0
  0
LINE
  5
1A7
330
1F
100
AcDbEntity
  8
0
  6
CONTINUOUS
 62
     7
100
AcDbLine
 10
154.0962497427
 20
169.6237384583
 30
0.0
 11
154.0962497427
 21
169.5508920363
 31
0.0
  0
LINE
  5
1A8
330
1F
100
AcDbEntity
  8
0
  6
CONTINUOUS
 62
     7
100
AcDbLine
 10
162.3962496713
 20
169.6237384583
 30
0.0
 11
154.0962497427
 21
169.6237384583
 31
0.0
  0
LINE
  5
1A9
330
1F
100
AcDbEntity
  8
0
  6
CONTINUOUS
 62
     7
100
AcDbLine
 10
154.0962497427
 20
169.5508920363
 30
0.0
 11
154.0962497427
 21
169.1768718426
 31
0.0
  0
LINE
  5
1AA
330
1F
100
AcDbEntity
  8
0
  6
CONTINUOUS
 62
     7
100
AcDbLine
 10
162.7962496976
 20
169.1768718426
 30
0.0
 11
154.0962497427
 21
169.1768718426
 31
0.0
  0
LINE
  5
1AB
330
1F
100
AcDbEntity
  8
0
  6
CONTINUOUS
 62
     7
100
AcDbLine
 10
154.0962497427
 20
169.5508920363
 30
0.0
 11
162.3962496713
 21
169.5508920363
 31
0.0
  0
LINE
  5
1AC
330
1F
100
AcDbEntity
  8
0
  6
CONTINUOUS
 62
     7
100
AcDbLine
 10
153.796249321
 20
172.4989742049
 30
0.0
 11
153.796249321
 21
165.9989740708
 31
0.0
  0
LINE
  5
1AD
330
1F
100
AcDbEntity
  8
0
  6
CONTINUOUS
 62
     7
100
AcDbLine
 10
162.3962496713
 20
171.211128543
 30
0.0
 11
162.7962496976
 21
171.3062445175
 31
0.0
  0
LINE
  5
1AE
330
1F
100
AcDbEntity
  8
0
  6
CONTINUOUS
 62
     7
100
AcDbLine
 10
162.3962496713
 20
171.1470952266
 30
0.0
 11
162.3962496713
 21
171.211128543
 31
0.0
  0
LINE
  5
1AF
330
1F
100
AcDbEntity
  8
0
  6
CONTINUOUS
 62
     7
100
AcDbLine
 10
162.7962496976
 20
170.6470634796
 30
0.0
 11
162.3962496713
 21
171.1470952266
 31
0.0
  0
LINE
  5
1B0
330
1F
100
AcDbEntity
  8
0
  6
CONTINUOUS
 62
     7
100
AcDbLine
 10
162.3962496713
 20
170.4435375993
 30
0.0
 11
162.7962496976
 21
170.6470634796
 31
0.0
  0
LINE
  5
1B1
330
1F
100
AcDbEntity
  8
0
  6
CONTINUOUS
 62
     7
100
AcDbLine
 10
162.3962496713
 20
170.3735687312
 30
0.0
 11
162.3962496713
 21
170.4435375993
 31
0.0
  0
LINE
  5
1B2
330
1F
100
AcDbEntity
  8
0
  6
CONTINUOUS
 62
     7
100
AcDbLine
 10
162.7962496976
 20
169.9267794153
 30
0.0
 11
162.3962496713
 21
170.3735687312
 31
0.0
  0
LINE
  5
1B3
330
1F
100
AcDbEntity
  8
0
  6
CONTINUOUS
 62
     7
100
AcDbLine
 10
162.3962496713
 20
169.6237384583
 30
0.0
 11
162.7962496976
 21
169.9267794153
 31
0.0
  0
LINE
  5
1B4
330
1F
100
AcDbEntity
  8
0
  6
CONTINUOUS
 62
     7
100
AcDbLine
 10
162.3962496713
 20
169.5508920363
 30
0.0
 11
162.3962496713
 21
169.6237384583
 31
0.0
  0
LINE
  5
1B5
330
1F
100
AcDbEntity
  8
0
  6
CONTINUOUS
 62
     7
100
AcDbLine
 10
162.7962496976
 20
169.1768718426
 30
0.0
 11
162.3962496713
 21
169.5508920363
 31
0.0
  0
LINE
  5
1B6
330
1F
100
AcDbEntity
  8
0
  6
CONTINUOUS
 62
     7
100
AcDbLine
 10
162.3962496713
 20
168.7875603217
 30
0.0
 11
162.7962496976
 21
169.1768718426
 31
0.0
  0
LINE
  5
1B7
330
1F
100
AcDbEntity
  8
0
  6
CONTINUOUS
 62
     7
100
AcDbLine
 10
162.3962496713
 20
168.7150199847
 30
0.0
 11
162.3962496713
 21
168.7875603217
 31
0.0
  0
LINE
  5
1B8
330
1F
100
AcDbEntity
  8
0
  6
CONTINUOUS
 62
     7
100
AcDbLine
 10
162.7962496976
 20
168.4301154871
 30
0.0
 11
162.3962496713
 21
168.7150199847
 31
0.0
  0
LINE
  5
1B9
330
1F
100
AcDbEntity
  8
0
  6
CONTINUOUS
 62
     7
100
AcDbLine
 10
162.3962496713
 20
167.9715481711
 30
0.0
 11
162.7962496976
 21
168.4301154871
 31
0.0
  0
LINE
  5
1BA
330
1F
100
AcDbEntity
  8
0
  6
CONTINUOUS
 62
     7
100
AcDbLine
 10
162.3962496713
 20
167.9024843449
 30
0.0
 11
162.3962496713
 21
167.9715481711
 31
0.0
  0
LINE
  5
1BB
330
1F
100
AcDbEntity
  8
0
  6
CONTINUOUS
 62
     7
100
AcDbLine
 10
162.7962496976
 20
167.7191471805
 30
0.0
 11
162.3962496713
 21
167.9024843449
 31
0.0
  0
LINE
  5
1BC
330
1F
100
AcDbEntity
  8
0
  6
CONTINUOUS
 62
     7
100
AcDbLine
 10
162.3962496713
 20
167.2113657239
 30
0.0
 11
162.7962496976
 21
167.7191471805
 31
0.0
  0
LINE
  5
1BD
330
1F
100
AcDbEntity
  8
0
  6
CONTINUOUS
 62
     7
100
AcDbLine
 10
162.3962496713
 20
167.1487967957
 30
0.0
 11
162.3962496713
 21
167.2113657239
 31
0.0
  0
LINE
  5
1BE
330
1F
100
AcDbEntity
  8
0
  6
CONTINUOUS
 62
     7
100
AcDbLine
 10
162.7962496976
 20
167.0750396567
 30
0.0
 11
162.3962496713
 21
167.1487967957
 31
0.0
  0
LINE
  5
1BF
330
1F
100
AcDbEntity
  8
0
  6
CONTINUOUS
 62
     7
100
AcDbLine
 10
162.3962496713
 20
166.5402365158
 30
0.0
 11
162.7962496976
 21
167.0750396567
 31
0.0
  0
LINE
  5
1C0
330
1F
100
AcDbEntity
  8
0
  6
CONTINUOUS
 62
     7
100
AcDbLine
 10
162.3962496713
 20
166.4868969944
 30
0.0
 11
162.3962496713
 21
166.5402365158
 31
0.0
  0
LINE
  5
1C1
330
1F
100
AcDbEntity
  8
0
  6
CONTINUOUS
 62
     7
100
AcDbLine
 10
162.7962496976
 20
166.5259435082
 30
0.0
 11
162.3962496713
 21
166.4868969944
 31
0.0
  0
LINE
  5
1C2
330
1F
100
AcDbEntity
  8
0
  6
CONTINUOUS
 62
     7
100
AcDbLine
 10
162.3962496713
 20
165.9874920276
 30
0.0
 11
162.7962496976
 21
166.5259435082
 31
0.0
  0
LINE
  5
1C3
330
1F
100
AcDbEntity
  8
0
  6
CONTINUOUS
 62
     7
100
AcDbLine
 10
162.3962496713
 20
165.9457131297
 30
0.0
 11
162.3962496713
 21
165.9874920276
 31
0.0
  0
LINE
  5
1C4
330
1F
100
AcDbEntity
  8
0
  6
CONTINUOUS
 62
     7
100
AcDbLine
 10
162.7962496976
 20
166.0958567642
 30
0.0
 11
162.3962496713
 21
165.9457131297
 31
0.0
  0
LINE
  5
1C5
330
1F
100
AcDbEntity
  8
0
  6
CONTINUOUS
 62
     7
100
AcDbLine
 10
162.3962496713
 20
165.5772900683
 30
0.0
 11
162.7962496976
 21
166.0958567642
 31
0.0
  0
LINE
  5
1C6
330
1F
100
AcDbEntity
  8
0
  6
CONTINUOUS
 62
     7
100
AcDbLine
 10
162.3962496713
 20
165.5488977682
 30
0.0
 11
162.3962496713
 21
165.5772900683
 31
0.0
  0
LINE
  5
1C7
330
1F
100
AcDbEntity
  8
0
  6
CONTINUOUS
 62
     7
100
AcDbLine
 10
162.7962496976
 20
165.803576541
 30
0.0
 11
162.3962496713
 21
165.5488977682
 31
0.0
  0
LINE
  5
1C8
330
1F
100
AcDbEntity
  8
0
  6
CONTINUOUS
 62
     7
100
AcDbLine
 10
162.3962496713
 20
165.3275582482
 30
0.0
 11
162.7962496976
 21
165.803576541
 31
0.0
  0
LINE
  5
1C9
330
1F
100
AcDbEntity
  8
0
  6
CONTINUOUS
 62
     7
100
AcDbLine
 10
162.3962496713
 20
165.3137935334
 30
0.0
 11
162.3962496713
 21
165.3275582482
 31
0.0
  0
LINE
  5
1CA
330
1F
100
AcDbEntity
  8
0
  6
CONTINUOUS
 62
     7
100
AcDbLine
 10
162.7962496976
 20
165.6618765098
 30
0.0
 11
162.3962496713
 21
165.3137935334
 31
0.0
  0
LINE
  5
1CB
330
1F
100
AcDbEntity
  8
0
  6
CONTINUOUS
 62
     7
100
AcDbLine
 10
162.3962496713
 20
165.2492112022
 30
0.0
 11
162.7962496976
 21
165.6618765098
 31
0.0
  0
LINE
  5
1CC
330
1F
100
AcDbEntity
  8
0
  6
CONTINUOUS
 62
     7
100
AcDbLine
 10
162.3962496713
 20
173.2487368405
 30
0.0
 11
162.4462723747
 21
173.197130394
 31
0.0
  0
LINE
  5
1CD
330
1F
100
AcDbEntity
  8
0
  6
CONTINUOUS
 62
     7
100
AcDbLine
 10
162.3962496713
 20
173.2472723358
 30
0.0
 11
162.3962496713
 21
173.2487368405
 31
0.0
  0
LINE
  5
1CE
330
1F
100
AcDbEntity
  8
0
  6
CONTINUOUS
 62
     7
100
AcDbLine
 10
162.7962496976
 20
172.8209980772
 30
0.0
 11
162.3962496713
 21
173.2472723358
 31
0.0
  0
LINE
  5
1CF
330
1F
100
AcDbEntity
  8
0
  6
CONTINUOUS
 62
     7
100
AcDbLine
 10
162.3962496713
 20
173.1522751049
 30
0.0
 11
162.7962496976
 21
172.8209980772
 31
0.0
  0
LINE
  5
1D0
330
1F
100
AcDbEntity
  8
0
  6
CONTINUOUS
 62
     7
100
AcDbLine
 10
162.3962496713
 20
173.1356458746
 30
0.0
 11
162.3962496713
 21
173.1522751049
 31
0.0
  0
LINE
  5
1D1
330
1F
100
AcDbEntity
  8
0
  6
CONTINUOUS
 62
     7
100
AcDbLine
 10
162.7962496976
 20
172.6498098121
 30
0.0
 11
162.3962496713
 21
173.1356458746
 31
0.0
  0
LINE
  5
1D2
330
1F
100
AcDbEntity
  8
0
  6
CONTINUOUS
 62
     7
100
AcDbLine
 10
162.3962496713
 20
172.8852202193
 30
0.0
 11
162.7962496976
 21
172.6498098121
 31
0.0
  0
LINE
  5
1D3
330
1F
100
AcDbEntity
  8
0
  6
CONTINUOUS
 62
     7
100
AcDbLine
 10
162.3962496713
 20
172.8541526951
 30
0.0
 11
162.3962496713
 21
172.8852202193
 31
0.0
  0
LINE
  5
1D4
330
1F
100
AcDbEntity
  8
0
  6
CONTINUOUS
 62
     7
100
AcDbLine
 10
162.7962496976
 20
172.3299889833
 30
0.0
 11
162.3962496713
 21
172.8541526951
 31
0.0
  0
LINE
  5
1D5
330
1F
100
AcDbEntity
  8
0
  6
CONTINUOUS
 62
     7
100
AcDbLine
 10
162.3962496713
 20
172.4592439838
 30
0.0
 11
162.7962496976
 21
172.3299889833
 31
0.0
  0
LINE
  5
1D6
330
1F
100
AcDbEntity
  8
0
  6
CONTINUOUS
 62
     7
100
AcDbLine
 10
162.3962496713
 20
172.4150960342
 30
0.0
 11
162.3962496713
 21
172.4592439838
 31
0.0
  0
LINE
  5
1D7
330
1F
100
AcDbEntity
  8
0
  6
CONTINUOUS
 62
     7
100
AcDbLine
 10
162.7962496976
 20
171.8755128801
 30
0.0
 11
162.3962496713
 21
172.4150960342
 31
0.0
  0
LINE
  5
1D8
330
1F
100
AcDbEntity
  8
0
  6
CONTINUOUS
 62
     7
100
AcDbLine
 10
162.3962496713
 20
171.8929637697
 30
0.0
 11
162.7962496976
 21
171.8755128801
 31
0.0
  0
LINE
  5
1D9
330
1F
100
AcDbEntity
  8
0
  6
CONTINUOUS
 62
     7
100
AcDbLine
 10
162.3962496713
 20
171.837664862
 30
0.0
 11
162.3962496713
 21
171.8929637697
 31
0.0
  0
LINE
  5
1DA
330
1F
100
AcDbEntity
  8
0
  6
CONTINUOUS
 62
     7
100
AcDbLine
 10
162.7962496976
 20
171.3062445175
 30
0.0
 11
162.3962496713
 21
171.837664862
 31
0.0
  0
LINE
  5
1DB
330
1F
100
AcDbEntity
  8
0
  6
CONTINUOUS
 62
     7
100
AcDbLine
 10
162.0462496838
 20
143.6642108009
 30
0.0
 11
162.8962496951
 21
143.6345295504
 31
0.0
  0
LINE
  5
1DC
330
1F
100
AcDbEntity
  8
0
  6
CONTINUOUS
 62
     7
100
AcDbLine
 10
162.8962496951
 20
146.863417466
 30
0.0
 11
162.0462496838
 21
146.8337343529
 31
0.0
  0
LINE
  5
1DD
330
1F
100
AcDbEntity
  8
0
  6
CONTINUOUS
 62
     7
100
AcDbLine
 10
162.0462496838
 20
133.6642126635
 30
0.0
 11
162.8962496951
 21
133.6345295504
 31
0.0
  0
LINE
  5
1DE
330
1F
100
AcDbEntity
  8
0
  6
CONTINUOUS
 62
     7
100
AcDbLine
 10
162.8962496951
 20
136.863417466
 30
0.0
 11
162.0462496838
 21
136.8337343529
 31
0.0
  0
LINE
  5
1DF
330
1F
100
AcDbEntity
  8
0
  6
CONTINUOUS
 62
     7
100
AcDbLine
 10
162.0462496838
 20
155.6642126635
 30
0.0
 11
162.8962496951
 21
155.6345295504
 31
0.0
  0
LINE
  5
1E0
330
1F
100
AcDbEntity
  8
0
  6
CONTINUOUS
 62
     7
100
AcDbLine
 10
162.8962496951
 20
158.8634183974
 30
0.0
 11
162.0462496838
 21
158.8337352843
 31
0.0
  0
LINE
  5
1E1
330
1F
100
AcDbEntity
  8
0
  6
CONTINUOUS
 62
     7
100
AcDbLine
 10
218.5962500706
 20
209.7489723944
 30
0.0
 11
218.5962500706
 21
209.0489754461
 31
0.0
  0
LINE
  5
1E2
330
1F
100
AcDbEntity
  8
0
  6
CONTINUOUS
 62
     7
100
AcDbLine
 10
153.796249321
 20
165.9989740708
 30
0.0
 11
154.0962497427
 21
165.9989740708
 31
0.0
  0
LINE
  5
1E3
330
1F
100
AcDbEntity
  8
0
  6
CONTINUOUS
 62
     7
100
AcDbLine
 10
154.0962497427
 20
172.4989742049
 30
0.0
 11
153.796249321
 21
172.4989742049
 31
0.0
  0
LINE
  5
1E4
330
1F
100
AcDbEntity
  8
0
  6
CONTINUOUS
 62
     7
100
AcDbLine
 10
162.8962496951
 20
172.7489737802
 30
0.0
 11
162.4471829462
 21
173.1980407619
 31
0.0
  0
LINE
  5
1E5
330
1F
100
AcDbEntity
  8
0
  6
CONTINUOUS
 62
     7
100
AcDbLine
 10
162.4471829462
 20
165.2999072809
 30
0.0
 11
162.8962496951
 21
165.7489740298
 31
0.0
  0
LINE
  5
1E6
330
1F
100
AcDbEntity
  8
0
  6
CONTINUOUS
 62
     7
100
AcDbLine
 10
101.7291108389
 20
211.8021549665
 30
0.0
 11
101.7291108389
 21
212.5726455831
 31
0.0
  0
LINE
  5
1E7
330
1F
100
AcDbEntity
  8
0
  6
CONTINUOUS
 62
     7
100
AcDbLine
 10
101.7291108389
 20
207.7489757918
 30
0.0
 11
101.7291108389
 21
211.8021549665
 31
0.0
  0
LINE
  5
1E8
330
1F
100
AcDbEntity
  8
0
  6
CONTINUOUS
 62
     7
100
AcDbLine
 10
101.7291108389
 20
123.9253023647
 30
0.0
 11
101.7291108389
 21
124.6957929813
 31
0.0
  0
LINE
  5
1E9
330
1F
100
AcDbEntity
  8
0
  6
CONTINUOUS
 62
     7
100
AcDbLine
 10
101.7291108389
 20
124.6957929813
 30
0.0
 11
101.7291108389
 21
129.2489731692
 31
0.0
  0
LINE
  5
1EA
330
1F
100
AcDbEntity
  8
0
  6
CONTINUOUS
 62
     7
100
AcDbLine
 10
124.2291117329
 20
212.5726455831
 30
0.0
 11
124.2291117329
 21
211.8021549665
 31
0.0
  0
LINE
  5
1EB
330
1F
100
AcDbEntity
  8
0
  6
CONTINUOUS
 62
     7
100
AcDbLine
 10
124.2291117329
 20
211.8021549665
 30
0.0
 11
124.2291117329
 21
124.6957929813
 31
0.0
  0
LINE
  5
1EC
330
1F
100
AcDbEntity
  8
0
  6
CONTINUOUS
 62
     7
100
AcDbLine
 10
124.2291117329
 20
124.6957929813
 30
0.0
 11
124.2291117329
 21
123.9253023647
 31
0.0
  0
LINE
  5
1ED
330
1F
100
AcDbEntity
  8
0
  6
CONTINUOUS
 62
     7
100
AcDbLine
 10
102.142286744
 20
212.6455010854
 30
0.0
 11
102.7291108864
 21
212.7489747488
 31
0.0
  0
LINE
  5
1EE
330
1F
100
AcDbEntity
  8
0
  6
CONTINUOUS
 62
     7
100
AcDbLine
 10
102.142286744
 20
123.8524468624
 30
0.0
 11
102.7291108864
 21
123.748973199
 31
0.0
  0
LINE
  5
1EF
330
1F
100
AcDbEntity
  8
0
  6
CONTINUOUS
 62
     7
100
AcDbLine
 10
102.7291108864
 20
212.7489747488
 30
0.0
 11
123.229111569
 21
212.7489747488
 31
0.0
  0
LINE
  5
1F0
330
1F
100
AcDbEntity
  8
0
  6
CONTINUOUS
 62
     7
100
AcDbLine
 10
123.815934198
 20
212.6455010854
 30
0.0
 11
123.229111569
 21
212.7489747488
 31
0.0
  0
LINE
  5
1F1
330
1F
100
AcDbEntity
  8
0
  6
CONTINUOUS
 62
     7
100
AcDbLine
 10
123.229111569
 20
123.748973199
 30
0.0
 11
102.7291108864
 21
123.748973199
 31
0.0
  0
LINE
  5
1F2
330
1F
100
AcDbEntity
  8
0
  6
CONTINUOUS
 62
     7
100
AcDbLine
 10
123.815934198
 20
123.8524468624
 30
0.0
 11
123.229111569
 21
123.748973199
 31
0.0
  0
LINE
  5
1F3
330
1F
100
AcDbEntity
  8
0
  6
CONTINUOUS
 62
     7
100
AcDbLine
 10
123.815934198
 20
124.4918333375
 30
0.0
 11
123.229111569
 21
124.4489738726
 31
0.0
  0
LINE
  5
1F4
330
1F
100
AcDbEntity
  8
0
  6
CONTINUOUS
 62
     7
100
AcDbLine
 10
123.815934198
 20
212.0061146103
 30
0.0
 11
123.229111569
 21
212.0489740752
 31
0.0
  0
LINE
  5
1F5
330
1F
100
AcDbEntity
  8
0
  6
CONTINUOUS
 62
     7
100
AcDbLine
 10
102.142286744
 20
212.0061146103
 30
0.0
 11
102.7291108864
 21
212.0489740752
 31
0.0
  0
LINE
  5
1F6
330
1F
100
AcDbEntity
  8
0
  6
CONTINUOUS
 62
     7
100
AcDbLine
 10
102.142286744
 20
207.7417636298
 30
0.0
 11
102.7291108864
 21
207.7315190815
 31
0.0
  0
LINE
  5
1F7
330
1F
100
AcDbEntity
  8
0
  6
CONTINUOUS
 62
     7
100
AcDbLine
 10
123.229111569
 20
212.0489740752
 30
0.0
 11
102.7291108864
 21
212.0489740752
 31
0.0
  0
LINE
  5
1F8
330
1F
100
AcDbEntity
  8
0
  6
CONTINUOUS
 62
     7
100
AcDbLine
 10
102.7291108864
 20
129.2664298796
 30
0.0
 11
102.142286744
 21
129.2561853313
 31
0.0
  0
LINE
  5
1F9
330
1F
100
AcDbEntity
  8
0
  6
CONTINUOUS
 62
     7
100
AcDbLine
 10
102.142286744
 20
124.4918333375
 30
0.0
 11
102.7291108864
 21
124.4489738726
 31
0.0
  0
LINE
  5
1FA
330
1F
100
AcDbEntity
  8
0
  6
CONTINUOUS
 62
     7
100
AcDbLine
 10
102.7291108864
 20
124.4489738726
 30
0.0
 11
123.229111569
 21
124.4489738726
 31
0.0
  0
LINE
  5
1FB
330
1F
100
AcDbEntity
  8
0
  6
CONTINUOUS
 62
     7
100
AcDbLine
 10
122.7291869242
 20
211.2489754342
 30
0.0
 11
103.2290347163
 21
211.2489754342
 31
0.0
  0
LINE
  5
1FC
330
1F
100
AcDbEntity
  8
0
  6
CONTINUOUS
 62
     7
100
AcDbLine
 10
103.2290347163
 20
125.2489725136
 30
0.0
 11
122.7291869242
 21
125.2489725136
 31
0.0
  0
LINE
  5
1FD
330
1F
100
AcDbEntity
  8
0
  6
CONTINUOUS
 62
     7
100
AcDbLine
 10
101.7291108389
 20
207.5280288242
 30
0.0
 11
101.7291108389
 21
207.7489757918
 31
0.0
  0
LINE
  5
1FE
330
1F
100
AcDbEntity
  8
0
  6
CONTINUOUS
 62
     7
100
AcDbLine
 10
101.7291108389
 20
129.2489731692
 30
0.0
 11
101.7291108389
 21
129.4699201368
 31
0.0
  0
LINE
  5
1FF
330
1F
100
AcDbEntity
  8
0
  6
CONTINUOUS
 62
     7
100
AcDbLine
 10
101.7291108389
 20
129.4699201368
 30
0.0
 11
101.7291108389
 21
207.5280288242
 31
0.0
  0
LINE
  5
200
330
1F
100
AcDbEntity
  8
0
  6
CONTINUOUS
 62
     7
100
AcDbLine
 10
102.2203846611
 20
207.5366044425
 30
0.0
 11
102.7291108864
 21
207.5454818093
 31
0.0
  0
LINE
  5
201
330
1F
100
AcDbEntity
  8
0
  6
CONTINUOUS
 62
     7
100
AcDbLine
 10
102.7291108864
 20
207.5454818093
 30
0.0
 11
102.7291108864
 21
129.4524634265
 31
0.0
  0
LINE
  5
202
330
1F
100
AcDbEntity
  8
0
  6
CONTINUOUS
 62
     7
100
AcDbLine
 10
102.2203846611
 20
129.4613445186
 30
0.0
 11
102.7291108864
 21
129.4524634265
 31
0.0
  0
LINE
  5
203
330
1F
100
AcDbEntity
  8
0
  6
CONTINUOUS
 62
     7
100
AcDbLine
 10
115.9333680067
 20
171.3062445175
 30
0.0
 11
116.4647890497
 21
171.211128543
 31
0.0
  0
LINE
  5
204
330
1F
100
AcDbEntity
  8
0
  6
CONTINUOUS
 62
     7
100
AcDbLine
 10
116.0284849126
 20
171.837664862
 30
0.0
 11
115.9333680067
 21
171.3062445175
 31
0.0
  0
LINE
  5
205
330
1F
100
AcDbEntity
  8
0
  6
CONTINUOUS
 62
     7
100
AcDbLine
 10
115.441080207
 20
171.8755128801
 30
0.0
 11
115.980663361
 21
171.8929637697
 31
0.0
  0
LINE
  5
206
330
1F
100
AcDbEntity
  8
0
  6
CONTINUOUS
 62
     7
100
AcDbLine
 10
115.4236290846
 20
172.4150960342
 30
0.0
 11
115.441080207
 21
171.8755128801
 31
0.0
  0
LINE
  5
207
330
1F
100
AcDbEntity
  8
0
  6
CONTINUOUS
 62
     7
100
AcDbLine
 10
114.8411920536
 20
172.3299889833
 30
0.0
 11
115.3653562311
 21
172.4592439838
 31
0.0
  0
LINE
  5
208
330
1F
100
AcDbEntity
  8
0
  6
CONTINUOUS
 62
     7
100
AcDbLine
 10
114.7119365875
 20
172.8541526951
 30
0.0
 11
114.8411920536
 21
172.3299889833
 31
0.0
  0
LINE
  5
209
330
1F
100
AcDbEntity
  8
0
  6
CONTINUOUS
 62
     7
100
AcDbLine
 10
114.1599221397
 20
172.6498098121
 30
0.0
 11
114.6457577367
 21
172.8852202193
 31
0.0
  0
LINE
  5
20A
330
1F
100
AcDbEntity
  8
0
  6
CONTINUOUS
 62
     7
100
AcDbLine
 10
113.9245117325
 20
173.1356458746
 30
0.0
 11
114.1599221397
 21
172.6498098121
 31
0.0
  0
LINE
  5
20B
330
1F
100
AcDbEntity
  8
0
  6
CONTINUOUS
 62
     7
100
AcDbLine
 10
113.427044848
 20
172.8209980772
 30
0.0
 11
113.8533195723
 21
173.1522751049
 31
0.0
  0
LINE
  5
20C
330
1F
100
AcDbEntity
  8
0
  6
CONTINUOUS
 62
     7
100
AcDbLine
 10
113.0957678203
 20
173.2472723358
 30
0.0
 11
113.427044848
 21
172.8209980772
 31
0.0
  0
LINE
  5
20D
330
1F
100
AcDbEntity
  8
0
  6
CONTINUOUS
 62
     7
100
AcDbLine
 10
112.6745911557
 20
172.836071533
 30
0.0
 11
113.0226738993
 21
173.2487368405
 31
0.0
  0
LINE
  5
20E
330
1F
100
AcDbEntity
  8
0
  6
CONTINUOUS
 62
     7
100
AcDbLine
 10
112.2619258482
 20
173.1841542766
 30
0.0
 11
112.6745911557
 21
172.836071533
 31
0.0
  0
LINE
  5
20F
330
1F
100
AcDbEntity
  8
0
  6
CONTINUOUS
 62
     7
100
AcDbLine
 10
111.9354460631
 20
172.694371269
 30
0.0
 11
112.190124603
 21
173.1703897946
 31
0.0
  0
LINE
  5
210
330
1F
100
AcDbEntity
  8
0
  6
CONTINUOUS
 62
     7
100
AcDbLine
 10
111.4594275374
 20
172.9490502745
 30
0.0
 11
111.9354460631
 21
172.694371269
 31
0.0
  0
LINE
  5
211
330
1F
100
AcDbEntity
  8
0
  6
CONTINUOUS
 62
     7
100
AcDbLine
 10
111.2419143561
 20
172.4020910457
 30
0.0
 11
111.392057525
 21
172.9206579745
 31
0.0
  0
LINE
  5
212
330
1F
100
AcDbEntity
  8
0
  6
CONTINUOUS
 62
     7
100
AcDbLine
 10
110.7233474273
 20
172.5522346803
 30
0.0
 11
111.2419143561
 21
172.4020910457
 31
0.0
  0
LINE
  5
213
330
1F
100
AcDbEntity
  8
0
  6
CONTINUOUS
 62
     7
100
AcDbLine
 10
110.6243059281
 20
171.9720044181
 30
0.0
 11
110.6633525584
 21
172.5104560152
 31
0.0
  0
LINE
  5
214
330
1F
100
AcDbEntity
  8
0
  6
CONTINUOUS
 62
     7
100
AcDbLine
 10
110.085854331
 20
172.0110510484
 30
0.0
 11
110.6243059281
 21
171.9720044181
 31
0.0
  0
LINE
  5
215
330
1F
100
AcDbEntity
  8
0
  6
CONTINUOUS
 62
     7
100
AcDbLine
 10
110.1096142326
 20
171.4229082697
 30
0.0
 11
110.03585721
 21
171.9577114106
 31
0.0
  0
LINE
  5
216
330
1F
100
AcDbEntity
  8
0
  6
CONTINUOUS
 62
     7
100
AcDbLine
 10
109.5748115573
 20
171.3491512471
 30
0.0
 11
110.1096142326
 21
171.4229082697
 31
0.0
  0
LINE
  5
217
330
1F
100
AcDbEntity
  8
0
  6
CONTINUOUS
 62
     7
100
AcDbLine
 10
109.7203335036
 20
170.7788006876
 30
0.0
 11
109.5369961355
 21
171.2865822025
 31
0.0
  0
LINE
  5
218
330
1F
100
AcDbEntity
  8
0
  6
CONTINUOUS
 62
     7
100
AcDbLine
 10
109.2125517558
 20
170.5954635524
 30
0.0
 11
109.7203335036
 21
170.7788006876
 31
0.0
  0
LINE
  5
219
330
1F
100
AcDbEntity
  8
0
  6
CONTINUOUS
 62
     7
100
AcDbLine
 10
109.4734766763
 20
170.0678324102
 30
0.0
 11
109.1885720622
 21
170.526399697
 31
0.0
  0
LINE
  5
21A
330
1F
100
AcDbEntity
  8
0
  6
CONTINUOUS
 62
     7
100
AcDbLine
 10
109.014909273
 20
169.7829279125
 30
0.0
 11
109.4734766763
 21
170.0678324102
 31
0.0
  0
LINE
  5
21B
330
1F
100
AcDbEntity
  8
0
  6
CONTINUOUS
 62
     7
100
AcDbLine
 10
109.3798331227
 20
169.3210760838
 30
0.0
 11
109.0058125798
 21
169.7103876629
 31
0.0
  0
LINE
  5
21C
330
1F
100
AcDbEntity
  8
0
  6
CONTINUOUS
 62
     7
100
AcDbLine
 10
108.9905211944
 20
168.9470559483
 30
0.0
 11
109.3798331227
 21
169.3210760838
 31
0.0
  0
LINE
  5
21D
330
1F
100
AcDbEntity
  8
0
  6
CONTINUOUS
 62
     7
100
AcDbLine
 10
109.4434950743
 20
168.5711685693
 30
0.0
 11
108.996705642
 21
168.8742095263
 31
0.0
  0
LINE
  5
21E
330
1F
100
AcDbEntity
  8
0
  6
CONTINUOUS
 62
     7
100
AcDbLine
 10
109.1404538844
 20
168.1243792097
 30
0.0
 11
109.4434950743
 21
168.5711685693
 31
0.0
  0
LINE
  5
21F
330
1F
100
AcDbEntity
  8
0
  6
CONTINUOUS
 62
     7
100
AcDbLine
 10
109.6616806705
 20
167.8508843594
 30
0.0
 11
109.1616484579
 21
168.054410429
 31
0.0
  0
LINE
  5
220
330
1F
100
AcDbEntity
  8
0
  6
CONTINUOUS
 62
     7
100
AcDbLine
 10
109.4581540916
 20
167.3508526416
 30
0.0
 11
109.6616806705
 21
167.8508843594
 31
0.0
  0
LINE
  5
221
330
1F
100
AcDbEntity
  8
0
  6
CONTINUOUS
 62
     7
100
AcDbLine
 10
110.0248536337
 20
167.1917034088
 30
0.0
 11
109.4934330564
 21
167.2868194998
 31
0.0
  0
LINE
  5
222
330
1F
100
AcDbEntity
  8
0
  6
CONTINUOUS
 62
     7
100
AcDbLine
 10
109.9297367279
 20
166.6602831808
 30
0.0
 11
110.0248536337
 21
167.1917034088
 31
0.0
  0
LINE
  5
223
330
1F
100
AcDbEntity
  8
0
  6
CONTINUOUS
 62
     7
100
AcDbLine
 10
110.5171414334
 20
166.6224350462
 30
0.0
 11
109.9775582794
 21
166.6049841567
 31
0.0
  0
LINE
  5
224
330
1F
100
AcDbEntity
  8
0
  6
CONTINUOUS
 62
     7
100
AcDbLine
 10
110.5345925559
 20
166.0828517758
 30
0.0
 11
110.5171414334
 21
166.6224350462
 31
0.0
  0
LINE
  5
225
330
1F
100
AcDbEntity
  8
0
  6
CONTINUOUS
 62
     7
100
AcDbLine
 10
111.1170295868
 20
166.1679590595
 30
0.0
 11
110.5928654093
 21
166.0387038261
 31
0.0
  0
LINE
  5
226
330
1F
100
AcDbEntity
  8
0
  6
CONTINUOUS
 62
     7
100
AcDbLine
 10
111.246285053
 20
165.6437951148
 30
0.0
 11
111.1170295868
 21
166.1679590595
 31
0.0
  0
LINE
  5
227
330
1F
100
AcDbEntity
  8
0
  6
CONTINUOUS
 62
     7
100
AcDbLine
 10
111.7982995007
 20
165.8481379979
 30
0.0
 11
111.3124639038
 21
165.6127275907
 31
0.0
  0
LINE
  5
228
330
1F
100
AcDbEntity
  8
0
  6
CONTINUOUS
 62
     7
100
AcDbLine
 10
112.0337099079
 20
165.3623021681
 30
0.0
 11
111.7982995007
 21
165.8481379979
 31
0.0
  0
LINE
  5
229
330
1F
100
AcDbEntity
  8
0
  6
CONTINUOUS
 62
     7
100
AcDbLine
 10
112.5311767925
 20
165.6769499656
 30
0.0
 11
112.1049020682
 21
165.3456729379
 31
0.0
  0
LINE
  5
22A
330
1F
100
AcDbEntity
  8
0
  6
CONTINUOUS
 62
     7
100
AcDbLine
 10
112.8624538202
 20
165.2506754742
 30
0.0
 11
112.5311767925
 21
165.6769499656
 31
0.0
  0
LINE
  5
22B
330
1F
100
AcDbEntity
  8
0
  6
CONTINUOUS
 62
     7
100
AcDbLine
 10
113.2836304847
 20
165.6618765098
 30
0.0
 11
112.9355477411
 21
165.2492112022
 31
0.0
  0
LINE
  5
22C
330
1F
100
AcDbEntity
  8
0
  6
CONTINUOUS
 62
     7
100
AcDbLine
 10
113.6962957923
 20
165.3137935334
 30
0.0
 11
113.2836304847
 21
165.6618765098
 31
0.0
  0
LINE
  5
22D
330
1F
100
AcDbEntity
  8
0
  6
CONTINUOUS
 62
     7
100
AcDbLine
 10
114.0227755774
 20
165.803576541
 30
0.0
 11
113.7680970375
 21
165.3275582482
 31
0.0
  0
LINE
  5
22E
330
1F
100
AcDbEntity
  8
0
  6
CONTINUOUS
 62
     7
100
AcDbLine
 10
114.4987941031
 20
165.5488977682
 30
0.0
 11
114.0227755774
 21
165.803576541
 31
0.0
  0
LINE
  5
22F
330
1F
100
AcDbEntity
  8
0
  6
CONTINUOUS
 62
     7
100
AcDbLine
 10
114.7163072843
 20
166.0958567642
 30
0.0
 11
114.5661641155
 21
165.5772900683
 31
0.0
  0
LINE
  5
230
330
1F
100
AcDbEntity
  8
0
  6
CONTINUOUS
 62
     7
100
AcDbLine
 10
115.2348742131
 20
165.9457131297
 30
0.0
 11
114.7163072843
 21
166.0958567642
 31
0.0
  0
LINE
  5
231
330
1F
100
AcDbEntity
  8
0
  6
CONTINUOUS
 62
     7
100
AcDbLine
 10
115.3339157123
 20
166.5259435082
 30
0.0
 11
115.2948690821
 21
165.9874920276
 31
0.0
  0
LINE
  5
232
330
1F
100
AcDbEntity
  8
0
  6
CONTINUOUS
 62
     7
100
AcDbLine
 10
115.8723673094
 20
166.4868969944
 30
0.0
 11
115.3339157123
 21
166.5259435082
 31
0.0
  0
LINE
  5
233
330
1F
100
AcDbEntity
  8
0
  6
CONTINUOUS
 62
     7
100
AcDbLine
 10
115.8486074079
 20
167.0750396567
 30
0.0
 11
115.9223644305
 21
166.5402365158
 31
0.0
  0
LINE
  5
234
330
1F
100
AcDbEntity
  8
0
  6
CONTINUOUS
 62
     7
100
AcDbLine
 10
116.3834100831
 20
167.1487967957
 30
0.0
 11
115.8486074079
 21
167.0750396567
 31
0.0
  0
LINE
  5
235
330
1F
100
AcDbEntity
  8
0
  6
CONTINUOUS
 62
     7
100
AcDbLine
 10
116.2378881369
 20
167.7191471805
 30
0.0
 11
116.421225505
 21
167.2113657239
 31
0.0
  0
LINE
  5
236
330
1F
100
AcDbEntity
  8
0
  6
CONTINUOUS
 62
     7
100
AcDbLine
 10
116.745669419
 20
167.9024843449
 30
0.0
 11
116.2378881369
 21
167.7191471805
 31
0.0
  0
LINE
  5
237
330
1F
100
AcDbEntity
  8
0
  6
CONTINUOUS
 62
     7
100
AcDbLine
 10
116.4847454298
 20
168.4301154871
 30
0.0
 11
116.7696491126
 21
167.9715481711
 31
0.0
  0
LINE
  5
238
330
1F
100
AcDbEntity
  8
0
  6
CONTINUOUS
 62
     7
100
AcDbLine
 10
116.9433119018
 20
168.7150199847
 30
0.0
 11
116.4847454298
 21
168.4301154871
 31
0.0
  0
LINE
  5
239
330
1F
100
AcDbEntity
  8
0
  6
CONTINUOUS
 62
     7
100
AcDbLine
 10
116.5783889834
 20
169.1768718426
 30
0.0
 11
116.9524090607
 21
168.7875603217
 31
0.0
  0
LINE
  5
23A
330
1F
100
AcDbEntity
  8
0
  6
CONTINUOUS
 62
     7
100
AcDbLine
 10
116.967700446
 20
169.5508920363
 30
0.0
 11
116.5783889834
 21
169.1768718426
 31
0.0
  0
LINE
  5
23B
330
1F
100
AcDbEntity
  8
0
  6
CONTINUOUS
 62
     7
100
AcDbLine
 10
116.5147265662
 20
169.9267794153
 30
0.0
 11
116.9615164641
 21
169.6237384583
 31
0.0
  0
LINE
  5
23C
330
1F
100
AcDbEntity
  8
0
  6
CONTINUOUS
 62
     7
100
AcDbLine
 10
116.8177677561
 20
170.3735687312
 30
0.0
 11
116.5147265662
 21
169.9267794153
 31
0.0
  0
LINE
  5
23D
330
1F
100
AcDbEntity
  8
0
  6
CONTINUOUS
 62
     7
100
AcDbLine
 10
116.29654097
 20
170.6470634796
 30
0.0
 11
116.7965727169
 21
170.4435375993
 31
0.0
  0
LINE
  5
23E
330
1F
100
AcDbEntity
  8
0
  6
CONTINUOUS
 62
     7
100
AcDbLine
 10
116.5000675488
 20
171.1470952266
 30
0.0
 11
116.29654097
 21
170.6470634796
 31
0.0
  0
LINE
  5
23F
330
1F
100
AcDbEntity
  8
1
  6
CONTINUOUS
 62
     7
100
AcDbLine
 10
121.879111569
 20
126.2989725136
 30
0.0
 11
104.0791108864
 21
126.2989725136
 31
0.0
  0
LINE
  5
240
330
1F
100
AcDbEntity
  8
1
  6
CONTINUOUS
 62
     7
100
AcDbLine
 10
121.879111569
 20
125.8989725136
 30
0.0
 11
104.0791108864
 21
125.8989725136
 31
0.0
  0
LINE
  5
241
330
1F
100
AcDbEntity
  8
1
  6
CONTINUOUS
 62
     7
100
AcDbLine
 10
103.3791108864
 20
126.5989725136
 30
0.0
 11
103.3791108864
 21
209.8989754342
 31
0.0
  0
LINE
  5
242
330
1F
100
AcDbEntity
  8
1
  6
CONTINUOUS
 62
     7
100
AcDbLine
 10
103.7791108864
 20
126.5989725136
 30
0.0
 11
103.7791108864
 21
209.8989754342
 31
0.0
  0
LINE
  5
243
330
1F
100
AcDbEntity
  8
1
  6
CONTINUOUS
 62
     7
100
AcDbLine
 10
104.0791108864
 20
210.1989754342
 30
0.0
 11
121.879111569
 21
210.1989754342
 31
0.0
  0
LINE
  5
244
330
1F
100
AcDbEntity
  8
1
  6
CONTINUOUS
 62
     7
100
AcDbLine
 10
121.879111569
 20
210.5989754342
 30
0.0
 11
104.0791108864
 21
210.5989754342
 31
0.0
  0
LINE
  5
245
330
1F
100
AcDbEntity
  8
1
  6
CONTINUOUS
 62
     7
100
AcDbLine
 10
122.579111569
 20
209.8989754342
 30
0.0
 11
122.579111569
 21
126.5989725136
 31
0.0
  0
LINE
  5
246
330
1F
100
AcDbEntity
  8
1
  6
CONTINUOUS
 62
     7
100
AcDbLine
 10
122.179111569
 20
209.8989754342
 30
0.0
 11
122.179111569
 21
126.5989725136
 31
0.0
  0
LINE
  5
247
330
1F
100
AcDbEntity
  8
1
  6
CONTINUOUS
 62
     7
100
AcDbLine
 10
122.279111569
 20
210.9989754342
 30
0.0
 11
103.6791108864
 21
210.9989754342
 31
0.0
  0
LINE
  5
248
330
1F
100
AcDbEntity
  8
1
  6
CONTINUOUS
 62
     7
100
AcDbLine
 10
103.6791108864
 20
125.4989725136
 30
0.0
 11
122.279111569
 21
125.4989725136
 31
0.0
  0
LINE
  5
249
330
1F
100
AcDbEntity
  8
1
  6
CONTINUOUS
 62
     7
100
AcDbLine
 10
122.979111569
 20
126.1989725136
 30
0.0
 11
122.979111569
 21
210.2989754342
 31
0.0
  0
LINE
  5
24A
330
1F
100
AcDbEntity
  8
1
  6
CONTINUOUS
 62
     7
100
AcDbLine
 10
102.9791108864
 20
210.2989754342
 30
0.0
 11
102.9791108864
 21
126.1989725136
 31
0.0
  0
LINE
  5
24B
330
1F
100
AcDbEntity
  8
1
  6
CONTINUOUS
 62
     7
100
AcDbLine
 10
119.9791108389
 20
202.4489739739
 30
0.0
 11
105.9791108389
 21
202.4489739739
 31
0.0
  0
LINE
  5
24C
330
1F
100
AcDbEntity
  8
1
  6
CONTINUOUS
 62
     7
100
AcDbLine
 10
105.9791108389
 20
176.9489739739
 30
0.0
 11
119.9791108389
 21
176.9489739739
 31
0.0
  0
LINE
  5
24D
330
1F
100
AcDbEntity
  8
1
  6
CONTINUOUS
 62
     7
100
AcDbLine
 10
120.4791108389
 20
177.4489739739
 30
0.0
 11
120.4791108389
 21
201.9489739739
 31
0.0
  0
LINE
  5
24E
330
1F
100
AcDbEntity
  8
1
  6
CONTINUOUS
 62
     7
100
AcDbLine
 10
105.4791108389
 20
201.9489739739
 30
0.0
 11
105.4791108389
 21
177.4489739739
 31
0.0
  0
LINE
  5
24F
330
1F
100
AcDbEntity
  8
0
  6
CONTINUOUS
 62
     7
100
AcDbLine
 10
101.46722091093
 20
154.125923257207
 30
0.0
 11
100.94735391093
 21
154.125923257207
 31
0.0
  0
LINE
  5
250
330
1F
100
AcDbEntity
  8
0
  6
CONTINUOUS
 62
     7
100
AcDbLine
 10
101.46722091093
 20
155.125923257207
 30
0.0
 11
100.94735391093
 21
155.125923257207
 31
0.0
  0
LINE
  5
251
330
1F
100
AcDbEntity
  8
0
  6
CONTINUOUS
 62
     7
100
AcDbLine
 10
124.926070880267
 20
154.125923257207
 30
0.0
 11
124.406203880267
 21
154.125923257207
 31
0.0
  0
LINE
  5
252
330
1F
100
AcDbEntity
  8
0
  6
CONTINUOUS
 62
     7
100
AcDbLine
 10
124.926070880267
 20
155.125923257207
 30
0.0
 11
124.406203880267
 21
155.125923257207
 31
0.0
  0
LINE
  5
253
330
1F
100
AcDbEntity
  8
0
  6
CONTINUOUS
 62
     7
100
AcDbLine
 10
124.406203880267
 20
197.272024690593
 30
0.0
 11
124.926070880267
 21
197.272024690593
 31
0.0
  0
LINE
  5
254
330
1F
100
AcDbEntity
  8
0
  6
CONTINUOUS
 62
     7
100
AcDbLine
 10
124.406203880267
 20
198.272024690593
 30
0.0
 11
124.926070880267
 21
198.272024690593
 31
0.0
  0
LINE
  5
255
330
1F
100
AcDbEntity
  8
0
  6
CONTINUOUS
 62
     7
100
AcDbLine
 10
124.406203880267
 20
204.644906001835
 30
0.0
 11
124.926070880267
 21
204.644906001835
 31
0.0
  0
LINE
  5
256
330
1F
100
AcDbEntity
  8
0
  6
CONTINUOUS
 62
     7
100
AcDbLine
 10
124.406203880267
 20
205.644906001835
 30
0.0
 11
124.926070880267
 21
205.644906001835
 31
0.0
  0
LINE
  5
257
330
1F
100
AcDbEntity
  8
0
  6
CONTINUOUS
 62
     7
100
AcDbLine
 10
100.94735391093
 20
197.272024690593
 30
0.0
 11
101.46722091093
 21
197.272024690593
 31
0.0
  0
LINE
  5
258
330
1F
100
AcDbEntity
  8
0
  6
CONTINUOUS
 62
     7
100
AcDbLine
 10
100.94735391093
 20
198.272024690593
 30
0.0
 11
101.46722091093
 21
198.272024690593
 31
0.0
  0
LINE
  5
259
330
1F
100
AcDbEntity
  8
Z_OM_OUTLINE
  6
CONTINUOUS
 62
     7
100
AcDbLine
 10
98.4367123728933
 20
182.78049937927
 30
0.0
 11
101.7291108389
 21
182.78049937927
 31
0.0
  0
LINE
  5
25A
330
1F
100
AcDbEntity
  8
Z_OM_OUTLINE
  6
CONTINUOUS
 62
     7
100
AcDbLine
 10
98.4367123728933
 20
183.517787173476
 30
0.0
 11
99.4197633755267
 21
183.517787173476
 31
0.0
  0
LINE
  5
25B
330
1F
100
AcDbEntity
  8
Z_OM_OUTLINE
  6
CONTINUOUS
 62
     7
100
AcDbLine
 10
99.4197633755267
 20
183.517787173476
 30
0.0
 11
99.4197633755267
 21
187.941516685327
 31
0.0
  0
LINE
  5
25C
330
1F
100
AcDbEntity
  8
Z_OM_OUTLINE
  6
CONTINUOUS
 62
     7
100
AcDbLine
 10
99.4197633755267
 20
187.941516685327
 30
0.0
 11
98.4367123728933
 21
187.941516685327
 31
0.0
  0
LINE
  5
25D
330
1F
100
AcDbEntity
  8
Z_OM_OUTLINE
  6
CONTINUOUS
 62
     7
100
AcDbLine
 10
127.436712372893
 20
169.617448632987
 30
0.0
 11
124.2291117329
 21
169.617448632987
 31
0.0
  0
LINE
  5
25E
330
1F
100
AcDbEntity
  8
Z_OM_OUTLINE
  6
CONTINUOUS
 62
     7
100
AcDbLine
 10
127.436712372893
 20
168.880160381012
 30
0.0
 11
126.45366137026
 21
168.880160381012
 31
0.0
  0
LINE
  5
25F
330
1F
100
AcDbEntity
  8
Z_OM_OUTLINE
  6
CONTINUOUS
 62
     7
100
AcDbLine
 10
126.45366137026
 20
168.880160381012
 30
0.0
 11
126.45366137026
 21
164.45643132693
 31
0.0
  0
LINE
  5
260
330
1F
100
AcDbEntity
  8
Z_OM_OUTLINE
  6
CONTINUOUS
 62
     7
100
AcDbLine
 10
126.45366137026
 20
164.45643132693
 30
0.0
 11
127.436712372893
 21
164.45643132693
 31
0.0
  0
LINE
  5
261
330
1F
100
AcDbEntity
  8
Z_OM_OUTLINE
  6
CONTINUOUS
 62
     7
100
AcDbLine
 10
101.385865380794
 20
183.517787173476
 30
0.0
 11
101.385865380794
 21
187.941516685327
 31
0.0
  0
LINE
  5
262
330
1F
100
AcDbEntity
  8
Z_OM_OUTLINE
  6
CONTINUOUS
 62
     7
100
AcDbLine
 10
101.385865380794
 20
187.941516685327
 30
0.0
 11
100.697729129628
 21
187.941516685327
 31
0.0
  0
LINE
  5
263
330
1F
100
AcDbEntity
  8
Z_OM_OUTLINE
  6
CONTINUOUS
 62
     7
100
AcDbLine
 10
100.697729129628
 20
187.941516685327
 30
0.0
 11
100.697729129628
 21
183.517787173476
 31
0.0
  0
LINE
  5
264
330
1F
100
AcDbEntity
  8
Z_OM_OUTLINE
  6
CONTINUOUS
 62
     7
100
AcDbLine
 10
100.697729129628
 20
183.517787173476
 30
0.0
 11
101.385865380794
 21
183.517787173476
 31
0.0
  0
LINE
  5
265
330
1F
100
AcDbEntity
  8
Z_OM_OUTLINE
  6
CONTINUOUS
 62
     7
100
AcDbLine
 10
125.175695616159
 20
164.45643132693
 30
0.0
 11
125.175695616159
 21
168.880160381012
 31
0.0
  0
LINE
  5
266
330
1F
100
AcDbEntity
  8
Z_OM_OUTLINE
  6
CONTINUOUS
 62
     7
100
AcDbLine
 10
125.175695616159
 20
168.880160381012
 30
0.0
 11
124.487559364993
 21
168.880160381012
 31
0.0
  0
LINE
  5
267
330
1F
100
AcDbEntity
  8
Z_OM_OUTLINE
  6
CONTINUOUS
 62
     7
100
AcDbLine
 10
124.487559364993
 20
168.880160381012
 30
0.0
 11
124.487559364993
 21
164.45643132693
 31
0.0
  0
LINE
  5
268
330
1F
100
AcDbEntity
  8
Z_OM_OUTLINE
  6
CONTINUOUS
 62
     7
100
AcDbLine
 10
124.487559364993
 20
164.45643132693
 30
0.0
 11
125.175695616159
 21
164.45643132693
 31
0.0
  0
LINE
  5
269
330
1F
100
AcDbEntity
  8
Z_OM_OUTLINE
  6
CONTINUOUS
 62
     7
100
AcDbLine
 10
99.5180682926828
 20
157.820839347998
 30
0.0
 11
101.7291108389
 21
157.820839347998
 31
0.0
  0
LINE
  5
26A
330
1F
100
AcDbEntity
  8
Z_OM_OUTLINE
  6
CONTINUOUS
 62
     7
100
AcDbLine
 10
99.5180682926828
 20
140.80914294678
 30
0.0
 11
99.5180682926828
 21
157.820839347998
 31
0.0
  0
LINE
  5
26B
330
1F
100
AcDbEntity
  8
Z_OM_OUTLINE
  6
CONTINUOUS
 62
     7
100
AcDbLine
 10
127.436712372893
 20
150.447957743784
 30
0.0
 11
126.355356453104
 21
150.447957743784
 31
0.0
  0
LINE
  5
26C
330
1F
100
AcDbEntity
  8
Z_OM_OUTLINE
  6
CONTINUOUS
 62
     7
100
AcDbLine
 10
126.355356453104
 20
157.820839347998
 30
0.0
 11
126.355356453104
 21
150.447957743784
 31
0.0
  0
LINE
  5
26D
330
1F
100
AcDbEntity
  8
Z_OM_OUTLINE
  6
CONTINUOUS
 62
     7
100
AcDbLine
 10
99.5180682926828
 20
146.70744896258
 30
0.0
 11
98.4367123728933
 21
146.70744896258
 31
0.0
  0
LINE
  5
26E
330
1F
100
AcDbEntity
  8
Z_OM_OUTLINE
  6
CONTINUOUS
 62
     7
100
AcDbLine
 10
99.5180682926828
 20
194.577109579797
 30
0.0
 11
101.7291108389
 21
194.577109579797
 31
0.0
  0
LINE
  5
26F
330
1F
100
AcDbEntity
  8
Z_OM_OUTLINE
  6
CONTINUOUS
 62
     7
100
AcDbLine
 10
126.355356453104
 20
194.577109579797
 30
0.0
 11
126.355356453104
 21
211.58880414994
 31
0.0
  0
LINE
  5
270
330
1F
100
AcDbEntity
  8
Z_OM_OUTLINE
  6
CONTINUOUS
 62
     7
100
AcDbLine
 10
99.5180682926828
 20
201.94999118401
 30
0.0
 11
98.4367123728933
 21
201.94999118401
 31
0.0
  0
LINE
  5
271
330
1F
100
AcDbEntity
  8
Z_OM_OUTLINE
  6
CONTINUOUS
 62
     7
100
AcDbLine
 10
99.5180682926828
 20
194.577109579797
 30
0.0
 11
99.5180682926828
 21
201.94999118401
 31
0.0
  0
LINE
  5
272
330
1F
100
AcDbEntity
  8
Z_OM_OUTLINE
  6
CONTINUOUS
 62
     7
100
AcDbLine
 10
127.436712372893
 20
205.690498134139
 30
0.0
 11
126.355356453104
 21
205.690498134139
 31
0.0
  0
LINE
  5
273
330
1F
100
AcDbEntity
  8
Z_OM_OUTLINE
  6
CONTINUOUS
 62
     7
100
AcDbLine
 10
126.355356453104
 20
151.431008746418
 30
0.0
 11
124.2291117329
 21
151.431008746418
 31
0.0
  0
LINE
  5
274
330
1F
100
AcDbEntity
  8
Z_OM_OUTLINE
  6
CONTINUOUS
 62
     7
100
AcDbLine
 10
101.7291108389
 20
200.966940181377
 30
0.0
 11
99.5180682926828
 21
200.966940181377
 31
0.0
  0
LINE
  5
275
330
1F
100
AcDbEntity
  8
Z_OM_OUTLINE
  6
CONTINUOUS
 62
     7
100
AcDbLine
 10
126.355356453104
 20
200.966940181377
 30
0.0
 11
124.2291117329
 21
200.966940181377
 31
0.0
  0
LINE
  5
276
330
1F
100
AcDbEntity
  8
Z_OM_OUTLINE
  6
CONTINUOUS
 62
     7
100
AcDbLine
 10
98.4367123728933
 20
211.58880414994
 30
0.0
 11
98.4367123728933
 21
140.80914294678
 31
0.0
  0
LINE
  5
277
330
1F
100
AcDbEntity
  8
Z_OM_OUTLINE
  6
CONTINUOUS
 62
     7
100
AcDbLine
 10
126.355356453104
 20
208.33982178559
 30
0.0
 11
124.2291117329
 21
208.33982178559
 31
0.0
  0
LINE
  5
278
330
1F
100
AcDbEntity
  8
Z_OM_OUTLINE
  6
CONTINUOUS
 62
     7
100
AcDbLine
 10
126.355356453104
 20
209.322870957149
 30
0.0
 11
124.2291117329
 21
209.322870957149
 31
0.0
  0
LINE
  5
279
330
1F
100
AcDbEntity
  8
Z_OM_OUTLINE
  6
CONTINUOUS
 62
     7
100
AcDbLine
 10
125.814678493209
 20
146.805753879736
 30
0.0
 11
125.814678493209
 21
147.592195048058
 31
0.0
  0
LINE
  5
27A
330
1F
100
AcDbEntity
  8
Z_OM_OUTLINE
  6
CONTINUOUS
 62
     7
100
AcDbLine
 10
127.436712372893
 20
140.80914294678
 30
0.0
 11
124.2291117329
 21
140.80914294678
 31
0.0
  0
LINE
  5
27B
330
1F
100
AcDbEntity
  8
Z_OM_OUTLINE
  6
CONTINUOUS
 62
     7
100
AcDbLine
 10
127.436712372893
 20
211.58880414994
 30
0.0
 11
127.436712372893
 21
140.80914294678
 31
0.0
  0
LINE
  5
27C
330
1F
100
AcDbEntity
  8
Z_OM_OUTLINE
  6
CONTINUOUS
 62
     7
100
AcDbLine
 10
100.058746252577
 20
205.592195048058
 30
0.0
 11
100.058746252577
 21
204.805752048662
 31
0.0
  0
LINE
  5
27D
330
1F
100
AcDbEntity
  8
Z_OM_OUTLINE
  6
CONTINUOUS
 62
     7
100
AcDbLine
 10
127.436712372893
 20
211.58880414994
 30
0.0
 11
124.2291117329
 21
211.58880414994
 31
0.0
  0
LINE
  5
27E
330
1F
100
AcDbEntity
  8
Z_OM_OUTLINE
  6
CONTINUOUS
 62
     7
100
AcDbLine
 10
124.2291117329
 20
201.94999118401
 30
0.0
 11
126.355356453104
 21
201.94999118401
 31
0.0
  0
LINE
  5
27F
330
1F
100
AcDbEntity
  8
Z_OM_OUTLINE
  6
CONTINUOUS
 62
     7
100
AcDbLine
 10
124.2291117329
 20
194.577109579797
 30
0.0
 11
126.355356453104
 21
194.577109579797
 31
0.0
  0
LINE
  5
280
330
1F
100
AcDbEntity
  8
Z_OM_OUTLINE
  6
CONTINUOUS
 62
     7
100
AcDbLine
 10
124.2291117329
 20
163.719143532724
 30
0.0
 11
127.436712372893
 21
163.719143532724
 31
0.0
  0
LINE
  5
281
330
1F
100
AcDbEntity
  8
Z_OM_OUTLINE
  6
CONTINUOUS
 62
     7
100
AcDbLine
 10
124.2291117329
 20
157.820839347998
 30
0.0
 11
126.355356453104
 21
157.820839347998
 31
0.0
  0
LINE
  5
282
330
1F
100
AcDbEntity
  8
Z_OM_OUTLINE
  6
CONTINUOUS
 62
     7
100
AcDbLine
 10
124.2291117329
 20
150.447957743784
 30
0.0
 11
126.355356453104
 21
150.447957743784
 31
0.0
  0
LINE
  5
283
330
1F
100
AcDbEntity
  8
1
  6
CONTINUOUS
 62
     7
100
AcDbLine
 10
98.4367123728933
 20
211.58880414994
 30
0.0
 11
101.7291108389
 21
211.58880414994
 31
0.0
  0
LINE
  5
284
330
1F
100
AcDbEntity
  8
Z_OM_OUTLINE
  6
CONTINUOUS
 62
     7
100
AcDbLine
 10
101.7291108389
 20
201.94999118401
 30
0.0
 11
99.5180682926828
 21
201.94999118401
 31
0.0
  0
LINE
  5
285
330
1F
100
AcDbEntity
  8
Z_OM_OUTLINE
  6
CONTINUOUS
 62
     7
100
AcDbLine
 10
101.7291108389
 20
188.678804479534
 30
0.0
 11
98.4367123728933
 21
188.678804479534
 31
0.0
  0
LINE
  5
286
330
1F
100
AcDbEntity
  8
Z_OM_OUTLINE
  6
CONTINUOUS
 62
     7
100
AcDbLine
 10
101.7291108389
 20
151.431008746418
 30
0.0
 11
99.5180682926828
 21
151.431008746418
 31
0.0
  0
LINE
  5
287
330
1F
100
AcDbEntity
  8
Z_OM_OUTLINE
  6
CONTINUOUS
 62
     7
100
AcDbLine
 10
101.7291108389
 20
150.447957743784
 30
0.0
 11
99.5180682926828
 21
150.447957743784
 31
0.0
  0
LINE
  5
288
330
1F
100
AcDbEntity
  8
Z_OM_OUTLINE
  6
CONTINUOUS
 62
     7
100
AcDbLine
 10
101.7291108389
 20
143.075076139571
 30
0.0
 11
99.5180682926828
 21
143.075076139571
 31
0.0
  0
LINE
  5
289
330
1F
100
AcDbEntity
  8
Z_OM_OUTLINE
  6
CONTINUOUS
 62
     7
100
AcDbLine
 10
101.7291108389
 20
140.80914294678
 30
0.0
 11
98.4367123728933
 21
140.80914294678
 31
0.0
  0
LINE
  5
28A
330
1F
100
AcDbEntity
  8
0
  6
CONTINUOUS
 62
     7
100
AcDbLine
 10
261.8962499931
 20
159.88880414994
 30
0.0
 11
262.8962499931
 21
157.88880414994
 31
0.0
  0
LINE
  5
28B
330
1F
100
AcDbEntity
  8
0
  6
CONTINUOUS
 62
     7
100
AcDbLine
 10
261.2962499931
 20
158.78880414994
 30
0.0
 11
261.2962499931
 21
157.88880414994
 31
0.0
  0
LINE
  5
28C
330
1F
100
AcDbEntity
  8
0
  6
DOTTED
 62
     7
100
AcDbLine
 10
260.8962499931
 20
159.88880414994
 30
0.0
 11
260.8962499931
 21
158.78880414994
 31
0.0
  0
LINE
  5
28D
330
1F
100
AcDbEntity
  8
0
  6
CONTINUOUS
 62
     7
100
AcDbLine
 10
259.4962499931
 20
158.78880414994
 30
0.0
 11
261.2962499931
 21
158.78880414994
 31
0.0
  0
LINE
  5
28E
330
1F
100
AcDbEntity
  8
0
  6
CONTINUOUS
 62
     7
100
AcDbLine
 10
262.8962499931
 20
193.28880414994
 30
0.0
 11
261.8962499931
 21
191.28880414994
 31
0.0
  0
LINE
  5
28F
330
1F
100
AcDbEntity
  8
0
  6
CONTINUOUS
 62
     7
100
AcDbLine
 10
260.8962499931
 20
159.88880414994
 30
0.0
 11
261.8962499931
 21
159.88880414994
 31
0.0
  0
LINE
  5
290
330
1F
100
AcDbEntity
  8
0
  6
CONTINUOUS
 62
     7
100
AcDbLine
 10
260.8962499931
 20
193.28880414994
 30
0.0
 11
260.8962499931
 21
191.28880414994
 31
0.0
  0
LINE
  5
291
330
1F
100
AcDbEntity
  8
0
  6
CONTINUOUS
 62
     7
100
AcDbLine
 10
256.8962499931
 20
140.58880414994
 30
0.0
 11
262.8962499931
 21
140.58880414994
 31
0.0
  0
LINE
  5
292
330
1F
100
AcDbEntity
  8
0
  6
CONTINUOUS
 62
     7
100
AcDbLine
 10
260.8962499931
 20
191.28880414994
 30
0.0
 11
261.8962499931
 21
191.28880414994
 31
0.0
  0
LINE
  5
293
330
1F
100
AcDbEntity
  8
0
  6
CONTINUOUS
 62
     7
100
AcDbLine
 10
234.8962499931
 20
152.48880414994
 30
0.0
 11
236.8962499931
 21
150.48880414994
 31
0.0
  0
LINE
  5
294
330
1F
100
AcDbEntity
  8
0
  6
CONTINUOUS
 62
     7
100
AcDbLine
 10
236.8962499931
 20
200.68880414994
 30
0.0
 11
234.8962499931
 21
198.68880314994
 31
0.0
  0
LINE
  5
295
330
1F
100
AcDbEntity
  8
0
  6
CONTINUOUS
 62
     7
100
AcDbLine
 10
259.5962499931
 20
139.58880414994
 30
0.0
 11
259.5962499931
 21
135.58880414994
 31
0.0
  0
LINE
  5
296
330
1F
100
AcDbEntity
  8
0
  6
CONTINUOUS
 62
     7
100
AcDbLine
 10
246.3962499931
 20
141.58880414994
 30
0.0
 11
248.3962499931
 21
139.58880414994
 31
0.0
  0
LINE
  5
297
330
1F
100
AcDbEntity
  8
0
  6
CONTINUOUS
 62
     7
100
AcDbLine
 10
256.8962499931
 20
150.48880414994
 30
0.0
 11
256.8962499931
 21
139.58880414994
 31
0.0
  0
LINE
  5
298
330
1F
100
AcDbEntity
  8
0
  6
CONTINUOUS
 62
     7
100
AcDbLine
 10
248.3962499931
 20
211.58880414994
 30
0.0
 11
246.3962499931
 21
209.58880314994
 31
0.0
  0
LINE
  5
299
330
1F
100
AcDbEntity
  8
0
  6
CONTINUOUS
 62
     7
100
AcDbLine
 10
246.3962499931
 20
209.58880314994
 30
0.0
 11
246.3962499931
 21
200.68880414994
 31
0.0
  0
LINE
  5
29A
330
1F
100
AcDbEntity
  8
0
  6
CONTINUOUS
 62
     7
100
AcDbLine
 10
234.8962499931
 20
198.68880314994
 30
0.0
 11
234.8962499931
 21
152.48880414994
 31
0.0
  0
LINE
  5
29B
330
1F
100
AcDbEntity
  8
0
  6
CONTINUOUS
 62
     7
100
AcDbLine
 10
236.8962499931
 20
150.48880414994
 30
0.0
 11
256.8962499931
 21
150.48880414994
 31
0.0
  0
LINE
  5
29C
330
1F
100
AcDbEntity
  8
0
  6
CONTINUOUS
 62
     7
100
AcDbLine
 10
236.8962499931
 20
200.68880414994
 30
0.0
 11
246.3962499931
 21
200.68880414994
 31
0.0
  0
LINE
  5
29D
330
1F
100
AcDbEntity
  8
0
  6
CONTINUOUS
 62
     7
100
AcDbLine
 10
262.8962499931
 20
211.58880414994
 30
0.0
 11
262.8962499931
 21
193.28880414994
 31
0.0
  0
LINE
  5
29E
330
1F
100
AcDbEntity
  8
0
  6
CONTINUOUS
 62
     7
100
AcDbLine
 10
262.8962499931
 20
157.88880414994
 30
0.0
 11
262.8962499931
 21
135.58880414994
 31
0.0
  0
LINE
  5
29F
330
1F
100
AcDbEntity
  8
0
  6
CONTINUOUS
 62
     7
100
AcDbLine
 10
259.4962499931
 20
193.28880414994
 30
0.0
 11
259.4962499931
 21
157.88880414994
 31
0.0
  0
LINE
  5
2A0
330
1F
100
AcDbEntity
  8
0
  6
CONTINUOUS
 62
     7
100
AcDbLine
 10
259.4962499931
 20
157.88880414994
 30
0.0
 11
262.8962499931
 21
157.88880414994
 31
0.0
  0
LINE
  5
2A1
330
1F
100
AcDbEntity
  8
0
  6
CONTINUOUS
 62
     7
100
AcDbLine
 10
259.4962499931
 20
193.28880414994
 30
0.0
 11
262.8962499931
 21
193.28880414994
 31
0.0
  0
LINE
  5
2A2
330
1F
100
AcDbEntity
  8
0
  6
CONTINUOUS
 62
     7
100
AcDbLine
 10
248.3962499931
 20
139.58880414994
 30
0.0
 11
262.8962499931
 21
139.58880414994
 31
0.0
  0
LINE
  5
2A3
330
1F
100
AcDbEntity
  8
0
  6
CONTINUOUS
 62
     7
100
AcDbLine
 10
246.3962499931
 20
150.48880414994
 30
0.0
 11
246.3962499931
 21
141.58880414994
 31
0.0
  0
LINE
  5
2A4
330
1F
100
AcDbEntity
  8
0
  6
CONTINUOUS
 62
     7
100
AcDbLine
 10
259.5962499931
 20
135.58880414994
 30
0.0
 11
262.8962499931
 21
135.58880414994
 31
0.0
  0
LINE
  5
2A5
330
1F
100
AcDbEntity
  8
0
  6
CONTINUOUS
 62
     7
100
AcDbLine
 10
248.3962499931
 20
211.58880414994
 30
0.0
 11
262.8962499931
 21
211.58880414994
 31
0.0
  0
LINE
  5
2A6
330
1F
100
AcDbEntity
  8
0
  6
CONTINUOUS
 62
     7
100
AcDbLine
 10
259.5962499931
 20
138.58880414994
 30
0.0
 11
262.8962499931
 21
138.58880414994
 31
0.0
  0
LINE
  5
2A7
330
1F
100
AcDbEntity
  8
0
  6
CONTINUOUS
 62
     7
100
AcDbLine
 10
259.4962499931
 20
190.78880414994
 30
0.0
 11
259.7962499931
 21
189.28880414994
 31
0.0
  0
LINE
  5
2A8
330
1F
100
AcDbEntity
  8
0
  6
CONTINUOUS
 62
     7
100
AcDbLine
 10
259.7962499931
 20
189.28880414994
 30
0.0
 11
259.4962499931
 21
187.78880414994
 31
0.0
  0
LINE
  5
2A9
330
1F
100
AcDbEntity
  8
0
  6
DOTTED
 62
     7
100
AcDbLine
 10
259.8962499931
 20
193.08878889114
 30
0.0
 11
260.8962499931
 21
193.08878889114
 31
0.0
  0
LINE
  5
2AA
330
1F
100
AcDbEntity
  8
0
  6
DOTTED
 62
     7
100
AcDbLine
 10
259.8962499931
 20
158.08880414994
 30
0.0
 11
260.8962499931
 21
158.08880414994
 31
0.0
  0
LINE
  5
2AB
330
1F
100
AcDbEntity
  8
0
  6
DOTTED
 62
     7
100
AcDbLine
 10
266.1962530449
 20
163.88880720174
 30
0.0
 11
266.1962530449
 21
187.28880109814
 31
0.0
  0
LINE
  5
2AC
330
1F
100
AcDbEntity
  8
0
  6
DOTTED
 62
     7
100
AcDbLine
 10
267.1962530449
 20
162.88880720174
 30
0.0
 11
267.1962530449
 21
188.28880109814
 31
0.0
  0
LINE
  5
2AD
330
1F
100
AcDbEntity
  8
0
  6
DOTTED
 62
     7
100
AcDbLine
 10
260.6962683037
 20
163.08878889114
 30
0.0
 11
265.3962499931
 21
163.08878889114
 31
0.0
  0
LINE
  5
2AE
330
1F
100
AcDbEntity
  8
0
  6
DOTTED
 62
     7
100
AcDbLine
 10
261.6962683037
 20
162.08878889114
 30
0.0
 11
266.3962499931
 21
162.08878889114
 31
0.0
  0
LINE
  5
2AF
330
1F
100
AcDbEntity
  8
0
  6
DOTTED
 62
     7
100
AcDbLine
 10
260.8962499931
 20
158.08880414994
 30
0.0
 11
260.8962499931
 21
161.28880109814
 31
0.0
  0
LINE
  5
2B0
330
1F
100
AcDbEntity
  8
0
  6
DOTTED
 62
     7
100
AcDbLine
 10
260.6962683037
 20
188.08878889114
 30
0.0
 11
265.3962499931
 21
188.08878889114
 31
0.0
  0
LINE
  5
2B1
330
1F
100
AcDbEntity
  8
0
  6
DOTTED
 62
     7
100
AcDbLine
 10
261.6962683037
 20
189.08878889114
 30
0.0
 11
266.3962499931
 21
189.08878889114
 31
0.0
  0
LINE
  5
2B2
330
1F
100
AcDbEntity
  8
0
  6
DOTTED
 62
     7
100
AcDbLine
 10
260.8962499931
 20
189.88880720174
 30
0.0
 11
260.8962499931
 21
193.08880414994
 31
0.0
  0
LINE
  5
2B3
330
1F
100
AcDbEntity
  8
0
  6
CONTINUOUS
 62
     7
100
AcDbLine
 10
232.8962499931
 20
192.58880414994
 30
0.0
 11
234.8962499931
 21
192.58880414994
 31
0.0
  0
LINE
  5
2B4
330
1F
100
AcDbEntity
  8
0
  6
CONTINUOUS
 62
     7
100
AcDbLine
 10
232.8962499931
 20
189.58880414994
 30
0.0
 11
234.8962499931
 21
189.58880414994
 31
0.0
  0
LINE
  5
2B5
330
1F
100
AcDbEntity
  8
0
  6
CONTINUOUS
 62
     7
100
AcDbLine
 10
232.8962499931
 20
161.58880414994
 30
0.0
 11
234.8962499931
 21
161.58880414994
 31
0.0
  0
LINE
  5
2B6
330
1F
100
AcDbEntity
  8
0
  6
CONTINUOUS
 62
     7
100
AcDbLine
 10
232.8962499931
 20
158.58880414994
 30
0.0
 11
234.8962499931
 21
158.58880414994
 31
0.0
  0
LINE
  5
2B7
330
1F
100
AcDbEntity
  8
0
  6
CONTINUOUS
 62
     7
100
AcDbLine
 10
232.8962499931
 20
192.58880414994
 30
0.0
 11
232.8962499931
 21
158.58880414994
 31
0.0
  0
LINE
  5
2B8
330
1F
100
AcDbEntity
  8
1
  6
DOT_CENTER
 62
     7
100
AcDbLine
 10
257.98610776574
 20
175.58878889114
 30
0.0
 11
268.98610776574
 21
175.58878889114
 31
0.0
  0
LINE
  5
2B9
330
1F
100
AcDbEntity
  8
1
  6
DOTTED
 62
     7
100
AcDbLine
 10
90.9246760044426
 20
193.08878889114
 30
0.0
 11
98.4367123728933
 21
193.08878889114
 31
0.0
  0
LINE
  5
2BA
330
1F
100
AcDbEntity
  8
1
  6
DOTTED
 62
     7
100
AcDbLine
 10
89.9558224962368
 20
188.08878889114
 30
0.0
 11
98.4367123728933
 21
188.08878889114
 31
0.0
  0
LINE
  5
2BB
330
1F
100
AcDbEntity
  8
1
  6
DOTTED
 62
     7
100
AcDbLine
 10
88.0797215780605
 20
163.08878889114
 30
0.0
 11
98.4367123728933
 21
163.08878889114
 31
0.0
  0
LINE
  5
2BC
330
1F
100
AcDbEntity
  8
1
  6
DOTTED
 62
     7
100
AcDbLine
 10
89.5460991941314
 20
158.08880414994
 30
0.0
 11
98.4367123728933
 21
158.08880414994
 31
0.0
  0
LINE
  5
2BD
330
1F
100
AcDbEntity
  8
1
  6
DOTTED
 62
     7
100
AcDbLine
 10
131.455108946857
 20
158.08880414994
 30
0.0
 11
127.436712372893
 21
158.08880414994
 31
0.0
  0
LINE
  5
2BE
330
1F
100
AcDbEntity
  8
1
  6
DOTTED
 62
     7
100
AcDbLine
 10
129.988731330786
 20
163.08878889114
 30
0.0
 11
127.436712372893
 21
163.08878889114
 31
0.0
  0
LINE
  5
2BF
330
1F
100
AcDbEntity
  8
1
  6
DOTTED
 62
     7
100
AcDbLine
 10
131.864832248962
 20
188.08878889114
 30
0.0
 11
127.436712372893
 21
188.08878889114
 31
0.0
  0
LINE
  5
2C0
330
1F
100
AcDbEntity
  8
1
  6
DOTTED
 62
     7
100
AcDbLine
 10
132.833685757168
 20
193.08878889114
 30
0.0
 11
127.436712372893
 21
193.08878889114
 31
0.0
  0
LINE
  5
2C1
330
1F
100
AcDbEntity
  8
1
  6
CONTINUOUS
 62
     7
100
AcDbLine
 10
106.321934051014
 20
149.757215809034
 30
0.0
 11
106.354934051014
 21
149.974657669499
 31
0.0
  0
LINE
  5
2C2
330
1F
100
AcDbEntity
  8
1
  6
CONTINUOUS
 62
     7
100
AcDbLine
 10
106.354934051014
 20
149.974657669499
 30
0.0
 11
106.475934051014
 21
150.17930883229
 31
0.0
  0
LINE
  5
2C3
330
1F
100
AcDbEntity
  8
1
  6
CONTINUOUS
 62
     7
100
AcDbLine
 10
106.475934051014
 20
150.17930883229
 30
0.0
 11
106.662934051013
 21
150.29442511136
 31
0.0
  0
LINE
  5
2C4
330
1F
100
AcDbEntity
  8
1
  6
CONTINUOUS
 62
     7
100
AcDbLine
 10
106.662934051013
 20
150.29442511136
 30
0.0
 11
106.937934051014
 21
150.345587902058
 31
0.0
  0
LINE
  5
2C5
330
1F
100
AcDbEntity
  8
1
  6
CONTINUOUS
 62
     7
100
AcDbLine
 10
106.937934051014
 20
150.345587902058
 30
0.0
 11
107.223934051014
 21
150.29442511136
 31
0.0
  0
LINE
  5
2C6
330
1F
100
AcDbEntity
  8
1
  6
CONTINUOUS
 62
     7
100
AcDbLine
 10
107.223934051014
 20
150.29442511136
 30
0.0
 11
107.443934051014
 21
150.153727436941
 31
0.0
  0
LINE
  5
2C7
330
1F
100
AcDbEntity
  8
1
  6
CONTINUOUS
 62
     7
100
AcDbLine
 10
107.443934051014
 20
150.153727436941
 30
0.0
 11
107.542934051014
 21
149.961866971825
 31
0.0
  0
LINE
  5
2C8
330
1F
100
AcDbEntity
  8
1
  6
CONTINUOUS
 62
     7
100
AcDbLine
 10
107.542934051014
 20
149.961866971825
 30
0.0
 11
107.586934051014
 21
149.74442511136
 31
0.0
  0
LINE
  5
2C9
330
1F
100
AcDbEntity
  8
1
  6
CONTINUOUS
 62
     7
100
AcDbLine
 10
107.586934051014
 20
149.74442511136
 30
0.0
 11
107.344934051014
 21
149.74442511136
 31
0.0
  0
LINE
  5
2CA
330
1F
100
AcDbEntity
  8
1
  6
CONTINUOUS
 62
     7
100
AcDbLine
 10
107.344934051014
 20
149.74442511136
 30
0.0
 11
107.322934051014
 21
149.872332088104
 31
0.0
  0
LINE
  5
2CB
330
1F
100
AcDbEntity
  8
1
  6
CONTINUOUS
 62
     7
100
AcDbLine
 10
107.322934051014
 20
149.872332088104
 30
0.0
 11
107.256934051014
 21
149.987448367174
 31
0.0
  0
LINE
  5
2CC
330
1F
100
AcDbEntity
  8
1
  6
CONTINUOUS
 62
     7
100
AcDbLine
 10
107.256934051014
 20
149.987448367174
 30
0.0
 11
107.124934051014
 21
150.06419255322
 31
0.0
  0
LINE
  5
2CD
330
1F
100
AcDbEntity
  8
1
  6
CONTINUOUS
 62
     7
100
AcDbLine
 10
107.124934051014
 20
150.06419255322
 30
0.0
 11
106.959934051014
 21
150.102564646244
 31
0.0
  0
LINE
  5
2CE
330
1F
100
AcDbEntity
  8
1
  6
CONTINUOUS
 62
     7
100
AcDbLine
 10
106.959934051014
 20
150.102564646244
 30
0.0
 11
106.761934051014
 21
150.076983250895
 31
0.0
  0
LINE
  5
2CF
330
1F
100
AcDbEntity
  8
1
  6
CONTINUOUS
 62
     7
100
AcDbLine
 10
106.761934051014
 20
150.076983250895
 30
0.0
 11
106.640934051014
 21
150.000239064848
 31
0.0
  0
LINE
  5
2D0
330
1F
100
AcDbEntity
  8
1
  6
CONTINUOUS
 62
     7
100
AcDbLine
 10
106.640934051014
 20
150.000239064848
 30
0.0
 11
106.585934051014
 21
149.897913483453
 31
0.0
  0
LINE
  5
2D1
330
1F
100
AcDbEntity
  8
1
  6
CONTINUOUS
 62
     7
100
AcDbLine
 10
106.585934051014
 20
149.897913483453
 30
0.0
 11
106.574934051014
 21
149.795587902058
 31
0.0
  0
LINE
  5
2D2
330
1F
100
AcDbEntity
  8
1
  6
CONTINUOUS
 62
     7
100
AcDbLine
 10
106.574934051014
 20
149.795587902058
 30
0.0
 11
106.574934051014
 21
149.706053018337
 31
0.0
  0
LINE
  5
2D3
330
1F
100
AcDbEntity
  8
1
  6
CONTINUOUS
 62
     7
100
AcDbLine
 10
106.574934051014
 20
149.706053018337
 30
0.0
 11
106.607934051014
 21
149.642099529965
 31
0.0
  0
LINE
  5
2D4
330
1F
100
AcDbEntity
  8
1
  6
CONTINUOUS
 62
     7
100
AcDbLine
 10
106.607934051014
 20
149.642099529965
 30
0.0
 11
106.684934051014
 21
149.578146041593
 31
0.0
  0
LINE
  5
2D5
330
1F
100
AcDbEntity
  8
1
  6
CONTINUOUS
 62
     7
100
AcDbLine
 10
106.684934051014
 20
149.578146041593
 30
0.0
 11
106.805934051013
 21
149.51419255322
 31
0.0
  0
LINE
  5
2D6
330
1F
100
AcDbEntity
  8
1
  6
CONTINUOUS
 62
     7
100
AcDbLine
 10
106.805934051013
 20
149.51419255322
 30
0.0
 11
107.058934051013
 21
149.373494878802
 31
0.0
  0
LINE
  5
2D7
330
1F
100
AcDbEntity
  8
1
  6
CONTINUOUS
 62
     7
100
AcDbLine
 10
107.058934051013
 20
149.373494878802
 30
0.0
 11
107.366934051014
 21
149.220006506709
 31
0.0
  0
LINE
  5
2D8
330
1F
100
AcDbEntity
  8
1
  6
CONTINUOUS
 62
     7
100
AcDbLine
 10
107.366934051014
 20
149.220006506709
 30
0.0
 11
107.443934051014
 21
149.168843716011
 31
0.0
  0
LINE
  5
2D9
330
1F
100
AcDbEntity
  8
1
  6
CONTINUOUS
 62
     7
100
AcDbLine
 10
107.443934051014
 20
149.168843716011
 30
0.0
 11
107.520934051014
 21
149.104890227639
 31
0.0
  0
LINE
  5
2DA
330
1F
100
AcDbEntity
  8
1
  6
CONTINUOUS
 62
     7
100
AcDbLine
 10
107.520934051014
 20
149.104890227639
 30
0.0
 11
107.608934051014
 21
148.951401855546
 31
0.0
  0
LINE
  5
2DB
330
1F
100
AcDbEntity
  8
1
  6
CONTINUOUS
 62
     7
100
AcDbLine
 10
107.608934051014
 20
148.951401855546
 30
0.0
 11
107.641934051013
 21
148.772332088104
 31
0.0
  0
LINE
  5
2DC
330
1F
100
AcDbEntity
  8
1
  6
CONTINUOUS
 62
     7
100
AcDbLine
 10
107.641934051013
 20
148.772332088104
 30
0.0
 11
107.597934051014
 21
148.542099529965
 31
0.0
  0
LINE
  5
2DD
330
1F
100
AcDbEntity
  8
1
  6
CONTINUOUS
 62
     7
100
AcDbLine
 10
107.597934051014
 20
148.542099529965
 30
0.0
 11
107.498934051014
 21
148.350239064848
 31
0.0
  0
LINE
  5
2DE
330
1F
100
AcDbEntity
  8
1
  6
CONTINUOUS
 62
     7
100
AcDbLine
 10
107.498934051014
 20
148.350239064848
 30
0.0
 11
107.278934051013
 21
148.196750692755
 31
0.0
  0
LINE
  5
2DF
330
1F
100
AcDbEntity
  8
1
  6
CONTINUOUS
 62
     7
100
AcDbLine
 10
107.278934051013
 20
148.196750692755
 30
0.0
 11
106.970934051014
 21
148.158378599732
 31
0.0
  0
LINE
  5
2E0
330
1F
100
AcDbEntity
  8
1
  6
CONTINUOUS
 62
     7
100
AcDbLine
 10
106.970934051014
 20
148.158378599732
 30
0.0
 11
106.651934051014
 21
148.20954139043
 31
0.0
  0
LINE
  5
2E1
330
1F
100
AcDbEntity
  8
1
  6
CONTINUOUS
 62
     7
100
AcDbLine
 10
106.651934051014
 20
148.20954139043
 30
0.0
 11
106.420934051014
 21
148.388611157872
 31
0.0
  0
LINE
  5
2E2
330
1F
100
AcDbEntity
  8
1
  6
CONTINUOUS
 62
     7
100
AcDbLine
 10
106.420934051014
 20
148.388611157872
 30
0.0
 11
106.310934051014
 21
148.580471622988
 31
0.0
  0
LINE
  5
2E3
330
1F
100
AcDbEntity
  8
1
  6
CONTINUOUS
 62
     7
100
AcDbLine
 10
106.310934051014
 20
148.580471622988
 30
0.0
 11
106.277934051014
 21
148.861866971825
 31
0.0
  0
LINE
  5
2E4
330
1F
100
AcDbEntity
  8
1
  6
CONTINUOUS
 62
     7
100
AcDbLine
 10
106.277934051014
 20
148.861866971825
 30
0.0
 11
106.530934051014
 21
148.861866971825
 31
0.0
  0
LINE
  5
2E5
330
1F
100
AcDbEntity
  8
1
  6
CONTINUOUS
 62
     7
100
AcDbLine
 10
106.530934051014
 20
148.861866971825
 30
0.0
 11
106.541934051014
 21
148.670006506709
 31
0.0
  0
LINE
  5
2E6
330
1F
100
AcDbEntity
  8
1
  6
CONTINUOUS
 62
     7
100
AcDbLine
 10
106.541934051014
 20
148.670006506709
 30
0.0
 11
106.607934051014
 21
148.542099529965
 31
0.0
  0
LINE
  5
2E7
330
1F
100
AcDbEntity
  8
1
  6
CONTINUOUS
 62
     7
100
AcDbLine
 10
106.607934051014
 20
148.542099529965
 30
0.0
 11
106.761934051014
 21
148.426983250895
 31
0.0
  0
LINE
  5
2E8
330
1F
100
AcDbEntity
  8
1
  6
CONTINUOUS
 62
     7
100
AcDbLine
 10
106.761934051014
 20
148.426983250895
 30
0.0
 11
106.981934051014
 21
148.401401855546
 31
0.0
  0
LINE
  5
2E9
330
1F
100
AcDbEntity
  8
1
  6
CONTINUOUS
 62
     7
100
AcDbLine
 10
106.981934051014
 20
148.401401855546
 30
0.0
 11
107.168934051013
 21
148.426983250895
 31
0.0
  0
LINE
  5
2EA
330
1F
100
AcDbEntity
  8
1
  6
CONTINUOUS
 62
     7
100
AcDbLine
 10
107.168934051013
 20
148.426983250895
 30
0.0
 11
107.311934051013
 21
148.52930883229
 31
0.0
  0
LINE
  5
2EB
330
1F
100
AcDbEntity
  8
1
  6
CONTINUOUS
 62
     7
100
AcDbLine
 10
107.311934051013
 20
148.52930883229
 30
0.0
 11
107.377934051014
 21
148.618843716011
 31
0.0
  0
LINE
  5
2EC
330
1F
100
AcDbEntity
  8
1
  6
CONTINUOUS
 62
     7
100
AcDbLine
 10
107.377934051014
 20
148.618843716011
 30
0.0
 11
107.399934051014
 21
148.721169297406
 31
0.0
  0
LINE
  5
2ED
330
1F
100
AcDbEntity
  8
1
  6
CONTINUOUS
 62
     7
100
AcDbLine
 10
107.399934051014
 20
148.721169297406
 30
0.0
 11
107.377934051014
 21
148.823494878802
 31
0.0
  0
LINE
  5
2EE
330
1F
100
AcDbEntity
  8
1
  6
CONTINUOUS
 62
     7
100
AcDbLine
 10
107.377934051014
 20
148.823494878802
 30
0.0
 11
107.333934051014
 21
148.913029762523
 31
0.0
  0
LINE
  5
2EF
330
1F
100
AcDbEntity
  8
1
  6
CONTINUOUS
 62
     7
100
AcDbLine
 10
107.333934051014
 20
148.913029762523
 30
0.0
 11
107.256934051014
 21
148.976983250895
 31
0.0
  0
LINE
  5
2F0
330
1F
100
AcDbEntity
  8
1
  6
CONTINUOUS
 62
     7
100
AcDbLine
 10
107.256934051014
 20
148.976983250895
 30
0.0
 11
107.157934051014
 21
149.040936739267
 31
0.0
  0
LINE
  5
2F1
330
1F
100
AcDbEntity
  8
1
  6
CONTINUOUS
 62
     7
100
AcDbLine
 10
107.157934051014
 20
149.040936739267
 30
0.0
 11
107.025934051013
 21
149.104890227639
 31
0.0
  0
LINE
  5
2F2
330
1F
100
AcDbEntity
  8
1
  6
CONTINUOUS
 62
     7
100
AcDbLine
 10
107.025934051013
 20
149.104890227639
 30
0.0
 11
106.882934051014
 21
149.19442511136
 31
0.0
  0
LINE
  5
2F3
330
1F
100
AcDbEntity
  8
1
  6
CONTINUOUS
 62
     7
100
AcDbLine
 10
106.882934051014
 20
149.19442511136
 30
0.0
 11
106.706934051014
 21
149.271169297406
 31
0.0
  0
LINE
  5
2F4
330
1F
100
AcDbEntity
  8
1
  6
CONTINUOUS
 62
     7
100
AcDbLine
 10
106.706934051014
 20
149.271169297406
 30
0.0
 11
106.574934051014
 21
149.347913483453
 31
0.0
  0
LINE
  5
2F5
330
1F
100
AcDbEntity
  8
1
  6
CONTINUOUS
 62
     7
100
AcDbLine
 10
106.574934051014
 20
149.347913483453
 30
0.0
 11
106.486934051014
 21
149.386285576476
 31
0.0
  0
LINE
  5
2F6
330
1F
100
AcDbEntity
  8
1
  6
CONTINUOUS
 62
     7
100
AcDbLine
 10
106.486934051014
 20
149.386285576476
 30
0.0
 11
106.420934051014
 21
149.463029762523
 31
0.0
  0
LINE
  5
2F7
330
1F
100
AcDbEntity
  8
1
  6
CONTINUOUS
 62
     7
100
AcDbLine
 10
106.420934051014
 20
149.463029762523
 30
0.0
 11
106.343934051014
 21
149.590936739267
 31
0.0
  0
LINE
  5
2F8
330
1F
100
AcDbEntity
  8
1
  6
CONTINUOUS
 62
     7
100
AcDbLine
 10
106.343934051014
 20
149.590936739267
 30
0.0
 11
106.321934051014
 21
149.757215809034
 31
0.0
  0
LINE
  5
2F9
330
1F
100
AcDbEntity
  8
1
  6
CONTINUOUS
 62
     7
100
AcDbLine
 10
108.004934051014
 20
150.320006506709
 30
0.0
 11
109.192934051013
 21
150.320006506709
 31
0.0
  0
LINE
  5
2FA
330
1F
100
AcDbEntity
  8
1
  6
CONTINUOUS
 62
     7
100
AcDbLine
 10
109.192934051013
 20
150.320006506709
 30
0.0
 11
109.192934051013
 21
150.06419255322
 31
0.0
  0
LINE
  5
2FB
330
1F
100
AcDbEntity
  8
1
  6
CONTINUOUS
 62
     7
100
AcDbLine
 10
109.192934051013
 20
150.06419255322
 30
0.0
 11
108.257934051014
 21
150.06419255322
 31
0.0
  0
LINE
  5
2FC
330
1F
100
AcDbEntity
  8
1
  6
CONTINUOUS
 62
     7
100
AcDbLine
 10
108.257934051014
 20
150.06419255322
 30
0.0
 11
108.257934051014
 21
149.4246576695
 31
0.0
  0
LINE
  5
2FD
330
1F
100
AcDbEntity
  8
1
  6
CONTINUOUS
 62
     7
100
AcDbLine
 10
108.257934051014
 20
149.4246576695
 30
0.0
 11
109.126934051014
 21
149.4246576695
 31
0.0
  0
LINE
  5
2FE
330
1F
100
AcDbEntity
  8
1
  6
CONTINUOUS
 62
     7
100
AcDbLine
 10
109.126934051014
 20
149.4246576695
 30
0.0
 11
109.126934051014
 21
149.168843716011
 31
0.0
  0
LINE
  5
2FF
330
1F
100
AcDbEntity
  8
1
  6
CONTINUOUS
 62
     7
100
AcDbLine
 10
109.126934051014
 20
149.168843716011
 30
0.0
 11
108.257934051014
 21
149.168843716011
 31
0.0
  0
LINE
  5
300
330
1F
100
AcDbEntity
  8
1
  6
CONTINUOUS
 62
     7
100
AcDbLine
 10
108.257934051014
 20
149.168843716011
 30
0.0
 11
108.257934051014
 21
148.426983250895
 31
0.0
  0
LINE
  5
301
330
1F
100
AcDbEntity
  8
1
  6
CONTINUOUS
 62
     7
100
AcDbLine
 10
108.257934051014
 20
148.426983250895
 30
0.0
 11
109.236934051014
 21
148.426983250895
 31
0.0
  0
LINE
  5
302
330
1F
100
AcDbEntity
  8
1
  6
CONTINUOUS
 62
     7
100
AcDbLine
 10
109.236934051014
 20
148.426983250895
 30
0.0
 11
109.236934051014
 21
148.171169297406
 31
0.0
  0
LINE
  5
303
330
1F
100
AcDbEntity
  8
1
  6
CONTINUOUS
 62
     7
100
AcDbLine
 10
109.236934051014
 20
148.171169297406
 30
0.0
 11
108.004934051014
 21
148.171169297406
 31
0.0
  0
LINE
  5
304
330
1F
100
AcDbEntity
  8
1
  6
CONTINUOUS
 62
     7
100
AcDbLine
 10
108.004934051014
 20
148.171169297406
 30
0.0
 11
108.004934051014
 21
150.320006506709
 31
0.0
  0
LINE
  5
305
330
1F
100
AcDbEntity
  8
1
  6
CONTINUOUS
 62
     7
100
AcDbLine
 10
109.511934051014
 20
150.320006506709
 30
0.0
 11
110.985934051014
 21
150.320006506709
 31
0.0
  0
LINE
  5
306
330
1F
100
AcDbEntity
  8
1
  6
CONTINUOUS
 62
     7
100
AcDbLine
 10
110.985934051014
 20
150.320006506709
 30
0.0
 11
110.985934051014
 21
150.06419255322
 31
0.0
  0
LINE
  5
307
330
1F
100
AcDbEntity
  8
1
  6
CONTINUOUS
 62
     7
100
AcDbLine
 10
110.985934051014
 20
150.06419255322
 30
0.0
 11
110.369934051014
 21
150.06419255322
 31
0.0
  0
LINE
  5
308
330
1F
100
AcDbEntity
  8
1
  6
CONTINUOUS
 62
     7
100
AcDbLine
 10
110.369934051014
 20
150.06419255322
 30
0.0
 11
110.369934051014
 21
148.183959995081
 31
0.0
  0
LINE
  5
309
330
1F
100
AcDbEntity
  8
1
  6
CONTINUOUS
 62
     7
100
AcDbLine
 10
110.369934051014
 20
148.183959995081
 30
0.0
 11
110.116934051014
 21
148.183959995081
 31
0.0
  0
LINE
  5
30A
330
1F
100
AcDbEntity
  8
1
  6
CONTINUOUS
 62
     7
100
AcDbLine
 10
110.116934051014
 20
148.183959995081
 30
0.0
 11
110.116934051014
 21
150.06419255322
 31
0.0
  0
LINE
  5
30B
330
1F
100
AcDbEntity
  8
1
  6
CONTINUOUS
 62
     7
100
AcDbLine
 10
110.116934051014
 20
150.06419255322
 30
0.0
 11
109.511934051014
 21
150.06419255322
 31
0.0
  0
LINE
  5
30C
330
1F
100
AcDbEntity
  8
1
  6
CONTINUOUS
 62
     7
100
AcDbLine
 10
109.511934051014
 20
150.06419255322
 30
0.0
 11
109.511934051014
 21
150.320006506709
 31
0.0
  0
LINE
  5
30D
330
1F
100
AcDbEntity
  8
1
  6
CONTINUOUS
 62
     7
100
AcDbLine
 10
106.202595137186
 20
161.420964696905
 30
0.0
 11
106.733595137186
 21
161.420964696905
 31
0.0
  0
LINE
  5
30E
330
1F
100
AcDbEntity
  8
1
  6
CONTINUOUS
 62
     7
100
AcDbLine
 10
106.733595137186
 20
161.420964696905
 30
0.0
 11
106.976595137186
 21
161.36863911551
 31
0.0
  0
LINE
  5
30F
330
1F
100
AcDbEntity
  8
1
  6
CONTINUOUS
 62
     7
100
AcDbLine
 10
106.976595137186
 20
161.36863911551
 30
0.0
 11
107.183595137186
 21
161.211662371324
 31
0.0
  0
LINE
  5
310
330
1F
100
AcDbEntity
  8
1
  6
CONTINUOUS
 62
     7
100
AcDbLine
 10
107.183595137186
 20
161.211662371324
 30
0.0
 11
107.318595137186
 21
160.91863911551
 31
0.0
  0
LINE
  5
311
330
1F
100
AcDbEntity
  8
1
  6
CONTINUOUS
 62
     7
100
AcDbLine
 10
107.318595137186
 20
160.91863911551
 30
0.0
 11
107.372595137186
 21
160.531429813184
 31
0.0
  0
LINE
  5
312
330
1F
100
AcDbEntity
  8
1
  6
CONTINUOUS
 62
     7
100
AcDbLine
 10
107.372595137186
 20
160.531429813184
 30
0.0
 11
107.318595137186
 21
160.144220510859
 31
0.0
  0
LINE
  5
313
330
1F
100
AcDbEntity
  8
1
  6
CONTINUOUS
 62
     7
100
AcDbLine
 10
107.318595137186
 20
160.144220510859
 30
0.0
 11
107.174595137186
 21
159.872127487603
 31
0.0
  0
LINE
  5
314
330
1F
100
AcDbEntity
  8
1
  6
CONTINUOUS
 62
     7
100
AcDbLine
 10
107.174595137186
 20
159.872127487603
 30
0.0
 11
106.976595137186
 21
159.715150743417
 31
0.0
  0
LINE
  5
315
330
1F
100
AcDbEntity
  8
1
  6
CONTINUOUS
 62
     7
100
AcDbLine
 10
106.976595137186
 20
159.715150743417
 30
0.0
 11
106.733595137186
 21
159.662825162022
 31
0.0
  0
LINE
  5
316
330
1F
100
AcDbEntity
  8
1
  6
CONTINUOUS
 62
     7
100
AcDbLine
 10
106.733595137186
 20
159.662825162022
 30
0.0
 11
106.202595137186
 21
159.662825162022
 31
0.0
  0
LINE
  5
317
330
1F
100
AcDbEntity
  8
1
  6
CONTINUOUS
 62
     7
100
AcDbLine
 10
106.202595137186
 20
159.662825162022
 30
0.0
 11
106.202595137186
 21
161.420964696905
 31
0.0
  0
LINE
  5
318
330
1F
100
AcDbEntity
  8
1
  6
CONTINUOUS
 62
     7
100
AcDbLine
 10
106.409595137186
 20
161.211662371324
 30
0.0
 11
106.409595137186
 21
159.872127487603
 31
0.0
  0
LINE
  5
319
330
1F
100
AcDbEntity
  8
1
  6
CONTINUOUS
 62
     7
100
AcDbLine
 10
106.409595137186
 20
159.872127487603
 30
0.0
 11
106.724595137186
 21
159.872127487603
 31
0.0
  0
LINE
  5
31A
330
1F
100
AcDbEntity
  8
1
  6
CONTINUOUS
 62
     7
100
AcDbLine
 10
106.724595137186
 20
159.872127487603
 30
0.0
 11
106.868595137186
 21
159.90352283644
 31
0.0
  0
LINE
  5
31B
330
1F
100
AcDbEntity
  8
1
  6
CONTINUOUS
 62
     7
100
AcDbLine
 10
106.868595137186
 20
159.90352283644
 30
0.0
 11
106.994595137186
 21
159.997708882952
 31
0.0
  0
LINE
  5
31C
330
1F
100
AcDbEntity
  8
1
  6
CONTINUOUS
 62
     7
100
AcDbLine
 10
106.994595137186
 20
159.997708882952
 30
0.0
 11
107.120595137186
 21
160.217476324812
 31
0.0
  0
LINE
  5
31D
330
1F
100
AcDbEntity
  8
1
  6
CONTINUOUS
 62
     7
100
AcDbLine
 10
107.120595137186
 20
160.217476324812
 30
0.0
 11
107.165595137186
 21
160.531429813184
 31
0.0
  0
LINE
  5
31E
330
1F
100
AcDbEntity
  8
1
  6
CONTINUOUS
 62
     7
100
AcDbLine
 10
107.165595137186
 20
160.531429813184
 30
0.0
 11
107.120595137186
 21
160.855848417836
 31
0.0
  0
LINE
  5
31F
330
1F
100
AcDbEntity
  8
1
  6
CONTINUOUS
 62
     7
100
AcDbLine
 10
107.120595137186
 20
160.855848417836
 30
0.0
 11
107.003595137186
 21
161.086080975975
 31
0.0
  0
LINE
  5
320
330
1F
100
AcDbEntity
  8
1
  6
CONTINUOUS
 62
     7
100
AcDbLine
 10
107.003595137186
 20
161.086080975975
 30
0.0
 11
106.868595137186
 21
161.180267022487
 31
0.0
  0
LINE
  5
321
330
1F
100
AcDbEntity
  8
1
  6
CONTINUOUS
 62
     7
100
AcDbLine
 10
106.868595137186
 20
161.180267022487
 30
0.0
 11
106.724595137186
 21
161.211662371324
 31
0.0
  0
LINE
  5
322
330
1F
100
AcDbEntity
  8
1
  6
CONTINUOUS
 62
     7
100
AcDbLine
 10
106.724595137186
 20
161.211662371324
 30
0.0
 11
106.409595137186
 21
161.211662371324
 31
0.0
  0
LINE
  5
323
330
1F
100
AcDbEntity
  8
1
  6
CONTINUOUS
 62
     7
100
AcDbLine
 10
107.633595137186
 20
161.420964696905
 30
0.0
 11
108.029595137186
 21
161.420964696905
 31
0.0
  0
LINE
  5
324
330
1F
100
AcDbEntity
  8
1
  6
CONTINUOUS
 62
     7
100
AcDbLine
 10
108.029595137186
 20
161.420964696905
 30
0.0
 11
108.029595137186
 21
161.190732138766
 31
0.0
  0
LINE
  5
325
330
1F
100
AcDbEntity
  8
1
  6
CONTINUOUS
 62
     7
100
AcDbLine
 10
108.029595137186
 20
161.190732138766
 30
0.0
 11
107.939595137186
 21
161.190732138766
 31
0.0
  0
LINE
  5
326
330
1F
100
AcDbEntity
  8
1
  6
CONTINUOUS
 62
     7
100
AcDbLine
 10
107.939595137186
 20
161.190732138766
 30
0.0
 11
107.939595137186
 21
159.90352283644
 31
0.0
  0
LINE
  5
327
330
1F
100
AcDbEntity
  8
1
  6
CONTINUOUS
 62
     7
100
AcDbLine
 10
107.939595137186
 20
159.90352283644
 30
0.0
 11
108.029595137186
 21
159.90352283644
 31
0.0
  0
LINE
  5
328
330
1F
100
AcDbEntity
  8
1
  6
CONTINUOUS
 62
     7
100
AcDbLine
 10
108.029595137186
 20
159.90352283644
 30
0.0
 11
108.029595137186
 21
159.673290278301
 31
0.0
  0
LINE
  5
329
330
1F
100
AcDbEntity
  8
1
  6
CONTINUOUS
 62
     7
100
AcDbLine
 10
108.029595137186
 20
159.673290278301
 30
0.0
 11
107.633595137186
 21
159.673290278301
 31
0.0
  0
LINE
  5
32A
330
1F
100
AcDbEntity
  8
1
  6
CONTINUOUS
 62
     7
100
AcDbLine
 10
107.633595137186
 20
159.673290278301
 30
0.0
 11
107.633595137186
 21
159.90352283644
 31
0.0
  0
LINE
  5
32B
330
1F
100
AcDbEntity
  8
1
  6
CONTINUOUS
 62
     7
100
AcDbLine
 10
107.633595137186
 20
159.90352283644
 30
0.0
 11
107.732595137186
 21
159.90352283644
 31
0.0
  0
LINE
  5
32C
330
1F
100
AcDbEntity
  8
1
  6
CONTINUOUS
 62
     7
100
AcDbLine
 10
107.732595137186
 20
159.90352283644
 30
0.0
 11
107.732595137186
 21
161.190732138766
 31
0.0
  0
LINE
  5
32D
330
1F
100
AcDbEntity
  8
1
  6
CONTINUOUS
 62
     7
100
AcDbLine
 10
107.732595137186
 20
161.190732138766
 30
0.0
 11
107.633595137186
 21
161.190732138766
 31
0.0
  0
LINE
  5
32E
330
1F
100
AcDbEntity
  8
1
  6
CONTINUOUS
 62
     7
100
AcDbLine
 10
107.633595137186
 20
161.190732138766
 30
0.0
 11
107.633595137186
 21
161.420964696905
 31
0.0
  0
LINE
  5
32F
330
1F
100
AcDbEntity
  8
1
  6
CONTINUOUS
 62
     7
100
AcDbLine
 10
108.326595137186
 20
160.960499580626
 30
0.0
 11
108.353595137186
 21
161.13840655737
 31
0.0
  0
LINE
  5
330
330
1F
100
AcDbEntity
  8
1
  6
CONTINUOUS
 62
     7
100
AcDbLine
 10
108.353595137186
 20
161.13840655737
 30
0.0
 11
108.452595137186
 21
161.305848417836
 31
0.0
  0
LINE
  5
331
330
1F
100
AcDbEntity
  8
1
  6
CONTINUOUS
 62
     7
100
AcDbLine
 10
108.452595137186
 20
161.305848417836
 30
0.0
 11
108.605595137186
 21
161.400034464347
 31
0.0
  0
LINE
  5
332
330
1F
100
AcDbEntity
  8
1
  6
CONTINUOUS
 62
     7
100
AcDbLine
 10
108.605595137186
 20
161.400034464347
 30
0.0
 11
108.830595137186
 21
161.441894929463
 31
0.0
  0
LINE
  5
333
330
1F
100
AcDbEntity
  8
1
  6
CONTINUOUS
 62
     7
100
AcDbLine
 10
108.830595137186
 20
161.441894929463
 30
0.0
 11
109.064595137186
 21
161.400034464347
 31
0.0
  0
LINE
  5
334
330
1F
100
AcDbEntity
  8
1
  6
CONTINUOUS
 62
     7
100
AcDbLine
 10
109.064595137186
 20
161.400034464347
 30
0.0
 11
109.244595137186
 21
161.284918185277
 31
0.0
  0
LINE
  5
335
330
1F
100
AcDbEntity
  8
1
  6
CONTINUOUS
 62
     7
100
AcDbLine
 10
109.244595137186
 20
161.284918185277
 30
0.0
 11
109.325595137186
 21
161.127941441091
 31
0.0
  0
LINE
  5
336
330
1F
100
AcDbEntity
  8
1
  6
CONTINUOUS
 62
     7
100
AcDbLine
 10
109.325595137186
 20
161.127941441091
 30
0.0
 11
109.361595137186
 21
160.950034464347
 31
0.0
  0
LINE
  5
337
330
1F
100
AcDbEntity
  8
1
  6
CONTINUOUS
 62
     7
100
AcDbLine
 10
109.361595137186
 20
160.950034464347
 30
0.0
 11
109.163595137186
 21
160.950034464347
 31
0.0
  0
LINE
  5
338
330
1F
100
AcDbEntity
  8
1
  6
CONTINUOUS
 62
     7
100
AcDbLine
 10
109.163595137186
 20
160.950034464347
 30
0.0
 11
109.145595137186
 21
161.054685627138
 31
0.0
  0
LINE
  5
339
330
1F
100
AcDbEntity
  8
1
  6
CONTINUOUS
 62
     7
100
AcDbLine
 10
109.145595137186
 20
161.054685627138
 30
0.0
 11
109.091595137186
 21
161.14887167365
 31
0.0
  0
LINE
  5
33A
330
1F
100
AcDbEntity
  8
1
  6
CONTINUOUS
 62
     7
100
AcDbLine
 10
109.091595137186
 20
161.14887167365
 30
0.0
 11
108.983595137186
 21
161.211662371324
 31
0.0
  0
LINE
  5
33B
330
1F
100
AcDbEntity
  8
1
  6
CONTINUOUS
 62
     7
100
AcDbLine
 10
108.983595137186
 20
161.211662371324
 30
0.0
 11
108.848595137186
 21
161.243057720161
 31
0.0
  0
LINE
  5
33C
330
1F
100
AcDbEntity
  8
1
  6
CONTINUOUS
 62
     7
100
AcDbLine
 10
108.848595137186
 20
161.243057720161
 30
0.0
 11
108.686595137186
 21
161.222127487603
 31
0.0
  0
LINE
  5
33D
330
1F
100
AcDbEntity
  8
1
  6
CONTINUOUS
 62
     7
100
AcDbLine
 10
108.686595137186
 20
161.222127487603
 30
0.0
 11
108.587595137186
 21
161.159336789929
 31
0.0
  0
LINE
  5
33E
330
1F
100
AcDbEntity
  8
1
  6
CONTINUOUS
 62
     7
100
AcDbLine
 10
108.587595137186
 20
161.159336789929
 30
0.0
 11
108.542595137186
 21
161.075615859696
 31
0.0
  0
LINE
  5
33F
330
1F
100
AcDbEntity
  8
1
  6
CONTINUOUS
 62
     7
100
AcDbLine
 10
108.542595137186
 20
161.075615859696
 30
0.0
 11
108.533595137186
 21
160.991894929464
 31
0.0
  0
LINE
  5
340
330
1F
100
AcDbEntity
  8
1
  6
CONTINUOUS
 62
     7
100
AcDbLine
 10
108.533595137186
 20
160.991894929464
 30
0.0
 11
108.533595137186
 21
160.91863911551
 31
0.0
  0
LINE
  5
341
330
1F
100
AcDbEntity
  8
1
  6
CONTINUOUS
 62
     7
100
AcDbLine
 10
108.533595137186
 20
160.91863911551
 30
0.0
 11
108.560595137186
 21
160.866313534115
 31
0.0
  0
LINE
  5
342
330
1F
100
AcDbEntity
  8
1
  6
CONTINUOUS
 62
     7
100
AcDbLine
 10
108.560595137186
 20
160.866313534115
 30
0.0
 11
108.623595137186
 21
160.813987952719
 31
0.0
  0
LINE
  5
343
330
1F
100
AcDbEntity
  8
1
  6
CONTINUOUS
 62
     7
100
AcDbLine
 10
108.623595137186
 20
160.813987952719
 30
0.0
 11
108.722595137186
 21
160.761662371324
 31
0.0
  0
LINE
  5
344
330
1F
100
AcDbEntity
  8
1
  6
CONTINUOUS
 62
     7
100
AcDbLine
 10
108.722595137186
 20
160.761662371324
 30
0.0
 11
108.929595137186
 21
160.646546092254
 31
0.0
  0
LINE
  5
345
330
1F
100
AcDbEntity
  8
1
  6
CONTINUOUS
 62
     7
100
AcDbLine
 10
108.929595137186
 20
160.646546092254
 30
0.0
 11
109.181595137186
 21
160.520964696905
 31
0.0
  0
LINE
  5
346
330
1F
100
AcDbEntity
  8
1
  6
CONTINUOUS
 62
     7
100
AcDbLine
 10
109.181595137186
 20
160.520964696905
 30
0.0
 11
109.244595137186
 21
160.479104231789
 31
0.0
  0
LINE
  5
347
330
1F
100
AcDbEntity
  8
1
  6
CONTINUOUS
 62
     7
100
AcDbLine
 10
109.244595137186
 20
160.479104231789
 30
0.0
 11
109.307595137186
 21
160.426778650394
 31
0.0
  0
LINE
  5
348
330
1F
100
AcDbEntity
  8
1
  6
CONTINUOUS
 62
     7
100
AcDbLine
 10
109.307595137186
 20
160.426778650394
 30
0.0
 11
109.379595137186
 21
160.301197255045
 31
0.0
  0
LINE
  5
349
330
1F
100
AcDbEntity
  8
1
  6
CONTINUOUS
 62
     7
100
AcDbLine
 10
109.379595137186
 20
160.301197255045
 30
0.0
 11
109.406595137186
 21
160.154685627138
 31
0.0
  0
LINE
  5
34A
330
1F
100
AcDbEntity
  8
1
  6
CONTINUOUS
 62
     7
100
AcDbLine
 10
109.406595137186
 20
160.154685627138
 30
0.0
 11
109.370595137186
 21
159.966313534115
 31
0.0
  0
LINE
  5
34B
330
1F
100
AcDbEntity
  8
1
  6
CONTINUOUS
 62
     7
100
AcDbLine
 10
109.370595137186
 20
159.966313534115
 30
0.0
 11
109.289595137186
 21
159.809336789929
 31
0.0
  0
LINE
  5
34C
330
1F
100
AcDbEntity
  8
1
  6
CONTINUOUS
 62
     7
100
AcDbLine
 10
109.289595137186
 20
159.809336789929
 30
0.0
 11
109.109595137186
 21
159.68375539458
 31
0.0
  0
LINE
  5
34D
330
1F
100
AcDbEntity
  8
1
  6
CONTINUOUS
 62
     7
100
AcDbLine
 10
109.109595137186
 20
159.68375539458
 30
0.0
 11
108.857595137186
 21
159.652360045743
 31
0.0
  0
LINE
  5
34E
330
1F
100
AcDbEntity
  8
1
  6
CONTINUOUS
 62
     7
100
AcDbLine
 10
108.857595137186
 20
159.652360045743
 30
0.0
 11
108.596595137186
 21
159.694220510859
 31
0.0
  0
LINE
  5
34F
330
1F
100
AcDbEntity
  8
1
  6
CONTINUOUS
 62
     7
100
AcDbLine
 10
108.596595137186
 20
159.694220510859
 30
0.0
 11
108.407595137186
 21
159.840732138766
 31
0.0
  0
LINE
  5
350
330
1F
100
AcDbEntity
  8
1
  6
CONTINUOUS
 62
     7
100
AcDbLine
 10
108.407595137186
 20
159.840732138766
 30
0.0
 11
108.317595137186
 21
159.997708882952
 31
0.0
  0
LINE
  5
351
330
1F
100
AcDbEntity
  8
1
  6
CONTINUOUS
 62
     7
100
AcDbLine
 10
108.317595137186
 20
159.997708882952
 30
0.0
 11
108.290595137186
 21
160.227941441091
 31
0.0
  0
LINE
  5
352
330
1F
100
AcDbEntity
  8
1
  6
CONTINUOUS
 62
     7
100
AcDbLine
 10
108.290595137186
 20
160.227941441091
 30
0.0
 11
108.497595137186
 21
160.227941441091
 31
0.0
  0
LINE
  5
353
330
1F
100
AcDbEntity
  8
1
  6
CONTINUOUS
 62
     7
100
AcDbLine
 10
108.497595137186
 20
160.227941441091
 30
0.0
 11
108.506595137186
 21
160.070964696905
 31
0.0
  0
LINE
  5
354
330
1F
100
AcDbEntity
  8
1
  6
CONTINUOUS
 62
     7
100
AcDbLine
 10
108.506595137186
 20
160.070964696905
 30
0.0
 11
108.560595137186
 21
159.966313534115
 31
0.0
  0
LINE
  5
355
330
1F
100
AcDbEntity
  8
1
  6
CONTINUOUS
 62
     7
100
AcDbLine
 10
108.560595137186
 20
159.966313534115
 30
0.0
 11
108.686595137186
 21
159.872127487603
 31
0.0
  0
LINE
  5
356
330
1F
100
AcDbEntity
  8
1
  6
CONTINUOUS
 62
     7
100
AcDbLine
 10
108.686595137186
 20
159.872127487603
 30
0.0
 11
108.866595137186
 21
159.851197255045
 31
0.0
  0
LINE
  5
357
330
1F
100
AcDbEntity
  8
1
  6
CONTINUOUS
 62
     7
100
AcDbLine
 10
108.866595137186
 20
159.851197255045
 30
0.0
 11
109.019595137186
 21
159.872127487603
 31
0.0
  0
LINE
  5
358
330
1F
100
AcDbEntity
  8
1
  6
CONTINUOUS
 62
     7
100
AcDbLine
 10
109.019595137186
 20
159.872127487603
 30
0.0
 11
109.136595137186
 21
159.955848417836
 31
0.0
  0
LINE
  5
359
330
1F
100
AcDbEntity
  8
1
  6
CONTINUOUS
 62
     7
100
AcDbLine
 10
109.136595137186
 20
159.955848417836
 30
0.0
 11
109.190595137186
 21
160.029104231789
 31
0.0
  0
LINE
  5
35A
330
1F
100
AcDbEntity
  8
1
  6
CONTINUOUS
 62
     7
100
AcDbLine
 10
109.190595137186
 20
160.029104231789
 30
0.0
 11
109.208595137186
 21
160.112825162022
 31
0.0
  0
LINE
  5
35B
330
1F
100
AcDbEntity
  8
1
  6
CONTINUOUS
 62
     7
100
AcDbLine
 10
109.208595137186
 20
160.112825162022
 30
0.0
 11
109.190595137186
 21
160.196546092254
 31
0.0
  0
LINE
  5
35C
330
1F
100
AcDbEntity
  8
1
  6
CONTINUOUS
 62
     7
100
AcDbLine
 10
109.190595137186
 20
160.196546092254
 30
0.0
 11
109.154595137186
 21
160.269801906208
 31
0.0
  0
LINE
  5
35D
330
1F
100
AcDbEntity
  8
1
  6
CONTINUOUS
 62
     7
100
AcDbLine
 10
109.154595137186
 20
160.269801906208
 30
0.0
 11
109.091595137186
 21
160.322127487603
 31
0.0
  0
LINE
  5
35E
330
1F
100
AcDbEntity
  8
1
  6
CONTINUOUS
 62
     7
100
AcDbLine
 10
109.091595137186
 20
160.322127487603
 30
0.0
 11
109.010595137186
 21
160.374453068998
 31
0.0
  0
LINE
  5
35F
330
1F
100
AcDbEntity
  8
1
  6
CONTINUOUS
 62
     7
100
AcDbLine
 10
109.010595137186
 20
160.374453068998
 30
0.0
 11
108.902595137186
 21
160.426778650394
 31
0.0
  0
LINE
  5
360
330
1F
100
AcDbEntity
  8
1
  6
CONTINUOUS
 62
     7
100
AcDbLine
 10
108.902595137186
 20
160.426778650394
 30
0.0
 11
108.785595137186
 21
160.500034464347
 31
0.0
  0
LINE
  5
361
330
1F
100
AcDbEntity
  8
1
  6
CONTINUOUS
 62
     7
100
AcDbLine
 10
108.785595137186
 20
160.500034464347
 30
0.0
 11
108.641595137186
 21
160.562825162022
 31
0.0
  0
LINE
  5
362
330
1F
100
AcDbEntity
  8
1
  6
CONTINUOUS
 62
     7
100
AcDbLine
 10
108.641595137186
 20
160.562825162022
 30
0.0
 11
108.533595137186
 21
160.625615859696
 31
0.0
  0
LINE
  5
363
330
1F
100
AcDbEntity
  8
1
  6
CONTINUOUS
 62
     7
100
AcDbLine
 10
108.533595137186
 20
160.625615859696
 30
0.0
 11
108.461595137186
 21
160.657011208533
 31
0.0
  0
LINE
  5
364
330
1F
100
AcDbEntity
  8
1
  6
CONTINUOUS
 62
     7
100
AcDbLine
 10
108.461595137186
 20
160.657011208533
 30
0.0
 11
108.407595137186
 21
160.719801906208
 31
0.0
  0
LINE
  5
365
330
1F
100
AcDbEntity
  8
1
  6
CONTINUOUS
 62
     7
100
AcDbLine
 10
108.407595137186
 20
160.719801906208
 30
0.0
 11
108.344595137186
 21
160.824453068998
 31
0.0
  0
LINE
  5
366
330
1F
100
AcDbEntity
  8
1
  6
CONTINUOUS
 62
     7
100
AcDbLine
 10
108.344595137186
 20
160.824453068998
 30
0.0
 11
108.326595137186
 21
160.960499580626
 31
0.0
  0
LINE
  5
367
330
1F
100
AcDbEntity
  8
1
  6
CONTINUOUS
 62
     7
100
AcDbLine
 10
109.694595137186
 20
161.420964696905
 30
0.0
 11
110.396595137186
 21
161.420964696905
 31
0.0
  0
LINE
  5
368
330
1F
100
AcDbEntity
  8
1
  6
CONTINUOUS
 62
     7
100
AcDbLine
 10
110.396595137186
 20
161.420964696905
 30
0.0
 11
110.567595137186
 21
161.379104231789
 31
0.0
  0
LINE
  5
369
330
1F
100
AcDbEntity
  8
1
  6
CONTINUOUS
 62
     7
100
AcDbLine
 10
110.567595137186
 20
161.379104231789
 30
0.0
 11
110.711595137186
 21
161.284918185277
 31
0.0
  0
LINE
  5
36A
330
1F
100
AcDbEntity
  8
1
  6
CONTINUOUS
 62
     7
100
AcDbLine
 10
110.711595137186
 20
161.284918185277
 30
0.0
 11
110.801595137186
 21
161.107011208533
 31
0.0
  0
LINE
  5
36B
330
1F
100
AcDbEntity
  8
1
  6
CONTINUOUS
 62
     7
100
AcDbLine
 10
110.801595137186
 20
161.107011208533
 30
0.0
 11
110.837595137186
 21
160.887243766673
 31
0.0
  0
LINE
  5
36C
330
1F
100
AcDbEntity
  8
1
  6
CONTINUOUS
 62
     7
100
AcDbLine
 10
110.837595137186
 20
160.887243766673
 30
0.0
 11
110.801595137186
 21
160.657011208533
 31
0.0
  0
LINE
  5
36D
330
1F
100
AcDbEntity
  8
1
  6
CONTINUOUS
 62
     7
100
AcDbLine
 10
110.801595137186
 20
160.657011208533
 30
0.0
 11
110.720595137186
 21
160.500034464347
 31
0.0
  0
LINE
  5
36E
330
1F
100
AcDbEntity
  8
1
  6
CONTINUOUS
 62
     7
100
AcDbLine
 10
110.720595137186
 20
160.500034464347
 30
0.0
 11
110.585595137186
 21
160.374453068998
 31
0.0
  0
LINE
  5
36F
330
1F
100
AcDbEntity
  8
1
  6
CONTINUOUS
 62
     7
100
AcDbLine
 10
110.585595137186
 20
160.374453068998
 30
0.0
 11
110.396595137186
 21
160.343057720161
 31
0.0
  0
LINE
  5
370
330
1F
100
AcDbEntity
  8
1
  6
CONTINUOUS
 62
     7
100
AcDbLine
 10
110.396595137186
 20
160.343057720161
 30
0.0
 11
109.901595137186
 21
160.343057720161
 31
0.0
  0
LINE
  5
371
330
1F
100
AcDbEntity
  8
1
  6
CONTINUOUS
 62
     7
100
AcDbLine
 10
109.901595137186
 20
160.343057720161
 30
0.0
 11
109.901595137186
 21
159.673290278301
 31
0.0
  0
LINE
  5
372
330
1F
100
AcDbEntity
  8
1
  6
CONTINUOUS
 62
     7
100
AcDbLine
 10
109.901595137186
 20
159.673290278301
 30
0.0
 11
109.694595137186
 21
159.673290278301
 31
0.0
  0
LINE
  5
373
330
1F
100
AcDbEntity
  8
1
  6
CONTINUOUS
 62
     7
100
AcDbLine
 10
109.694595137186
 20
159.673290278301
 30
0.0
 11
109.694595137186
 21
161.420964696905
 31
0.0
  0
LINE
  5
374
330
1F
100
AcDbEntity
  8
1
  6
CONTINUOUS
 62
     7
100
AcDbLine
 10
109.901595137186
 20
161.211662371324
 30
0.0
 11
109.901595137186
 21
160.552360045742
 31
0.0
  0
LINE
  5
375
330
1F
100
AcDbEntity
  8
1
  6
CONTINUOUS
 62
     7
100
AcDbLine
 10
109.901595137186
 20
160.552360045742
 30
0.0
 11
110.351595137186
 21
160.552360045742
 31
0.0
  0
LINE
  5
376
330
1F
100
AcDbEntity
  8
1
  6
CONTINUOUS
 62
     7
100
AcDbLine
 10
110.351595137186
 20
160.552360045742
 30
0.0
 11
110.459595137186
 21
160.573290278301
 31
0.0
  0
LINE
  5
377
330
1F
100
AcDbEntity
  8
1
  6
CONTINUOUS
 62
     7
100
AcDbLine
 10
110.459595137186
 20
160.573290278301
 30
0.0
 11
110.549595137186
 21
160.636080975975
 31
0.0
  0
LINE
  5
378
330
1F
100
AcDbEntity
  8
1
  6
CONTINUOUS
 62
     7
100
AcDbLine
 10
110.549595137186
 20
160.636080975975
 30
0.0
 11
110.603595137186
 21
160.740732138766
 31
0.0
  0
LINE
  5
379
330
1F
100
AcDbEntity
  8
1
  6
CONTINUOUS
 62
     7
100
AcDbLine
 10
110.603595137186
 20
160.740732138766
 30
0.0
 11
110.630595137186
 21
160.887243766673
 31
0.0
  0
LINE
  5
37A
330
1F
100
AcDbEntity
  8
1
  6
CONTINUOUS
 62
     7
100
AcDbLine
 10
110.630595137186
 20
160.887243766673
 30
0.0
 11
110.612595137186
 21
161.03375539458
 31
0.0
  0
LINE
  5
37B
330
1F
100
AcDbEntity
  8
1
  6
CONTINUOUS
 62
     7
100
AcDbLine
 10
110.612595137186
 20
161.03375539458
 30
0.0
 11
110.558595137186
 21
161.13840655737
 31
0.0
  0
LINE
  5
37C
330
1F
100
AcDbEntity
  8
1
  6
CONTINUOUS
 62
     7
100
AcDbLine
 10
110.558595137186
 20
161.13840655737
 30
0.0
 11
110.459595137186
 21
161.190732138766
 31
0.0
  0
LINE
  5
37D
330
1F
100
AcDbEntity
  8
1
  6
CONTINUOUS
 62
     7
100
AcDbLine
 10
110.459595137186
 20
161.190732138766
 30
0.0
 11
110.351595137186
 21
161.211662371324
 31
0.0
  0
LINE
  5
37E
330
1F
100
AcDbEntity
  8
1
  6
CONTINUOUS
 62
     7
100
AcDbLine
 10
110.351595137186
 20
161.211662371324
 30
0.0
 11
109.901595137186
 21
161.211662371324
 31
0.0
  0
LINE
  5
37F
330
1F
100
AcDbEntity
  8
1
  6
CONTINUOUS
 62
     7
100
AcDbLine
 10
111.116595137186
 20
159.90352283644
 30
0.0
 11
111.323595137186
 21
159.90352283644
 31
0.0
  0
LINE
  5
380
330
1F
100
AcDbEntity
  8
1
  6
CONTINUOUS
 62
     7
100
AcDbLine
 10
111.323595137186
 20
159.90352283644
 30
0.0
 11
111.323595137186
 21
159.673290278301
 31
0.0
  0
LINE
  5
381
330
1F
100
AcDbEntity
  8
1
  6
CONTINUOUS
 62
     7
100
AcDbLine
 10
111.323595137186
 20
159.673290278301
 30
0.0
 11
111.116595137186
 21
159.673290278301
 31
0.0
  0
LINE
  5
382
330
1F
100
AcDbEntity
  8
1
  6
CONTINUOUS
 62
     7
100
AcDbLine
 10
111.116595137186
 20
159.673290278301
 30
0.0
 11
111.116595137186
 21
159.90352283644
 31
0.0
  0
LINE
  5
383
330
1F
100
AcDbEntity
  8
1
  6
CONTINUOUS
 62
     7
100
AcDbLine
 10
117.755998144577
 20
208.075020489278
 30
0.0
 11
117.793798144577
 21
208.32409025672
 31
0.0
  0
LINE
  5
384
330
1F
100
AcDbEntity
  8
1
  6
CONTINUOUS
 62
     7
100
AcDbLine
 10
117.793798144577
 20
208.32409025672
 30
0.0
 11
117.932398144577
 21
208.558508861371
 31
0.0
  0
LINE
  5
385
330
1F
100
AcDbEntity
  8
1
  6
CONTINUOUS
 62
     7
100
AcDbLine
 10
117.932398144577
 20
208.558508861371
 30
0.0
 11
118.146598144577
 21
208.690369326487
 31
0.0
  0
LINE
  5
386
330
1F
100
AcDbEntity
  8
1
  6
CONTINUOUS
 62
     7
100
AcDbLine
 10
118.146598144577
 20
208.690369326487
 30
0.0
 11
118.461598144577
 21
208.74897397765
 31
0.0
  0
LINE
  5
387
330
1F
100
AcDbEntity
  8
1
  6
CONTINUOUS
 62
     7
100
AcDbLine
 10
118.461598144577
 20
208.74897397765
 30
0.0
 11
118.789198144577
 21
208.690369326487
 31
0.0
  0
LINE
  5
388
330
1F
100
AcDbEntity
  8
1
  6
CONTINUOUS
 62
     7
100
AcDbLine
 10
118.789198144577
 20
208.690369326487
 30
0.0
 11
119.041198144577
 21
208.52920653579
 31
0.0
  0
LINE
  5
389
330
1F
100
AcDbEntity
  8
1
  6
CONTINUOUS
 62
     7
100
AcDbLine
 10
119.041198144577
 20
208.52920653579
 30
0.0
 11
119.154598144577
 21
208.309439093929
 31
0.0
  0
LINE
  5
38A
330
1F
100
AcDbEntity
  8
1
  6
CONTINUOUS
 62
     7
100
AcDbLine
 10
119.154598144577
 20
208.309439093929
 30
0.0
 11
119.204998144577
 21
208.060369326487
 31
0.0
  0
LINE
  5
38B
330
1F
100
AcDbEntity
  8
1
  6
CONTINUOUS
 62
     7
100
AcDbLine
 10
119.204998144577
 20
208.060369326487
 30
0.0
 11
118.927798144577
 21
208.060369326487
 31
0.0
  0
LINE
  5
38C
330
1F
100
AcDbEntity
  8
1
  6
CONTINUOUS
 62
     7
100
AcDbLine
 10
118.927798144577
 20
208.060369326487
 30
0.0
 11
118.902598144577
 21
208.206880954394
 31
0.0
  0
LINE
  5
38D
330
1F
100
AcDbEntity
  8
1
  6
CONTINUOUS
 62
     7
100
AcDbLine
 10
118.902598144577
 20
208.206880954394
 30
0.0
 11
118.826998144577
 21
208.338741419511
 31
0.0
  0
LINE
  5
38E
330
1F
100
AcDbEntity
  8
1
  6
CONTINUOUS
 62
     7
100
AcDbLine
 10
118.826998144577
 20
208.338741419511
 30
0.0
 11
118.675798144577
 21
208.426648396255
 31
0.0
  0
LINE
  5
38F
330
1F
100
AcDbEntity
  8
1
  6
CONTINUOUS
 62
     7
100
AcDbLine
 10
118.675798144577
 20
208.426648396255
 30
0.0
 11
118.486798144577
 21
208.470601884627
 31
0.0
  0
LINE
  5
390
330
1F
100
AcDbEntity
  8
1
  6
CONTINUOUS
 62
     7
100
AcDbLine
 10
118.486798144577
 20
208.470601884627
 30
0.0
 11
118.259998144577
 21
208.441299559045
 31
0.0
  0
LINE
  5
391
330
1F
100
AcDbEntity
  8
1
  6
CONTINUOUS
 62
     7
100
AcDbLine
 10
118.259998144577
 20
208.441299559045
 30
0.0
 11
118.121398144577
 21
208.353392582301
 31
0.0
  0
LINE
  5
392
330
1F
100
AcDbEntity
  8
1
  6
CONTINUOUS
 62
     7
100
AcDbLine
 10
118.121398144577
 20
208.353392582301
 30
0.0
 11
118.058398144577
 21
208.236183279976
 31
0.0
  0
LINE
  5
393
330
1F
100
AcDbEntity
  8
1
  6
CONTINUOUS
 62
     7
100
AcDbLine
 10
118.058398144577
 20
208.236183279976
 30
0.0
 11
118.045798144577
 21
208.11897397765
 31
0.0
  0
LINE
  5
394
330
1F
100
AcDbEntity
  8
1
  6
CONTINUOUS
 62
     7
100
AcDbLine
 10
118.045798144577
 20
208.11897397765
 30
0.0
 11
118.045798144577
 21
208.016415838115
 31
0.0
  0
LINE
  5
395
330
1F
100
AcDbEntity
  8
1
  6
CONTINUOUS
 62
     7
100
AcDbLine
 10
118.045798144577
 20
208.016415838115
 30
0.0
 11
118.083598144577
 21
207.943160024162
 31
0.0
  0
LINE
  5
396
330
1F
100
AcDbEntity
  8
1
  6
CONTINUOUS
 62
     7
100
AcDbLine
 10
118.083598144577
 20
207.943160024162
 30
0.0
 11
118.171798144577
 21
207.869904210208
 31
0.0
  0
LINE
  5
397
330
1F
100
AcDbEntity
  8
1
  6
CONTINUOUS
 62
     7
100
AcDbLine
 10
118.171798144577
 20
207.869904210208
 30
0.0
 11
118.310398144577
 21
207.796648396255
 31
0.0
  0
LINE
  5
398
330
1F
100
AcDbEntity
  8
1
  6
CONTINUOUS
 62
     7
100
AcDbLine
 10
118.310398144577
 20
207.796648396255
 30
0.0
 11
118.600198144577
 21
207.635485605557
 31
0.0
  0
LINE
  5
399
330
1F
100
AcDbEntity
  8
1
  6
CONTINUOUS
 62
     7
100
AcDbLine
 10
118.600198144577
 20
207.635485605557
 30
0.0
 11
118.952998144577
 21
207.459671652069
 31
0.0
  0
LINE
  5
39A
330
1F
100
AcDbEntity
  8
1
  6
CONTINUOUS
 62
     7
100
AcDbLine
 10
118.952998144577
 20
207.459671652069
 30
0.0
 11
119.041198144577
 21
207.401067000906
 31
0.0
  0
LINE
  5
39B
330
1F
100
AcDbEntity
  8
1
  6
CONTINUOUS
 62
     7
100
AcDbLine
 10
119.041198144577
 20
207.401067000906
 30
0.0
 11
119.129398144577
 21
207.327811186952
 31
0.0
  0
LINE
  5
39C
330
1F
100
AcDbEntity
  8
1
  6
CONTINUOUS
 62
     7
100
AcDbLine
 10
119.129398144577
 20
207.327811186952
 30
0.0
 11
119.230198144577
 21
207.151997233464
 31
0.0
  0
LINE
  5
39D
330
1F
100
AcDbEntity
  8
1
  6
CONTINUOUS
 62
     7
100
AcDbLine
 10
119.230198144577
 20
207.151997233464
 30
0.0
 11
119.267998144577
 21
206.946880954394
 31
0.0
  0
LINE
  5
39E
330
1F
100
AcDbEntity
  8
1
  6
CONTINUOUS
 62
     7
100
AcDbLine
 10
119.267998144577
 20
206.946880954394
 30
0.0
 11
119.217598144577
 21
206.683160024162
 31
0.0
  0
LINE
  5
39F
330
1F
100
AcDbEntity
  8
1
  6
CONTINUOUS
 62
     7
100
AcDbLine
 10
119.217598144577
 20
206.683160024162
 30
0.0
 11
119.104198144577
 21
206.463392582301
 31
0.0
  0
LINE
  5
3A0
330
1F
100
AcDbEntity
  8
1
  6
CONTINUOUS
 62
     7
100
AcDbLine
 10
119.104198144577
 20
206.463392582301
 30
0.0
 11
118.852198144577
 21
206.287578628813
 31
0.0
  0
LINE
  5
3A1
330
1F
100
AcDbEntity
  8
1
  6
CONTINUOUS
 62
     7
100
AcDbLine
 10
118.852198144577
 20
206.287578628813
 30
0.0
 11
118.499398144577
 21
206.243625140441
 31
0.0
  0
LINE
  5
3A2
330
1F
100
AcDbEntity
  8
1
  6
CONTINUOUS
 62
     7
100
AcDbLine
 10
118.499398144577
 20
206.243625140441
 30
0.0
 11
118.133998144577
 21
206.302229791604
 31
0.0
  0
LINE
  5
3A3
330
1F
100
AcDbEntity
  8
1
  6
CONTINUOUS
 62
     7
100
AcDbLine
 10
118.133998144577
 20
206.302229791604
 30
0.0
 11
117.869398144577
 21
206.507346070673
 31
0.0
  0
LINE
  5
3A4
330
1F
100
AcDbEntity
  8
1
  6
CONTINUOUS
 62
     7
100
AcDbLine
 10
117.869398144577
 20
206.507346070673
 30
0.0
 11
117.743398144577
 21
206.727113512534
 31
0.0
  0
LINE
  5
3A5
330
1F
100
AcDbEntity
  8
1
  6
CONTINUOUS
 62
     7
100
AcDbLine
 10
117.743398144577
 20
206.727113512534
 30
0.0
 11
117.705598144577
 21
207.049439093929
 31
0.0
  0
LINE
  5
3A6
330
1F
100
AcDbEntity
  8
1
  6
CONTINUOUS
 62
     7
100
AcDbLine
 10
117.705598144577
 20
207.049439093929
 30
0.0
 11
117.995398144577
 21
207.049439093929
 31
0.0
  0
LINE
  5
3A7
330
1F
100
AcDbEntity
  8
1
  6
CONTINUOUS
 62
     7
100
AcDbLine
 10
117.995398144577
 20
207.049439093929
 30
0.0
 11
118.007998144577
 21
206.829671652069
 31
0.0
  0
LINE
  5
3A8
330
1F
100
AcDbEntity
  8
1
  6
CONTINUOUS
 62
     7
100
AcDbLine
 10
118.007998144577
 20
206.829671652069
 30
0.0
 11
118.083598144577
 21
206.683160024162
 31
0.0
  0
LINE
  5
3A9
330
1F
100
AcDbEntity
  8
1
  6
CONTINUOUS
 62
     7
100
AcDbLine
 10
118.083598144577
 20
206.683160024162
 30
0.0
 11
118.259998144577
 21
206.551299559045
 31
0.0
  0
LINE
  5
3AA
330
1F
100
AcDbEntity
  8
1
  6
CONTINUOUS
 62
     7
100
AcDbLine
 10
118.259998144577
 20
206.551299559045
 30
0.0
 11
118.511998144577
 21
206.521997233464
 31
0.0
  0
LINE
  5
3AB
330
1F
100
AcDbEntity
  8
1
  6
CONTINUOUS
 62
     7
100
AcDbLine
 10
118.511998144577
 20
206.521997233464
 30
0.0
 11
118.726198144577
 21
206.551299559045
 31
0.0
  0
LINE
  5
3AC
330
1F
100
AcDbEntity
  8
1
  6
CONTINUOUS
 62
     7
100
AcDbLine
 10
118.726198144577
 20
206.551299559045
 30
0.0
 11
118.889998144577
 21
206.668508861371
 31
0.0
  0
LINE
  5
3AD
330
1F
100
AcDbEntity
  8
1
  6
CONTINUOUS
 62
     7
100
AcDbLine
 10
118.889998144577
 20
206.668508861371
 30
0.0
 11
118.965598144577
 21
206.771067000906
 31
0.0
  0
LINE
  5
3AE
330
1F
100
AcDbEntity
  8
1
  6
CONTINUOUS
 62
     7
100
AcDbLine
 10
118.965598144577
 20
206.771067000906
 30
0.0
 11
118.990798144577
 21
206.888276303231
 31
0.0
  0
LINE
  5
3AF
330
1F
100
AcDbEntity
  8
1
  6
CONTINUOUS
 62
     7
100
AcDbLine
 10
118.990798144577
 20
206.888276303231
 30
0.0
 11
118.965598144577
 21
207.005485605557
 31
0.0
  0
LINE
  5
3B0
330
1F
100
AcDbEntity
  8
1
  6
CONTINUOUS
 62
     7
100
AcDbLine
 10
118.965598144577
 20
207.005485605557
 30
0.0
 11
118.915198144577
 21
207.108043745092
 31
0.0
  0
LINE
  5
3B1
330
1F
100
AcDbEntity
  8
1
  6
CONTINUOUS
 62
     7
100
AcDbLine
 10
118.915198144577
 20
207.108043745092
 30
0.0
 11
118.826998144577
 21
207.181299559045
 31
0.0
  0
LINE
  5
3B2
330
1F
100
AcDbEntity
  8
1
  6
CONTINUOUS
 62
     7
100
AcDbLine
 10
118.826998144577
 20
207.181299559045
 30
0.0
 11
118.713598144577
 21
207.254555372999
 31
0.0
  0
LINE
  5
3B3
330
1F
100
AcDbEntity
  8
1
  6
CONTINUOUS
 62
     7
100
AcDbLine
 10
118.713598144577
 20
207.254555372999
 30
0.0
 11
118.562398144577
 21
207.327811186952
 31
0.0
  0
LINE
  5
3B4
330
1F
100
AcDbEntity
  8
1
  6
CONTINUOUS
 62
     7
100
AcDbLine
 10
118.562398144577
 20
207.327811186952
 30
0.0
 11
118.398598144577
 21
207.430369326487
 31
0.0
  0
LINE
  5
3B5
330
1F
100
AcDbEntity
  8
1
  6
CONTINUOUS
 62
     7
100
AcDbLine
 10
118.398598144577
 20
207.430369326487
 30
0.0
 11
118.196998144577
 21
207.518276303231
 31
0.0
  0
LINE
  5
3B6
330
1F
100
AcDbEntity
  8
1
  6
CONTINUOUS
 62
     7
100
AcDbLine
 10
118.196998144577
 20
207.518276303231
 30
0.0
 11
118.045798144577
 21
207.606183279976
 31
0.0
  0
LINE
  5
3B7
330
1F
100
AcDbEntity
  8
1
  6
CONTINUOUS
 62
     7
100
AcDbLine
 10
118.045798144577
 20
207.606183279976
 30
0.0
 11
117.944998144577
 21
207.650136768348
 31
0.0
  0
LINE
  5
3B8
330
1F
100
AcDbEntity
  8
1
  6
CONTINUOUS
 62
     7
100
AcDbLine
 10
117.944998144577
 20
207.650136768348
 30
0.0
 11
117.869398144577
 21
207.738043745092
 31
0.0
  0
LINE
  5
3B9
330
1F
100
AcDbEntity
  8
1
  6
CONTINUOUS
 62
     7
100
AcDbLine
 10
117.869398144577
 20
207.738043745092
 30
0.0
 11
117.781198144577
 21
207.884555372999
 31
0.0
  0
LINE
  5
3BA
330
1F
100
AcDbEntity
  8
1
  6
CONTINUOUS
 62
     7
100
AcDbLine
 10
117.781198144577
 20
207.884555372999
 30
0.0
 11
117.755998144577
 21
208.075020489278
 31
0.0
  0
LINE
  5
3BB
330
1F
100
AcDbEntity
  8
1
  6
CONTINUOUS
 62
     7
100
AcDbLine
 10
119.671198144577
 20
207.48897397765
 30
0.0
 11
119.734198144577
 21
208.045718163697
 31
0.0
  0
LINE
  5
3BC
330
1F
100
AcDbEntity
  8
1
  6
CONTINUOUS
 62
     7
100
AcDbLine
 10
119.734198144577
 20
208.045718163697
 30
0.0
 11
119.960998144577
 21
208.455950721836
 31
0.0
  0
LINE
  5
3BD
330
1F
100
AcDbEntity
  8
1
  6
CONTINUOUS
 62
     7
100
AcDbLine
 10
119.960998144577
 20
208.455950721836
 30
0.0
 11
120.238198144577
 21
208.675718163697
 31
0.0
  0
LINE
  5
3BE
330
1F
100
AcDbEntity
  8
1
  6
CONTINUOUS
 62
     7
100
AcDbLine
 10
120.238198144577
 20
208.675718163697
 30
0.0
 11
120.578398144577
 21
208.74897397765
 31
0.0
  0
LINE
  5
3BF
330
1F
100
AcDbEntity
  8
1
  6
CONTINUOUS
 62
     7
100
AcDbLine
 10
120.578398144577
 20
208.74897397765
 30
0.0
 11
120.918598144577
 21
208.675718163697
 31
0.0
  0
LINE
  5
3C0
330
1F
100
AcDbEntity
  8
1
  6
CONTINUOUS
 62
     7
100
AcDbLine
 10
120.918598144577
 20
208.675718163697
 30
0.0
 11
121.183198144577
 21
208.485253047417
 31
0.0
  0
LINE
  5
3C1
330
1F
100
AcDbEntity
  8
1
  6
CONTINUOUS
 62
     7
100
AcDbLine
 10
121.183198144577
 20
208.485253047417
 30
0.0
 11
121.334398144577
 21
208.221532117185
 31
0.0
  0
LINE
  5
3C2
330
1F
100
AcDbEntity
  8
1
  6
CONTINUOUS
 62
     7
100
AcDbLine
 10
121.334398144577
 20
208.221532117185
 30
0.0
 11
121.397398144577
 21
207.928508861371
 31
0.0
  0
LINE
  5
3C3
330
1F
100
AcDbEntity
  8
1
  6
CONTINUOUS
 62
     7
100
AcDbLine
 10
121.397398144577
 20
207.928508861371
 30
0.0
 11
121.094998144577
 21
207.928508861371
 31
0.0
  0
LINE
  5
3C4
330
1F
100
AcDbEntity
  8
1
  6
CONTINUOUS
 62
     7
100
AcDbLine
 10
121.094998144577
 20
207.928508861371
 30
0.0
 11
121.044598144577
 21
208.133625140441
 31
0.0
  0
LINE
  5
3C5
330
1F
100
AcDbEntity
  8
1
  6
CONTINUOUS
 62
     7
100
AcDbLine
 10
121.044598144577
 20
208.133625140441
 30
0.0
 11
120.956398144577
 21
208.32409025672
 31
0.0
  0
LINE
  5
3C6
330
1F
100
AcDbEntity
  8
1
  6
CONTINUOUS
 62
     7
100
AcDbLine
 10
120.956398144577
 20
208.32409025672
 30
0.0
 11
120.792598144577
 21
208.441299559045
 31
0.0
  0
LINE
  5
3C7
330
1F
100
AcDbEntity
  8
1
  6
CONTINUOUS
 62
     7
100
AcDbLine
 10
120.792598144577
 20
208.441299559045
 30
0.0
 11
120.578398144577
 21
208.485253047417
 31
0.0
  0
LINE
  5
3C8
330
1F
100
AcDbEntity
  8
1
  6
CONTINUOUS
 62
     7
100
AcDbLine
 10
120.578398144577
 20
208.485253047417
 30
0.0
 11
120.364198144577
 21
208.426648396255
 31
0.0
  0
LINE
  5
3C9
330
1F
100
AcDbEntity
  8
1
  6
CONTINUOUS
 62
     7
100
AcDbLine
 10
120.364198144577
 20
208.426648396255
 30
0.0
 11
120.187798144577
 21
208.294787931138
 31
0.0
  0
LINE
  5
3CA
330
1F
100
AcDbEntity
  8
1
  6
CONTINUOUS
 62
     7
100
AcDbLine
 10
120.187798144577
 20
208.294787931138
 30
0.0
 11
120.023998144577
 21
207.957811186952
 31
0.0
  0
LINE
  5
3CB
330
1F
100
AcDbEntity
  8
1
  6
CONTINUOUS
 62
     7
100
AcDbLine
 10
120.023998144577
 20
207.957811186952
 30
0.0
 11
119.973598144577
 21
207.48897397765
 31
0.0
  0
LINE
  5
3CC
330
1F
100
AcDbEntity
  8
1
  6
CONTINUOUS
 62
     7
100
AcDbLine
 10
119.973598144577
 20
207.48897397765
 30
0.0
 11
120.023998144577
 21
207.034787931138
 31
0.0
  0
LINE
  5
3CD
330
1F
100
AcDbEntity
  8
1
  6
CONTINUOUS
 62
     7
100
AcDbLine
 10
120.023998144577
 20
207.034787931138
 30
0.0
 11
120.200398144577
 21
206.712462349743
 31
0.0
  0
LINE
  5
3CE
330
1F
100
AcDbEntity
  8
1
  6
CONTINUOUS
 62
     7
100
AcDbLine
 10
120.200398144577
 20
206.712462349743
 30
0.0
 11
120.389398144577
 21
206.565950721836
 31
0.0
  0
LINE
  5
3CF
330
1F
100
AcDbEntity
  8
1
  6
CONTINUOUS
 62
     7
100
AcDbLine
 10
120.389398144577
 20
206.565950721836
 30
0.0
 11
120.641398144577
 21
206.521997233464
 31
0.0
  0
LINE
  5
3D0
330
1F
100
AcDbEntity
  8
1
  6
CONTINUOUS
 62
     7
100
AcDbLine
 10
120.641398144577
 20
206.521997233464
 30
0.0
 11
120.830398144577
 21
206.551299559045
 31
0.0
  0
LINE
  5
3D1
330
1F
100
AcDbEntity
  8
1
  6
CONTINUOUS
 62
     7
100
AcDbLine
 10
120.830398144577
 20
206.551299559045
 30
0.0
 11
120.994198144577
 21
206.683160024162
 31
0.0
  0
LINE
  5
3D2
330
1F
100
AcDbEntity
  8
1
  6
CONTINUOUS
 62
     7
100
AcDbLine
 10
120.994198144577
 20
206.683160024162
 30
0.0
 11
121.094998144577
 21
206.844322814859
 31
0.0
  0
LINE
  5
3D3
330
1F
100
AcDbEntity
  8
1
  6
CONTINUOUS
 62
     7
100
AcDbLine
 10
121.094998144577
 20
206.844322814859
 30
0.0
 11
121.145398144577
 21
207.005485605557
 31
0.0
  0
LINE
  5
3D4
330
1F
100
AcDbEntity
  8
1
  6
CONTINUOUS
 62
     7
100
AcDbLine
 10
121.145398144577
 20
207.005485605557
 30
0.0
 11
121.145398144577
 21
207.210601884627
 31
0.0
  0
LINE
  5
3D5
330
1F
100
AcDbEntity
  8
1
  6
CONTINUOUS
 62
     7
100
AcDbLine
 10
121.145398144577
 20
207.210601884627
 30
0.0
 11
120.792598144577
 21
207.210601884627
 31
0.0
  0
LINE
  5
3D6
330
1F
100
AcDbEntity
  8
1
  6
CONTINUOUS
 62
     7
100
AcDbLine
 10
120.792598144577
 20
207.210601884627
 30
0.0
 11
120.792598144577
 21
207.503625140441
 31
0.0
  0
LINE
  5
3D7
330
1F
100
AcDbEntity
  8
1
  6
CONTINUOUS
 62
     7
100
AcDbLine
 10
120.792598144577
 20
207.503625140441
 30
0.0
 11
121.435198144577
 21
207.503625140441
 31
0.0
  0
LINE
  5
3D8
330
1F
100
AcDbEntity
  8
1
  6
CONTINUOUS
 62
     7
100
AcDbLine
 10
121.435198144577
 20
207.503625140441
 30
0.0
 11
121.435198144577
 21
206.243625140441
 31
0.0
  0
LINE
  5
3D9
330
1F
100
AcDbEntity
  8
1
  6
CONTINUOUS
 62
     7
100
AcDbLine
 10
121.435198144577
 20
206.243625140441
 30
0.0
 11
121.220998144577
 21
206.243625140441
 31
0.0
  0
LINE
  5
3DA
330
1F
100
AcDbEntity
  8
1
  6
CONTINUOUS
 62
     7
100
AcDbLine
 10
121.220998144577
 20
206.243625140441
 30
0.0
 11
121.145398144577
 21
206.492694907883
 31
0.0
  0
LINE
  5
3DB
330
1F
100
AcDbEntity
  8
1
  6
CONTINUOUS
 62
     7
100
AcDbLine
 10
121.145398144577
 20
206.492694907883
 30
0.0
 11
120.905998144577
 21
206.302229791604
 31
0.0
  0
LINE
  5
3DC
330
1F
100
AcDbEntity
  8
1
  6
CONTINUOUS
 62
     7
100
AcDbLine
 10
120.905998144577
 20
206.302229791604
 30
0.0
 11
120.616198144577
 21
206.243625140441
 31
0.0
  0
LINE
  5
3DD
330
1F
100
AcDbEntity
  8
1
  6
CONTINUOUS
 62
     7
100
AcDbLine
 10
120.616198144577
 20
206.243625140441
 30
0.0
 11
120.263398144577
 21
206.316880954394
 31
0.0
  0
LINE
  5
3DE
330
1F
100
AcDbEntity
  8
1
  6
CONTINUOUS
 62
     7
100
AcDbLine
 10
120.263398144577
 20
206.316880954394
 30
0.0
 11
119.986198144577
 21
206.536648396255
 31
0.0
  0
LINE
  5
3DF
330
1F
100
AcDbEntity
  8
1
  6
CONTINUOUS
 62
     7
100
AcDbLine
 10
119.986198144577
 20
206.536648396255
 30
0.0
 11
119.746798144577
 21
206.946880954394
 31
0.0
  0
LINE
  5
3E0
330
1F
100
AcDbEntity
  8
1
  6
CONTINUOUS
 62
     7
100
AcDbLine
 10
119.746798144577
 20
206.946880954394
 30
0.0
 11
119.671198144577
 21
207.48897397765
 31
0.0
  0
ARC
  5
3E1
330
1F
100
AcDbEntity
  8
0
  6
CONTINUOUS
 62
     7
100
AcDbCircle
 10
106.0769948811916
 20
206.5951278201039
 30
0.0
 40
0.3461538461540101
100
AcDbArc
 50
270.0
 51
49.07232707807192
  0
ARC
  5
3E2
330
1F
100
AcDbEntity
  8
0
  6
CONTINUOUS
 62
     7
100
AcDbCircle
 10
105.673092457355
 20
207.4951278201038
 30
0.0
 40
0.0692307692308134
100
AcDbArc
 50
90.0
 51
229.0723270780021
  0
ARC
  5
3E3
330
1F
100
AcDbEntity
  8
0
  6
CONTINUOUS
 62
     7
100
AcDbCircle
 10
106.399295003588
 20
206.6643585893346
 30
0.0
 40
0.8999999999999428
100
AcDbArc
 50
58.17886729790524
 51
90.0
  0
ARC
  5
3E4
330
1F
100
AcDbEntity
  8
0
  6
CONTINUOUS
 62
     7
100
AcDbCircle
 10
107.3616256336243
 20
206.9758970508731
 30
0.0
 40
0.1038461538460351
100
AcDbArc
 50
345.0000000000579
 51
165.0000000000115
  0
ARC
  5
3E5
330
1F
100
AcDbEntity
  8
0
  6
CONTINUOUS
 62
     7
100
AcDbCircle
 10
107.9341526627496
 20
206.7335893585654
 30
0.0
 40
0.4846153846155232
100
AcDbArc
 50
270.0
 51
308.2132107017493
  0
ARC
  5
3E6
330
1F
100
AcDbEntity
  8
0
  6
CONTINUOUS
 62
     7
100
AcDbCircle
 10
108.5337087115235
 20
206.7335893585654
 30
0.0
 40
0.4846153846153756
100
AcDbArc
 50
231.7867892982798
 51
270.0
  0
ARC
  5
3E7
330
1F
100
AcDbEntity
  8
0
  6
CONTINUOUS
 62
     7
100
AcDbCircle
 10
108.8659012251188
 20
206.7335893585654
 30
0.0
 40
0.4846153846155232
100
AcDbArc
 50
270.0
 51
308.2132107017202
  0
ARC
  5
3E8
330
1F
100
AcDbEntity
  8
0
  6
CONTINUOUS
 62
     7
100
AcDbCircle
 10
109.9949750593526
 20
206.9066662816423
 30
0.0
 40
0.1730769230769056
100
AcDbArc
 50
90.0
 51
164.9999999999721
  0
ARC
  5
3E9
330
1F
100
AcDbEntity
  8
0
  6
CONTINUOUS
 62
     7
100
AcDbCircle
 10
109.9452497914716
 20
206.9885762073858
 30
0.0
 40
0.1038461538460571
100
AcDbArc
 50
345.0000000000125
 51
61.39059877890799
  0
ARC
  5
3EA
330
1F
100
AcDbEntity
  8
0
  6
CONTINUOUS
 62
     7
100
AcDbCircle
 10
110.3056998950207
 20
206.5951278201039
 30
0.0
 40
0.3461538461539112
100
AcDbArc
 50
165.0000000000215
 51
270.0
  0
ARC
  5
3EB
330
1F
100
AcDbEntity
  8
0
  6
CONTINUOUS
 62
     7
100
AcDbCircle
 10
110.5143794508485
 20
206.7335893585654
 30
0.0
 40
0.4846153846155232
100
AcDbArc
 50
270.0
 51
308.2132107017493
  0
ARC
  5
3EC
330
1F
100
AcDbEntity
  8
0
  6
CONTINUOUS
 62
     7
100
AcDbCircle
 10
111.6700146038971
 20
206.8720508970268
 30
0.0
 40
0.2076923076923833
100
AcDbArc
 50
90.0
 51
164.999999999959
  0
ARC
  5
3ED
330
1F
100
AcDbEntity
  8
0
  6
CONTINUOUS
 62
     7
100
AcDbCircle
 10
111.6885649326039
 20
206.9412816662576
 30
0.0
 40
0.1384615384615385
100
AcDbArc
 50
265.450760856891
 51
90.0
  0
ARC
  5
3EE
330
1F
100
AcDbEntity
  8
0
  6
CONTINUOUS
 62
     7
100
AcDbCircle
 10
112.1628576765785
 20
206.7335893585654
 30
0.0
 40
0.4846153846155232
100
AcDbArc
 50
270.0
 51
308.2132107017401
  0
ARC
  5
3EF
330
1F
100
AcDbEntity
  8
0
  6
CONTINUOUS
 62
     7
100
AcDbCircle
 10
112.7624137253523
 20
206.7335893585654
 30
0.0
 40
0.4846153846153756
100
AcDbArc
 50
231.7867892982798
 51
270.0
  0
ARC
  5
3F0
330
1F
100
AcDbEntity
  8
0
  6
CONTINUOUS
 62
     7
100
AcDbCircle
 10
113.6477679940018
 20
206.6297432047194
 30
0.0
 40
0.3807692307695163
100
AcDbArc
 50
270.0
 51
14.99999999996479
  0
ARC
  5
3F1
330
1F
100
AcDbEntity
  8
0
  6
CONTINUOUS
 62
     7
100
AcDbCircle
 10
113.4462427267184
 20
207.1143585893345
 30
0.0
 40
0.4499999999999154
100
AcDbArc
 50
14.99999999999735
 51
90.0
  0
ARC
  5
3F2
330
1F
100
AcDbEntity
  8
0
  6
CONTINUOUS
 62
     7
100
AcDbCircle
 10
113.1325635979246
 20
207.1143585893345
 30
0.0
 40
0.4500000000001023
100
AcDbArc
 50
90.0
 51
165.0000000000125
  0
ARC
  5
3F3
330
1F
100
AcDbEntity
  8
0
  6
CONTINUOUS
 62
     7
100
AcDbCircle
 10
112.4052945959649
 20
206.9412816662576
 30
0.0
 40
0.2076923076921844
100
AcDbArc
 50
270.0
 51
344.9999999999893
  0
ARC
  5
3F4
330
1F
100
AcDbEntity
  8
0
  6
CONTINUOUS
 62
     7
100
AcDbCircle
 10
112.298394935964
 20
206.8028201277963
 30
0.0
 40
0.0692307692305563
100
AcDbArc
 50
134.4153085971919
 51
270.0
  0
ARC
  5
3F5
330
1F
100
AcDbEntity
  8
0
  6
CONTINUOUS
 62
     7
100
AcDbCircle
 10
111.9592348177324
 20
207.14897397395
 30
0.0
 40
0.4153846153847829
100
AcDbArc
 50
314.415308597216
 51
165.0000000000155
  0
ARC
  5
3F6
330
1F
100
AcDbEntity
  8
0
  6
CONTINUOUS
 62
     7
100
AcDbCircle
 10
110.7568163702348
 20
206.9412816662576
 30
0.0
 40
0.2076923076921844
100
AcDbArc
 50
270.0
 51
345.0000000000106
  0
ARC
  5
3F7
330
1F
100
AcDbEntity
  8
0
  6
CONTINUOUS
 62
     7
100
AcDbCircle
 10
110.6665930751921
 20
206.8720508970268
 30
0.0
 40
0.1384615384617293
100
AcDbArc
 50
165.0000000000033
 51
270.0
  0
ARC
  5
3F8
330
1F
100
AcDbEntity
  8
0
  6
CONTINUOUS
 62
     7
100
AcDbCircle
 10
110.2576339543733
 20
207.2182047431809
 30
0.0
 40
0.3461538461537705
100
AcDbArc
 50
344.9999999999812
 51
165.0000000000403
  0
ARC
  5
3F9
330
1F
100
AcDbEntity
  8
0
  6
CONTINUOUS
 62
     7
100
AcDbCircle
 10
109.108338144505
 20
206.9412816662576
 30
0.0
 40
0.2076923076921844
100
AcDbArc
 50
270.0
 51
344.9999999999893
  0
ARC
  5
3FA
330
1F
100
AcDbEntity
  8
0
  6
CONTINUOUS
 62
     7
100
AcDbCircle
 10
109.018114849462
 20
206.8720508970268
 30
0.0
 40
0.1384615384614273
100
AcDbArc
 50
164.9999999999698
 51
270.0865868057829
  0
ARC
  5
3FB
330
1F
100
AcDbEntity
  8
0
  6
CONTINUOUS
 62
     7
100
AcDbCircle
 10
108.1765895821359
 20
206.9412816662576
 30
0.0
 40
0.2076923076921844
100
AcDbArc
 50
270.0
 51
344.9999999999964
  0
ARC
  5
3FC
330
1F
100
AcDbEntity
  8
0
  6
CONTINUOUS
 62
     7
100
AcDbCircle
 10
108.086366287093
 20
206.8720508970268
 30
0.0
 40
0.1384615384616332
100
AcDbArc
 50
164.9999999999926
 51
270.0
  0
ARC
  5
3FD
330
1F
100
AcDbEntity
  8
0
  6
CONTINUOUS
 62
     7
100
AcDbCircle
 10
107.6774071662743
 20
207.2182047431809
 30
0.0
 40
0.3461538461538666
100
AcDbArc
 50
344.9999999999854
 51
165.0000000000403
  0
ARC
  5
3FE
330
1F
100
AcDbEntity
  8
0
  6
CONTINUOUS
 62
     7
100
AcDbCircle
 10
106.399295003588
 20
206.6643585893346
 30
0.0
 40
1.384615384615352
100
AcDbArc
 50
64.15806723683285
 51
90.0
  0
ARC
  5
3FF
330
1F
100
AcDbEntity
  8
0
  6
CONTINUOUS
 62
     7
100
AcDbCircle
 10
105.2270326791227
 20
207.702820127796
 30
0.0
 40
0.3461538461538112
100
AcDbArc
 50
90.0
 51
229.0723270780596
  0
ARC
  5
400
330
1F
100
AcDbEntity
  8
0
  6
CONTINUOUS
 62
     7
100
AcDbCircle
 10
105.6309351029594
 20
206.8028201277963
 30
0.0
 40
0.0692307692308987
100
AcDbArc
 50
270.0
 51
49.07232707806433
  0
ARC
  5
401
330
1F
100
AcDbEntity
  8
0
  6
CONTINUOUS
 62
     7
100
AcDbCircle
 10
113.246819863291
 20
206.8720508970268
 30
0.0
 40
0.1384615384616195
100
AcDbArc
 50
164.9999999999911
 51
270.0
  0
ARC
  5
402
330
1F
100
AcDbEntity
  8
0
  6
CONTINUOUS
 62
     7
100
AcDbCircle
 10
113.3319864613519
 20
206.8720508970268
 30
0.0
 40
0.1384615384613994
100
AcDbArc
 50
270.0
 51
15.00000000003021
  0
ARC
  5
403
330
1F
100
AcDbEntity
  8
0
  6
CONTINUOUS
 62
     7
100
AcDbCircle
 10
113.3399974514597
 20
206.9758970508731
 30
0.0
 40
0.1038461538462566
100
AcDbArc
 50
14.99999999997427
 51
90.0
  0
ARC
  5
404
330
1F
100
AcDbEntity
  8
0
  6
CONTINUOUS
 62
     7
100
AcDbCircle
 10
113.2388088731831
 20
206.9758970508731
 30
0.0
 40
0.1038461538460922
100
AcDbArc
 50
90.0
 51
165.0000000000257
  0
ARC
  5
405
330
1F
100
AcDbEntity
  8
0
  6
CONTINUOUS
 62
     7
100
AcDbCircle
 10
107.7254731069216
 20
206.5951278201039
 30
0.0
 40
0.3461538461538288
100
AcDbArc
 50
165.0000000000179
 51
269.1163180996141
  0
ARC
  5
406
330
1F
100
AcDbEntity
  8
0
  6
CONTINUOUS
 62
     7
100
AcDbCircle
 10
111.9541781207505
 20
206.5951278201039
 30
0.0
 40
0.3461538461539249
100
AcDbArc
 50
165.0000000000222
 51
270.0
  0
ARC
  5
407
330
1F
100
AcDbEntity
  8
0
  6
CONTINUOUS
 62
     7
100
AcDbCircle
 10
108.8650678078017
 20
207.7720508970268
 30
0.0
 40
0.2423076923076052
100
AcDbArc
 50
301.0027191338963
 51
238.9972808661066
  0
ARC
  5
408
330
1F
100
AcDbEntity
  8
1
  6
CONTINUOUS
 62
     7
100
AcDbCircle
 10
120.2791112277
 20
142.9489739739
 30
0.0
 40
0.1999999999999886
100
AcDbArc
 50
270.0
 51
0.0
  0
ARC
  5
409
330
1F
100
AcDbEntity
  8
1
  6
CONTINUOUS
 62
     7
100
AcDbCircle
 10
114.6791112277
 20
142.9489739739
 30
0.0
 40
0.2000000000000028
100
AcDbArc
 50
180.0
 51
270.0
  0
ARC
  5
40A
330
1F
100
AcDbEntity
  8
1
  6
CONTINUOUS
 62
     7
100
AcDbCircle
 10
120.2791112277
 20
142.9489739739
 30
0.0
 40
0.6999999999999886
100
AcDbArc
 50
270.0
 51
0.0
  0
ARC
  5
40B
330
1F
100
AcDbEntity
  8
1
  6
CONTINUOUS
 62
     7
100
AcDbCircle
 10
114.6791112277
 20
142.9489739739
 30
0.0
 40
0.7000000000000028
100
AcDbArc
 50
180.0
 51
270.0
  0
ARC
  5
40C
330
1F
100
AcDbEntity
  8
1
  6
CONTINUOUS
 62
     7
100
AcDbCircle
 10
120.2791112277
 20
150.1489739739
 30
0.0
 40
0.7000000000000028
100
AcDbArc
 50
0.0
 51
90.0
  0
ARC
  5
40D
330
1F
100
AcDbEntity
  8
1
  6
CONTINUOUS
 62
     7
100
AcDbCircle
 10
114.6791112277
 20
150.1489739739
 30
0.0
 40
0.6999999999999886
100
AcDbArc
 50
90.0
 51
180.0
  0
ARC
  5
40E
330
1F
100
AcDbEntity
  8
1
  6
CONTINUOUS
 62
     7
100
AcDbCircle
 10
114.6791112277
 20
130.3489739739
 30
0.0
 40
0.7000000000000028
100
AcDbArc
 50
180.0
 51
270.0
  0
ARC
  5
40F
330
1F
100
AcDbEntity
  8
1
  6
CONTINUOUS
 62
     7
100
AcDbCircle
 10
120.2791112277
 20
130.3489739739
 30
0.0
 40
0.6999999999999886
100
AcDbArc
 50
270.0
 51
0.0
  0
ARC
  5
410
330
1F
100
AcDbEntity
  8
1
  6
CONTINUOUS
 62
     7
100
AcDbCircle
 10
114.6791112277
 20
137.5489739739
 30
0.0
 40
0.700000000000017
100
AcDbArc
 50
90.0
 51
180.0
  0
ARC
  5
411
330
1F
100
AcDbEntity
  8
1
  6
CONTINUOUS
 62
     7
100
AcDbCircle
 10
120.2791112277
 20
137.5489739739
 30
0.0
 40
0.7000000000000028
100
AcDbArc
 50
0.0
 51
90.0
  0
ARC
  5
412
330
1F
100
AcDbEntity
  8
1
  6
CONTINUOUS
 62
     7
100
AcDbCircle
 10
114.6791112277
 20
137.5489739739
 30
0.0
 40
0.2000000000000171
100
AcDbArc
 50
90.0
 51
180.0
  0
ARC
  5
413
330
1F
100
AcDbEntity
  8
1
  6
CONTINUOUS
 62
     7
100
AcDbCircle
 10
120.2791112277
 20
137.5489739739
 30
0.0
 40
0.2000000000000028
100
AcDbArc
 50
0.0
 51
90.0
  0
ARC
  5
414
330
1F
100
AcDbEntity
  8
1
  6
CONTINUOUS
 62
     7
100
AcDbCircle
 10
105.6791112277
 20
137.5489739739
 30
0.0
 40
0.2000000000000171
100
AcDbArc
 50
90.0
 51
180.0
  0
ARC
  5
415
330
1F
100
AcDbEntity
  8
1
  6
CONTINUOUS
 62
     7
100
AcDbCircle
 10
111.2791112277
 20
137.5489739739
 30
0.0
 40
0.2000000000000028
100
AcDbArc
 50
0.0
 51
90.0
  0
ARC
  5
416
330
1F
100
AcDbEntity
  8
1
  6
CONTINUOUS
 62
     7
100
AcDbCircle
 10
105.6791112277
 20
137.5489739739
 30
0.0
 40
0.700000000000017
100
AcDbArc
 50
90.0
 51
180.0
  0
ARC
  5
417
330
1F
100
AcDbEntity
  8
1
  6
CONTINUOUS
 62
     7
100
AcDbCircle
 10
111.2791112277
 20
137.5489739739
 30
0.0
 40
0.7000000000000028
100
AcDbArc
 50
0.0
 51
90.0
  0
ARC
  5
418
330
1F
100
AcDbEntity
  8
1
  6
CONTINUOUS
 62
     7
100
AcDbCircle
 10
105.6791112277
 20
130.3489739739
 30
0.0
 40
0.7000000000000028
100
AcDbArc
 50
180.0
 51
270.0
  0
ARC
  5
419
330
1F
100
AcDbEntity
  8
1
  6
CONTINUOUS
 62
     7
100
AcDbCircle
 10
111.2791112277
 20
130.3489739739
 30
0.0
 40
0.6999999999999886
100
AcDbArc
 50
270.0
 51
0.0
  0
ARC
  5
41A
330
1F
100
AcDbEntity
  8
1
  6
CONTINUOUS
 62
     7
100
AcDbCircle
 10
111.2791112277
 20
150.1489739739
 30
0.0
 40
0.7000000000000028
100
AcDbArc
 50
0.0
 51
90.0
  0
ARC
  5
41B
330
1F
100
AcDbEntity
  8
1
  6
CONTINUOUS
 62
     7
100
AcDbCircle
 10
105.6791112277
 20
150.1489739739
 30
0.0
 40
0.6999999999999886
100
AcDbArc
 50
90.0
 51
180.0
  0
ARC
  5
41C
330
1F
100
AcDbEntity
  8
1
  6
CONTINUOUS
 62
     7
100
AcDbCircle
 10
111.2791112277
 20
142.9489739739
 30
0.0
 40
0.6999999999999886
100
AcDbArc
 50
270.0
 51
0.0
  0
ARC
  5
41D
330
1F
100
AcDbEntity
  8
1
  6
CONTINUOUS
 62
     7
100
AcDbCircle
 10
105.6791112277
 20
142.9489739739
 30
0.0
 40
0.7000000000000028
100
AcDbArc
 50
180.0
 51
270.0
  0
ARC
  5
41E
330
1F
100
AcDbEntity
  8
1
  6
CONTINUOUS
 62
     7
100
AcDbCircle
 10
111.2791112277
 20
142.9489739739
 30
0.0
 40
0.1999999999999886
100
AcDbArc
 50
270.0
 51
0.0
  0
ARC
  5
41F
330
1F
100
AcDbEntity
  8
1
  6
CONTINUOUS
 62
     7
100
AcDbCircle
 10
105.6791112277
 20
142.9489739739
 30
0.0
 40
0.2000000000000028
100
AcDbArc
 50
180.0
 51
270.0
  0
ARC
  5
420
330
1F
100
AcDbEntity
  8
0
  6
CONTINUOUS
 62
     7
100
AcDbCircle
 10
217.7893533801
 20
210.2489739739
 30
0.0
 40
0.5000000000001331
100
AcDbArc
 50
5.00000000001808
 51
90.0
  0
ARC
  5
421
330
1F
100
AcDbEntity
  8
0
  6
CONTINUOUS
 62
     7
100
AcDbCircle
 10
232.3962496951
 20
126.2489739739
 30
0.0
 40
0.5
100
AcDbArc
 50
270.0
 51
270.8639705361873
  0
ARC
  5
422
330
1F
100
AcDbEntity
  8
0
  6
CONTINUOUS
 62
     7
100
AcDbCircle
 10
232.3962496951
 20
208.5489739739
 30
0.0
 40
0.5000000000000207
100
AcDbArc
 50
89.13602946381269
 51
90.0
  0
ARC
  5
423
330
1F
100
AcDbEntity
  8
0
  6
CONTINUOUS
 62
     7
100
AcDbCircle
 10
232.3962496951
 20
126.2489739739
 30
0.0
 40
0.5000000000000209
100
AcDbArc
 50
359.136029463811
 51
0.0
  0
ARC
  5
424
330
1F
100
AcDbEntity
  8
0
  6
CONTINUOUS
 62
     7
100
AcDbCircle
 10
232.3962496951
 20
208.5489739739
 30
0.0
 40
0.5
100
AcDbArc
 50
0.0
 51
0.86397053619058
  0
ARC
  5
425
330
1F
100
AcDbEntity
  8
0
  6
CONTINUOUS
 62
     7
100
AcDbCircle
 10
232.3962496951
 20
126.2489739739
 30
0.0
 40
0.5000000000000207
100
AcDbArc
 50
270.8639705361873
 51
359.136029463811
  0
ARC
  5
426
330
1F
100
AcDbEntity
  8
0
  6
CONTINUOUS
 62
     7
100
AcDbCircle
 10
232.3962496951
 20
208.5489739739
 30
0.0
 40
0.500000000000021
100
AcDbArc
 50
0.86397053619058
 51
89.13602946381269
  0
ARC
  5
427
330
1F
100
AcDbEntity
  8
0
  6
CONTINUOUS
 62
     7
100
AcDbCircle
 10
183.2462496951
 20
130.2489739739
 30
0.0
 40
1.299999999999983
100
AcDbArc
 50
90.0
 51
270.0
  0
ARC
  5
428
330
1F
100
AcDbEntity
  8
0
  6
CONTINUOUS
 62
     7
100
AcDbCircle
 10
189.2462496951
 20
130.2489739739
 30
0.0
 40
1.300000000000011
100
AcDbArc
 50
270.0
 51
90.0
  0
ARC
  5
429
330
1F
100
AcDbEntity
  8
0
  6
CONTINUOUS
 62
     7
100
AcDbCircle
 10
223.8962496951
 20
209.7489739739
 30
0.0
 40
0.2999999999999829
100
AcDbArc
 50
90.0
 51
180.0
  0
ARC
  5
42A
330
1F
100
AcDbEntity
  8
0
  6
CONTINUOUS
 62
     7
100
AcDbCircle
 10
232.2962496951
 20
209.7489739739
 30
0.0
 40
0.3000000000000114
100
AcDbArc
 50
0.0
 51
90.0
  0
ARC
  5
42B
330
1F
100
AcDbEntity
  8
0
  6
CONTINUOUS
 62
     7
100
AcDbCircle
 10
218.8962496951
 20
209.7489739739
 30
0.0
 40
0.2999999999999829
100
AcDbArc
 50
90.0
 51
180.0
  0
ARC
  5
42C
330
1F
100
AcDbEntity
  8
0
  6
CONTINUOUS
 62
     7
100
AcDbCircle
 10
159.2143052506
 20
169.2489739739
 30
0.0
 40
6.318055555556101
100
AcDbArc
 50
149.0427236691981
 51
210.9572763308021
  0
ARC
  5
42D
330
1F
100
AcDbEntity
  8
0
  6
CONTINUOUS
 62
     7
100
AcDbCircle
 10
112.9791108389
 20
169.2489739739
 30
0.0
 40
3.999999999999858
100
AcDbArc
 50
28.32877405140112
 51
29.37598985249281
  0
ARC
  5
42E
330
1F
100
AcDbEntity
  8
0
  6
CONTINUOUS
 62
     7
100
AcDbCircle
 10
112.9791108389
 20
169.2489739739
 30
0.0
 40
3.99999999999997
100
AcDbArc
 50
40.32877405140218
 51
41.37598985250263
  0
ARC
  5
42F
330
1F
100
AcDbEntity
  8
0
  6
CONTINUOUS
 62
     7
100
AcDbCircle
 10
112.9791108389
 20
169.2489739739
 30
0.0
 40
4.000000000000222
100
AcDbArc
 50
52.3287740514048
 51
53.37598985250325
  0
ARC
  5
430
330
1F
100
AcDbEntity
  8
0
  6
CONTINUOUS
 62
     7
100
AcDbCircle
 10
112.9791108389
 20
169.2489739739
 30
0.0
 40
4.000000000000135
100
AcDbArc
 50
64.32877405140295
 51
65.37598985249822
  0
ARC
  5
431
330
1F
100
AcDbEntity
  8
0
  6
CONTINUOUS
 62
     7
100
AcDbCircle
 10
112.9791108389
 20
169.2489739739
 30
0.0
 40
4.000000000000011
100
AcDbArc
 50
76.32877405139928
 51
77.37598985250015
  0
ARC
  5
432
330
1F
100
AcDbEntity
  8
0
  6
CONTINUOUS
 62
     7
100
AcDbCircle
 10
112.9791108389
 20
169.2489739739
 30
0.0
 40
3.999999999999661
100
AcDbArc
 50
88.32877405139871
 51
89.37598985249512
  0
ARC
  5
433
330
1F
100
AcDbEntity
  8
0
  6
CONTINUOUS
 62
     7
100
AcDbCircle
 10
112.9791108389
 20
169.2489739739
 30
0.0
 40
4.000000000000151
100
AcDbArc
 50
100.3287740514034
 51
101.3759898525029
  0
ARC
  5
434
330
1F
100
AcDbEntity
  8
0
  6
CONTINUOUS
 62
     7
100
AcDbCircle
 10
112.9791108389
 20
169.2489739739
 30
0.0
 40
3.999999999999856
100
AcDbArc
 50
112.328774051394
 51
113.3759898525042
  0
ARC
  5
435
330
1F
100
AcDbEntity
  8
0
  6
CONTINUOUS
 62
     7
100
AcDbCircle
 10
112.9791108389
 20
169.2489739739
 30
0.0
 40
3.999999999999868
100
AcDbArc
 50
124.3287740514037
 51
125.3759898524975
  0
ARC
  5
436
330
1F
100
AcDbEntity
  8
0
  6
CONTINUOUS
 62
     7
100
AcDbCircle
 10
112.9791108389
 20
169.2489739739
 30
0.0
 40
4.000000000000185
100
AcDbArc
 50
136.3287740513919
 51
137.3759898525006
  0
ARC
  5
437
330
1F
100
AcDbEntity
  8
0
  6
CONTINUOUS
 62
     7
100
AcDbCircle
 10
112.9791108389
 20
169.2489739739
 30
0.0
 40
3.999999999999599
100
AcDbArc
 50
148.3287740514027
 51
149.3759898525005
  0
ARC
  5
438
330
1F
100
AcDbEntity
  8
0
  6
CONTINUOUS
 62
     7
100
AcDbCircle
 10
112.9791108389
 20
169.2489739739
 30
0.0
 40
4.000000000000137
100
AcDbArc
 50
160.3287740514006
 51
161.3759898524965
  0
ARC
  5
439
330
1F
100
AcDbEntity
  8
0
  6
CONTINUOUS
 62
     7
100
AcDbCircle
 10
112.9791108389
 20
169.2489739739
 30
0.0
 40
4.000000000000385
100
AcDbArc
 50
172.3287740514063
 51
173.3759898525044
  0
ARC
  5
43A
330
1F
100
AcDbEntity
  8
0
  6
CONTINUOUS
 62
     7
100
AcDbCircle
 10
112.9791108389
 20
169.2489739739
 30
0.0
 40
4.000000000000048
100
AcDbArc
 50
184.328774051407
 51
185.3759898524968
  0
ARC
  5
43B
330
1F
100
AcDbEntity
  8
0
  6
CONTINUOUS
 62
     7
100
AcDbCircle
 10
112.9791108389
 20
169.2489739739
 30
0.0
 40
3.999999999999941
100
AcDbArc
 50
196.3287740514075
 51
197.3759898524968
  0
ARC
  5
43C
330
1F
100
AcDbEntity
  8
0
  6
CONTINUOUS
 62
     7
100
AcDbCircle
 10
112.9791108389
 20
169.2489739739
 30
0.0
 40
3.999999999999871
100
AcDbArc
 50
208.3287740514015
 51
209.3759898524928
  0
ARC
  5
43D
330
1F
100
AcDbEntity
  8
0
  6
CONTINUOUS
 62
     7
100
AcDbCircle
 10
112.9791108389
 20
169.2489739739
 30
0.0
 40
3.99999999999997
100
AcDbArc
 50
220.3287740514021
 51
221.3759898525031
  0
ARC
  5
43E
330
1F
100
AcDbEntity
  8
0
  6
CONTINUOUS
 62
     7
100
AcDbCircle
 10
112.9791108389
 20
169.2489739739
 30
0.0
 40
4.000000000000244
100
AcDbArc
 50
232.328774051405
 51
233.3759898525035
  0
ARC
  5
43F
330
1F
100
AcDbEntity
  8
0
  6
CONTINUOUS
 62
     7
100
AcDbCircle
 10
112.9791108389
 20
169.2489739739
 30
0.0
 40
4.000000000000161
100
AcDbArc
 50
244.3287740514031
 51
245.3759898524982
  0
ARC
  5
440
330
1F
100
AcDbEntity
  8
0
  6
CONTINUOUS
 62
     7
100
AcDbCircle
 10
112.9791108389
 20
169.2489739739
 30
0.0
 40
4.000000000000038
100
AcDbArc
 50
256.3287740513994
 51
257.3759898525003
  0
ARC
  5
441
330
1F
100
AcDbEntity
  8
0
  6
CONTINUOUS
 62
     7
100
AcDbCircle
 10
112.9791108389
 20
169.2489739739
 30
0.0
 40
3.999999999999661
100
AcDbArc
 50
268.3287740513987
 51
269.3759898524953
  0
ARC
  5
442
330
1F
100
AcDbEntity
  8
0
  6
CONTINUOUS
 62
     7
100
AcDbCircle
 10
112.9791108389
 20
169.2489739739
 30
0.0
 40
4.000000000000151
100
AcDbArc
 50
280.3287740514034
 51
281.3759898525029
  0
ARC
  5
443
330
1F
100
AcDbEntity
  8
0
  6
CONTINUOUS
 62
     7
100
AcDbCircle
 10
112.9791108389
 20
169.2489739739
 30
0.0
 40
3.999999999999856
100
AcDbArc
 50
292.3287740513941
 51
293.3759898525041
  0
ARC
  5
444
330
1F
100
AcDbEntity
  8
0
  6
CONTINUOUS
 62
     7
100
AcDbCircle
 10
112.9791108389
 20
169.2489739739
 30
0.0
 40
3.999999999999868
100
AcDbArc
 50
304.3287740514036
 51
305.3759898524974
  0
ARC
  5
445
330
1F
100
AcDbEntity
  8
0
  6
CONTINUOUS
 62
     7
100
AcDbCircle
 10
112.9791108389
 20
169.2489739739
 30
0.0
 40
3.999999999999498
100
AcDbArc
 50
316.3287740514023
 51
317.3759898525014
  0
ARC
  5
446
330
1F
100
AcDbEntity
  8
0
  6
CONTINUOUS
 62
     7
100
AcDbCircle
 10
112.9791108389
 20
169.2489739739
 30
0.0
 40
3.999999999999614
100
AcDbArc
 50
328.3287740514024
 51
329.3759898525005
  0
ARC
  5
447
330
1F
100
AcDbEntity
  8
0
  6
CONTINUOUS
 62
     7
100
AcDbCircle
 10
112.9791108389
 20
169.2489739739
 30
0.0
 40
4.000000000000137
100
AcDbArc
 50
340.3287740514006
 51
341.3759898524962
  0
ARC
  5
448
330
1F
100
AcDbEntity
  8
0
  6
CONTINUOUS
 62
     7
100
AcDbCircle
 10
112.9791108389
 20
169.2489739739
 30
0.0
 40
4.000000000000389
100
AcDbArc
 50
352.3287740514059
 51
353.3759898525039
  0
ARC
  5
449
330
1F
100
AcDbEntity
  8
0
  6
CONTINUOUS
 62
     7
100
AcDbCircle
 10
112.9791108389
 20
169.2489739739
 30
0.0
 40
4.000000000000045
100
AcDbArc
 50
4.32877405140663
 51
5.37598985249686
  0
ARC
  5
44A
330
1F
100
AcDbEntity
  8
0
  6
CONTINUOUS
 62
     7
100
AcDbCircle
 10
112.9791108389
 20
169.2489739739
 30
0.0
 40
3.999999999999933
100
AcDbArc
 50
16.32877405140712
 51
17.37598985249675
  0
ARC
  5
44B
330
1F
100
AcDbEntity
  8
1
  6
CONTINUOUS
 62
     7
100
AcDbCircle
 10
121.879111569
 20
126.5989725136
 30
0.0
 40
0.2999999999999972
100
AcDbArc
 50
270.0
 51
0.0
  0
ARC
  5
44C
330
1F
100
AcDbEntity
  8
1
  6
CONTINUOUS
 62
     7
100
AcDbCircle
 10
121.879111569
 20
126.5989725136
 30
0.0
 40
0.7000000000000028
100
AcDbArc
 50
270.0
 51
0.0
  0
ARC
  5
44D
330
1F
100
AcDbEntity
  8
1
  6
CONTINUOUS
 62
     7
100
AcDbCircle
 10
104.0791108864
 20
126.5989725136
 30
0.0
 40
0.2999999999999972
100
AcDbArc
 50
180.0
 51
270.0
  0
ARC
  5
44E
330
1F
100
AcDbEntity
  8
1
  6
CONTINUOUS
 62
     7
100
AcDbCircle
 10
104.0791108864
 20
126.5989725136
 30
0.0
 40
0.7000000000000028
100
AcDbArc
 50
180.0
 51
270.0
  0
ARC
  5
44F
330
1F
100
AcDbEntity
  8
1
  6
CONTINUOUS
 62
     7
100
AcDbCircle
 10
104.0791108864
 20
209.8989754342
 30
0.0
 40
0.700000000000017
100
AcDbArc
 50
90.0
 51
180.0
  0
ARC
  5
450
330
1F
100
AcDbEntity
  8
1
  6
CONTINUOUS
 62
     7
100
AcDbCircle
 10
104.0791108864
 20
209.8989754342
 30
0.0
 40
0.3000000000000114
100
AcDbArc
 50
90.0
 51
180.0
  0
ARC
  5
451
330
1F
100
AcDbEntity
  8
1
  6
CONTINUOUS
 62
     7
100
AcDbCircle
 10
121.879111569
 20
209.8989754342
 30
0.0
 40
0.7000000000000028
100
AcDbArc
 50
0.0
 51
90.0
  0
ARC
  5
452
330
1F
100
AcDbEntity
  8
1
  6
CONTINUOUS
 62
     7
100
AcDbCircle
 10
121.879111569
 20
209.8989754342
 30
0.0
 40
0.2999999999999972
100
AcDbArc
 50
0.0
 51
90.0
  0
ARC
  5
453
330
1F
100
AcDbEntity
  8
1
  6
CONTINUOUS
 62
     7
100
AcDbCircle
 10
122.279111569
 20
210.2989754342
 30
0.0
 40
0.7000000000000028
100
AcDbArc
 50
0.0
 51
90.0
  0
ARC
  5
454
330
1F
100
AcDbEntity
  8
1
  6
CONTINUOUS
 62
     7
100
AcDbCircle
 10
103.6791108864
 20
210.2989754342
 30
0.0
 40
0.6999999999999886
100
AcDbArc
 50
90.0
 51
180.0
  0
ARC
  5
455
330
1F
100
AcDbEntity
  8
1
  6
CONTINUOUS
 62
     7
100
AcDbCircle
 10
103.6791108864
 20
126.1989725136
 30
0.0
 40
0.7000000000000028
100
AcDbArc
 50
180.0
 51
270.0
  0
ARC
  5
456
330
1F
100
AcDbEntity
  8
1
  6
CONTINUOUS
 62
     7
100
AcDbCircle
 10
122.279111569
 20
126.1989725136
 30
0.0
 40
0.7000000000000028
100
AcDbArc
 50
270.0
 51
0.0
  0
ARC
  5
457
330
1F
100
AcDbEntity
  8
1
  6
CONTINUOUS
 62
     7
100
AcDbCircle
 10
119.9791108389
 20
177.4489739739
 30
0.0
 40
0.5
100
AcDbArc
 50
270.0
 51
0.0
  0
ARC
  5
458
330
1F
100
AcDbEntity
  8
1
  6
CONTINUOUS
 62
     7
100
AcDbCircle
 10
105.9791108389
 20
177.4489739739
 30
0.0
 40
0.5
100
AcDbArc
 50
180.0
 51
270.0
  0
ARC
  5
459
330
1F
100
AcDbEntity
  8
1
  6
CONTINUOUS
 62
     7
100
AcDbCircle
 10
105.9791108389
 20
201.9489739739
 30
0.0
 40
0.5
100
AcDbArc
 50
90.0
 51
180.0
  0
ARC
  5
45A
330
1F
100
AcDbEntity
  8
1
  6
CONTINUOUS
 62
     7
100
AcDbCircle
 10
119.9791108389
 20
201.9489739739
 30
0.0
 40
0.5
100
AcDbArc
 50
0.0
 51
90.0
  0
ARC
  5
45B
330
1F
100
AcDbEntity
  8
0
  6
CONTINUOUS
 62
     7
100
AcDbCircle
 10
101.46722091093
 20
153.625923257207
 30
0.0
 40
0.5000000000002105
100
AcDbArc
 50
58.41385998064224
 51
90.00000300000585
  0
ARC
  5
45C
330
1F
100
AcDbEntity
  8
0
  6
CONTINUOUS
 62
     7
100
AcDbCircle
 10
102.46722091093
 20
154.625923257207
 30
0.0
 40
1.599999999999733
100
AcDbArc
 50
161.79004099998
 51
198.209962000017
  0
ARC
  5
45D
330
1F
100
AcDbEntity
  8
0
  6
CONTINUOUS
 62
     7
100
AcDbCircle
 10
123.406203880267
 20
154.625923257207
 30
0.0
 40
1.600000000000241
100
AcDbArc
 50
341.7900430000073
 51
18.20995699999274
  0
ARC
  5
45E
330
1F
100
AcDbEntity
  8
0
  6
CONTINUOUS
 62
     7
100
AcDbCircle
 10
124.406203880267
 20
155.625924257207
 30
0.0
 40
0.4999999999997425
100
AcDbArc
 50
249.2565400235177
 51
269.9999969999925
  0
ARC
  5
45F
330
1F
100
AcDbEntity
  8
0
  6
CONTINUOUS
 62
     7
100
AcDbCircle
 10
124.406203880267
 20
198.772024690593
 30
0.0
 40
0.4999999999997425
100
AcDbArc
 50
249.2565400235177
 51
270.0000010000405
  0
ARC
  5
460
330
1F
100
AcDbEntity
  8
0
  6
CONTINUOUS
 62
     7
100
AcDbCircle
 10
123.406203880267
 20
197.772024690593
 30
0.0
 40
1.600000000000241
100
AcDbArc
 50
341.7900430000073
 51
18.20995699999177
  0
ARC
  5
461
330
1F
100
AcDbEntity
  8
0
  6
CONTINUOUS
 62
     7
100
AcDbCircle
 10
124.406203880267
 20
206.144906001835
 30
0.0
 40
0.5000000000006993
100
AcDbArc
 50
249.2565400235592
 51
270.0000010000405
  0
ARC
  5
462
330
1F
100
AcDbEntity
  8
0
  6
CONTINUOUS
 62
     7
100
AcDbCircle
 10
123.406203880267
 20
205.144906001835
 30
0.0
 40
1.600000000000551
100
AcDbArc
 50
341.7900429999734
 51
18.20995699999177
  0
ARC
  5
463
330
1F
100
AcDbEntity
  8
0
  6
CONTINUOUS
 62
     7
100
AcDbCircle
 10
102.46722091093
 20
197.772024690593
 30
0.0
 40
1.599999999999649
100
AcDbArc
 50
161.790037999984
 51
198.209959000021
  0
ARC
  5
464
330
1F
100
AcDbEntity
  8
0
  6
CONTINUOUS
 62
     7
100
AcDbCircle
 10
101.46722091093
 20
196.772023690593
 30
0.0
 40
0.5000000000002105
100
AcDbArc
 50
58.41385998064224
 51
90.00000300000585
  0
ARC
  5
465
330
1F
100
AcDbEntity
  8
Z_OM_OUTLINE
  6
CONTINUOUS
 62
     7
100
AcDbCircle
 10
123.750271629381
 20
146.805753813084
 30
0.0
 40
2.06440676714764
100
AcDbArc
 50
283.4119308456631
 51
0.0
  0
ARC
  5
466
330
1F
100
AcDbEntity
  8
Z_OM_OUTLINE
  6
CONTINUOUS
 62
     7
100
AcDbCircle
 10
102.123153116406
 20
205.592194134716
 30
0.0
 40
2.06440676714826
100
AcDbArc
 50
101.0038140235077
 51
180.0
  0
ARC
  5
467
330
1F
100
AcDbEntity
  8
0
  6
CONTINUOUS
 62
     7
100
AcDbCircle
 10
124.406203880267
 20
204.144905001835
 30
0.0
 40
0.5000000000000007
100
AcDbArc
 50
90.00000300000747
 51
110.7434599764824
  0
ARC
  5
468
330
1F
100
AcDbEntity
  8
0
  6
CONTINUOUS
 62
     7
100
AcDbCircle
 10
123.406203880267
 20
205.144906001835
 30
0.0
 40
2.750000000001012
100
AcDbArc
 50
287.4119146017418
 51
72.58808539825186
  0
ARC
  5
469
330
1F
100
AcDbEntity
  8
0
  6
CONTINUOUS
 62
     7
100
AcDbCircle
 10
124.406203880267
 20
196.772023690593
 30
0.0
 40
0.5000000000000007
100
AcDbArc
 50
90.00000300000747
 51
110.7434599764824
  0
ARC
  5
46A
330
1F
100
AcDbEntity
  8
0
  6
CONTINUOUS
 62
     7
100
AcDbCircle
 10
123.406203880267
 20
197.772024690593
 30
0.0
 40
2.750000000000063
100
AcDbArc
 50
287.411914601748
 51
72.58808539825186
  0
ARC
  5
46B
330
1F
100
AcDbEntity
  8
0
  6
CONTINUOUS
 62
     7
100
AcDbCircle
 10
124.406203880267
 20
153.625923257207
 30
0.0
 40
0.5
100
AcDbArc
 50
89.99999899995952
 51
110.7434599764824
  0
ARC
  5
46C
330
1F
100
AcDbEntity
  8
0
  6
CONTINUOUS
 62
     7
100
AcDbCircle
 10
123.406203880267
 20
154.625923257207
 30
0.0
 40
2.750000000000063
100
AcDbArc
 50
287.411914601748
 51
72.58808539825186
  0
ARC
  5
46D
330
1F
100
AcDbEntity
  8
Z_OM_OUTLINE
  6
CONTINUOUS
 62
     7
100
AcDbCircle
 10
123.750271629381
 20
147.592194486283
 30
0.0
 40
2.064406767148
100
AcDbArc
 50
0.0
 51
76.5880691543369
  0
ARC
  5
46E
330
1F
100
AcDbEntity
  8
Z_OM_OUTLINE
  6
CONTINUOUS
 62
     7
100
AcDbCircle
 10
102.123153116406
 20
204.805753461517
 30
0.0
 40
2.064406767148
100
AcDbArc
 50
180.0
 51
258.9961859764871
  0
ARC
  5
46F
330
1F
100
AcDbEntity
  8
0
  6
CONTINUOUS
 62
     7
100
AcDbCircle
 10
101.46722091093
 20
198.772024690593
 30
0.0
 40
0.5000000000000007
100
AcDbArc
 50
269.9999969999942
 51
301.5861400193577
  0
ARC
  5
470
330
1F
100
AcDbEntity
  8
0
  6
CONTINUOUS
 62
     7
100
AcDbCircle
 10
102.46722091093
 20
197.772024690593
 30
0.0
 40
2.749999999999811
100
AcDbArc
 50
105.5692975323073
 51
254.4307024676928
  0
ARC
  5
471
330
1F
100
AcDbEntity
  8
0
  6
CONTINUOUS
 62
     7
100
AcDbCircle
 10
101.46722091093
 20
155.625924257207
 30
0.0
 40
0.5000000000000007
100
AcDbArc
 50
269.9999969999942
 51
301.5861400193577
  0
ARC
  5
472
330
1F
100
AcDbEntity
  8
0
  6
CONTINUOUS
 62
     7
100
AcDbCircle
 10
102.46722091093
 20
154.625923257207
 30
0.0
 40
2.749999999999838
100
AcDbArc
 50
105.5692975323071
 51
254.4307024676928
  0
ARC
  5
473
330
1F
100
AcDbEntity
  8
0
  6
DOTTED
 62
     7
100
AcDbCircle
 10
260.6962683037
 20
188.88880720174
 30
0.0
 40
0.8000000119001114
100
AcDbArc
 50
179.9999640277765
 51
269.9999460417004
  0
ARC
  5
474
330
1F
100
AcDbEntity
  8
0
  6
DOTTED
 62
     7
100
AcDbCircle
 10
260.6962683037
 20
162.28880109814
 30
0.0
 40
0.80000001190005
100
AcDbArc
 50
89.99998201392181
 51
179.9999640277765
  0
ARC
  5
475
330
1F
100
AcDbEntity
  8
0
  6
DOTTED
 62
     7
100
AcDbCircle
 10
266.3962499931
 20
162.88880720174
 30
0.0
 40
0.80000001190005
100
AcDbArc
 50
270.0000179860741
 51
0.0
  0
ARC
  5
476
330
1F
100
AcDbEntity
  8
0
  6
DOTTED
 62
     7
100
AcDbCircle
 10
265.3962499931
 20
163.88880720174
 30
0.0
 40
0.80000001190005
100
AcDbArc
 50
270.0000179860741
 51
0.0
  0
ARC
  5
477
330
1F
100
AcDbEntity
  8
0
  6
DOTTED
 62
     7
100
AcDbCircle
 10
261.6962683037
 20
161.28880109814
 30
0.0
 40
0.80000001190005
100
AcDbArc
 50
89.99998201392181
 51
179.9999640277765
  0
ARC
  5
478
330
1F
100
AcDbEntity
  8
0
  6
DOTTED
 62
     7
100
AcDbCircle
 10
266.3962499931
 20
188.28880109814
 30
0.0
 40
0.8000000119000106
100
AcDbArc
 50
0.0
 51
89.99998201392589
  0
ARC
  5
479
330
1F
100
AcDbEntity
  8
0
  6
DOTTED
 62
     7
100
AcDbCircle
 10
261.6962683037
 20
189.88880720174
 30
0.0
 40
0.8000000119001114
100
AcDbArc
 50
179.9999640277765
 51
269.9999460417004
  0
ARC
  5
47A
330
1F
100
AcDbEntity
  8
0
  6
DOTTED
 62
     7
100
AcDbCircle
 10
265.3962499931
 20
187.28880109814
 30
0.0
 40
0.8000000119000106
100
AcDbArc
 50
0.0
 51
89.99998201392589
  0
ARC
  5
47B
330
1F
100
AcDbEntity
  8
1
  6
DOTTED
 62
     7
100
AcDbCircle
 10
67.0115162864361
 20
195.128590916119
 30
0.0
 40
23.99999999999994
100
AcDbArc
 50
342.942870757233
 51
355.1244494774533
  0
ARC
  5
47C
330
1F
100
AcDbEntity
  8
1
  6
DOTTED
 62
     7
100
AcDbCircle
 10
67.0115162864361
 20
195.128590916119
 30
0.0
 40
23.99999999999992
100
AcDbArc
 50
337.6251999459308
 51
342.942870757233
  0
ARC
  5
47D
330
1F
100
AcDbEntity
  8
1
  6
DOTTED
 62
     7
100
AcDbCircle
 10
97.0794038442833
 20
163.013164113224
 30
0.0
 40
8.999999999999794
100
AcDbArc
 50
150.6143383496638
 51
179.5185520453244
  0
ARC
  5
47E
330
1F
100
AcDbEntity
  8
1
  6
DOTTED
 62
     7
100
AcDbCircle
 10
97.0794038442833
 20
163.013164113224
 30
0.0
 40
9.000000000000005
100
AcDbArc
 50
179.5185520453244
 51
213.1717856860882
  0
ARC
  5
47F
330
1F
100
AcDbEntity
  8
1
  6
DOTTED
 62
     7
100
AcDbCircle
 10
138.988413597009
 20
163.013164113224
 30
0.0
 40
9.000000000000176
100
AcDbArc
 50
179.5185520453244
 51
213.171785686088
  0
ARC
  5
480
330
1F
100
AcDbEntity
  8
1
  6
DOTTED
 62
     7
100
AcDbCircle
 10
138.988413597009
 20
163.013164113224
 30
0.0
 40
8.999999999999956
100
AcDbArc
 50
150.6143383496644
 51
179.5185520453244
  0
ARC
  5
481
330
1F
100
AcDbEntity
  8
1
  6
DOTTED
 62
     7
100
AcDbCircle
 10
108.920526039162
 20
195.128590916119
 30
0.0
 40
23.99999999999928
100
AcDbArc
 50
337.6251999459302
 51
342.9428707572324
  0
ARC
  5
482
330
1F
100
AcDbEntity
  8
1
  6
DOTTED
 62
     7
100
AcDbCircle
 10
108.920526039162
 20
195.128590916119
 30
0.0
 40
23.99999999999926
100
AcDbArc
 50
342.9428707572324
 51
355.1244494774532
  0
ARC
  5
483
330
1F
100
AcDbEntity
  8
1
  6
DOTTED
 62
     7
100
AcDbCircle
 10
98.4517768956187
 20
182.186024987113
 30
0.0
 40
9.999999999999877
100
AcDbArc
 50
157.6251999459301
 51
206.4664464766184
  0
ARC
  5
484
330
1F
100
AcDbEntity
  8
1
  6
DOTTED
 62
     7
100
AcDbCircle
 10
79.6526711803699
 20
172.82687842843
 30
0.0
 40
10.99999999999985
100
AcDbArc
 50
330.6143383496681
 51
26.46644647661537
  0
ARC
  5
485
330
1F
100
AcDbEntity
  8
1
  6
DOTTED
 62
     7
100
AcDbCircle
 10
121.561680933095
 20
172.82687842843
 30
0.0
 40
11.00000000000018
100
AcDbArc
 50
330.6143383496691
 51
26.46644647661398
  0
ARC
  5
486
330
1F
100
AcDbEntity
  8
1
  6
DOTTED
 62
     7
100
AcDbCircle
 10
140.360786648344
 20
182.186024987113
 30
0.0
 40
9.99999999999997
100
AcDbArc
 50
157.6251999459303
 51
206.4664464766195
  0
CIRCLE
  5
487
330
1F
100
AcDbEntity
  8
1
  6
CONTINUOUS
 62
     7
100
AcDbCircle
 10
117.4791112277
 20
145.2489739739
 30
0.0
 40
1.799999999999997
  0
CIRCLE
  5
488
330
1F
100
AcDbEntity
  8
1
  6
CONTINUOUS
 62
     7
100
AcDbCircle
 10
117.4791112277
 20
135.2489739739
 30
0.0
 40
1.799999999999997
  0
CIRCLE
  5
489
330
1F
100
AcDbEntity
  8
1
  6
CONTINUOUS
 62
     7
100
AcDbCircle
 10
108.4791112277
 20
135.2489739739
 30
0.0
 40
1.799999999999997
  0
CIRCLE
  5
48A
330
1F
100
AcDbEntity
  8
1
  6
CONTINUOUS
 62
     7
100
AcDbCircle
 10
108.4791112277
 20
145.2489739739
 30
0.0
 40
1.799999999999997
  0
CIRCLE
  5
48B
330
1F
100
AcDbEntity
  8
1
  6
CONTINUOUS
 62
     7
100
AcDbCircle
 10
108.4791112277
 20
157.2489739739
 30
0.0
 40
1.799999999999997
  0
CIRCLE
  5
48C
330
1F
100
AcDbEntity
  8
0
  6
CONTINUOUS
 62
     7
100
AcDbCircle
 10
166.8962496951
 20
168.2489739739
 30
0.0
 40
0.549999999999983
  0
CIRCLE
  5
48D
330
1F
100
AcDbEntity
  8
0
  6
CONTINUOUS
 62
     7
100
AcDbCircle
 10
166.8962496951
 20
130.2489739739
 30
0.0
 40
0.549999999999983
  0
CIRCLE
  5
48E
330
1F
100
AcDbEntity
  8
0
  6
CONTINUOUS
 62
     7
100
AcDbCircle
 10
166.8962496951
 20
206.2489739739
 30
0.0
 40
0.549999999999983
  0
CIRCLE
  5
48F
330
1F
100
AcDbEntity
  8
0
  6
CONTINUOUS
 62
     7
100
AcDbCircle
 10
112.9791108389
 20
169.2489739739
 30
0.0
 40
3.25
  0
SPLINE
  5
490
330
1F
100
AcDbEntity
  8
0
  6
CONTINUOUS
 62
     7
100
AcDbSpline
210
0.0
220
0.0
230
1.0
 70
  1064
 71
     3
 72
    27
 73
    23
 74
    21
 42
0.000000001
 43
0.0000000001
 44
0.00000001
 40
0.0
 40
0.0
 40
0.0
 40
0.0
 40
0.0825762407475002
 40
0.165152470895639
 40
0.1837438222630465
 40
0.2023348072011304
 40
0.2209260040175401
 40
0.2395172804774099
 40
0.2562035572361048
 40
0.2728895485609138
 40
0.2895765587638779
 40
0.3062637153108231
 40
0.3208014690745918
 40
0.335338290801515
 40
0.3498713614955334
 40
0.3644064861241633
 40
0.3767451530822681
 40
0.3890770323768243
 40
0.4014154487643253
 40
0.4137760576181044
 40
0.4529127122757965
 40
0.4920477835506341
 40
0.4920477835506341
 40
0.4920477835506341
 40
0.4920477835506341
 10
102.142286750067
 20
212.006114087227
 30
0.0
 10
102.1148697244078
 20
212.0035518980852
 30
0.0
 10
102.0600356765107
 20
211.9984275213344
 30
0.0
 10
101.9997854335859
 20
211.9867500028059
 30
0.0
 10
101.9610603442679
 20
211.9770599305976
 30
0.0
 10
101.9431345917078
 20
211.9721218264206
 30
0.0
 10
101.9253369548339
 20
211.9667417288007
 30
0.0
 10
101.9082910550198
 20
211.9610895018523
 30
0.0
 10
101.8920006439556
 20
211.9551975307531
 30
0.0
 10
101.8764732317777
 20
211.9490804655316
 30
0.0
 10
101.861142623499
 20
211.9424837875654
 30
0.0
 10
101.8466917006981
 20
211.9356764485223
 30
0.0
 10
101.8331212330407
 20
211.9287042391724
 30
0.0
 10
101.8204385877782
 20
211.9215946207655
 30
0.0
 10
101.8080554042017
 20
211.913975297982
 30
0.0
 10
101.796634355367
 20
211.9062164889819
 30
0.0
 10
101.7861675945335
 20
211.8983823873284
 30
0.0
 10
101.7766703239378
 20
211.890505093722
 30
0.0
 10
101.7676160819683
 20
211.8820867432019
 30
0.0
 10
101.7531127661798
 20
211.8665909655815
 30
0.0
 10
101.734607733689
 20
211.8414653206594
 30
0.0
 10
101.7309431079774
 20
211.8152574140822
 30
0.0
 10
101.7291108389
 20
211.8021537234
 30
0.0
 11
102.142286750067
 21
212.006114087227
 31
0.0
 11
102.0602056765648
 21
211.9970846206596
 31
0.0
 11
101.9791108389003
 21
211.981513457215
 31
0.0
 11
101.9610784290977
 21
211.9769890188363
 31
0.0
 11
101.943156018041
 21
211.9720481785628
 31
0.0
 11
101.9253618273376
 21
211.9666630717408
 31
0.0
 11
101.9077170340569
 21
211.9608067222703
 31
0.0
 11
101.8920282339803
 21
211.9551239955817
 31
0.0
 11
101.8765064014911
 21
211.9490006778071
 31
0.0
 11
101.861181303177
 21
211.9423978247488
 31
0.0
 11
101.846088617341
 21
211.9352793962372
 31
0.0
 11
101.8331624793946
 21
211.9286264841673
 31
0.0
 11
101.8204873023245
 21
211.9215089657725
 31
0.0
 11
101.8081152901549
 21
211.9138837802927
 31
0.0
 11
101.7960981370076
 21
211.9057071139997
 31
0.0
 11
101.7862296609552
 21
211.898300638688
 31
0.0
 11
101.7767466967703
 21
211.890417198493
 31
0.0
 11
101.7677281944918
 21
211.8819967991345
 31
0.0
 11
101.7592645285072
 21
211.8729884143897
 31
0.0
 11
101.7376866948212
 21
211.8403376091142
 31
0.0
 11
101.7291108389
 21
211.8021537234
 31
0.0
  0
SPLINE
  5
491
330
1F
100
AcDbEntity
  8
0
  6
CONTINUOUS
 62
     7
100
AcDbSpline
210
0.0
220
0.0
230
1.0
 70
  1064
 71
     3
 72
    27
 73
    23
 74
    21
 42
0.000000001
 43
0.0000000001
 44
0.00000001
 40
0.0
 40
0.0
 40
0.0
 40
0.0
 40
0.039135071275037
 40
0.0782717259328601
 40
0.0906323347866091
 40
0.1029707511741828
 40
0.1153026304690268
 40
0.1276412974273533
 40
0.1421764220560815
 40
0.156709492749994
 40
0.1712463144766657
 40
0.1857840682402151
 40
0.2024712247871701
 40
0.2191582349901416
 40
0.2358442263148821
 40
0.2525305030735685
 40
0.2711217795334113
 40
0.2897129763498442
 40
0.3083039612879044
 40
0.3268953126552981
 40
0.4094715428033978
 40
0.4920477835509431
 40
0.4920477835509431
 40
0.4920477835509431
 40
0.4920477835509431
 10
101.7291108389
 20
124.6957942244
 30
0.0
 10
101.7309431079773
 20
124.6826905337178
 30
0.0
 10
101.7346077336887
 20
124.6564826271405
 30
0.0
 10
101.753112766179
 20
124.6313569822177
 30
0.0
 10
101.7676160819681
 20
124.6158612045979
 30
0.0
 10
101.7766703239379
 20
124.6074428540778
 30
0.0
 10
101.7861675945339
 20
124.5995655604715
 30
0.0
 10
101.7966343553677
 20
124.5917314588181
 30
0.0
 10
101.8080554042022
 20
124.5839726498175
 30
0.0
 10
101.8204385877783
 20
124.5763533270337
 30
0.0
 10
101.8331212330407
 20
124.5692437086271
 30
0.0
 10
101.8466917006982
 20
124.5622714992775
 30
0.0
 10
101.861142623499
 20
124.5554641602345
 30
0.0
 10
101.8764732317777
 20
124.5488674822684
 30
0.0
 10
101.8920006439556
 20
124.5427504170468
 30
0.0
 10
101.9082910550198
 20
124.5368584459477
 30
0.0
 10
101.9253369548339
 20
124.5312062189993
 30
0.0
 10
101.9431345917078
 20
124.5258261213795
 30
0.0
 10
101.9610603442679
 20
124.5208880172023
 30
0.0
 10
101.9997854335858
 20
124.5111979449944
 30
0.0
 10
102.0600356765108
 20
124.4995204264662
 30
0.0
 10
102.1148697244079
 20
124.4943960497149
 30
0.0
 10
102.142286750067
 20
124.491833860573
 30
0.0
 11
101.7291108389
 21
124.6957942244
 31
0.0
 11
101.7376866948209
 21
124.6576103386855
 31
0.0
 11
101.7592645285067
 21
124.6249595334099
 31
0.0
 11
101.7677281944915
 21
124.6159511486652
 31
0.0
 11
101.7767466967704
 21
124.6075307493069
 31
0.0
 11
101.7862296609556
 21
124.599647309112
 31
0.0
 11
101.7960981370082
 21
124.5922408338002
 31
0.0
 11
101.8081152901554
 21
124.5840641675069
 31
0.0
 11
101.8204873023248
 21
124.5764389820268
 31
0.0
 11
101.8331624793947
 21
124.5693214636322
 31
0.0
 11
101.8460886173409
 21
124.5626685515626
 31
0.0
 11
101.8611813031771
 21
124.5555501230511
 31
0.0
 11
101.8765064014912
 21
124.5489472699929
 31
0.0
 11
101.8920282339803
 21
124.5428239522183
 31
0.0
 11
101.9077170340569
 21
124.5371412255297
 31
0.0
 11
101.9253618273376
 21
124.5312848760592
 31
0.0
 11
101.943156018041
 21
124.5258997692372
 31
0.0
 11
101.9610784290977
 21
124.5209589289637
 31
0.0
 11
101.9791108389003
 21
124.516434490585
 31
0.0
 11
102.0602056765648
 21
124.5008633271407
 31
0.0
 11
102.142286750067
 21
124.491833860573
 31
0.0
  0
SPLINE
  5
492
330
1F
100
AcDbEntity
  8
0
  6
CONTINUOUS
 62
     7
100
AcDbSpline
210
0.0
220
0.0
230
1.0
 70
  1064
 71
     3
 72
    27
 73
    23
 74
    21
 42
0.000000001
 43
0.0000000001
 44
0.00000001
 40
0.0
 40
0.0
 40
0.0
 40
0.0
 40
0.039135071274779
 40
0.0782717259325341
 40
0.0906323347863035
 40
0.1029707511737942
 40
0.1153026304683504
 40
0.1276412974264551
 40
0.1421764220551127
 40
0.1567094927491404
 40
0.1712463144760668
 40
0.1857840682397582
 40
0.2024712247867783
 40
0.2191582349897312
 40
0.2358442263145005
 40
0.2525305030732355
 40
0.2711217795330962
 40
0.2897129763495361
 40
0.3083039612875789
 40
0.3268953126549587
 40
0.4094715428031416
 40
0.4920477835506356
 40
0.4920477835506356
 40
0.4920477835506356
 40
0.4920477835506356
 10
124.2291108389
 20
211.8021537234
 30
0.0
 10
124.2272785698226
 20
211.8152574140822
 30
0.0
 10
124.223613944111
 20
211.8414653206593
 30
0.0
 10
124.2051089116202
 20
211.8665909655817
 30
0.0
 10
124.1906055958317
 20
211.8820867432017
 30
0.0
 10
124.1815513538622
 20
211.8905050937221
 30
0.0
 10
124.1720540832665
 20
211.8983823873284
 30
0.0
 10
124.161587322433
 20
211.9062164889819
 30
0.0
 10
124.1501662735982
 20
211.9139752979821
 30
0.0
 10
124.1377830900218
 20
211.9215946207655
 30
0.0
 10
124.1251004447594
 20
211.9287042391724
 30
0.0
 10
124.1115299771019
 20
211.9356764485222
 30
0.0
 10
124.097079054301
 20
211.9424837875655
 30
0.0
 10
124.0817484460224
 20
211.9490804655316
 30
0.0
 10
124.0662210338444
 20
211.9551975307531
 30
0.0
 10
124.0499306227802
 20
211.9610895018523
 30
0.0
 10
124.0328847229661
 20
211.9667417288007
 30
0.0
 10
124.0150870860922
 20
211.9721218264206
 30
0.0
 10
123.9971613335321
 20
211.9770599305978
 30
0.0
 10
123.9584362442141
 20
211.9867500028055
 30
0.0
 10
123.8981860012894
 20
211.9984275213347
 30
0.0
 10
123.8433519533921
 20
212.0035518980854
 30
0.0
 10
123.815934927733
 20
212.006114087227
 30
0.0
 11
124.2291108389
 21
211.8021537234
 31
0.0
 11
124.2205349829788
 21
211.8403376091142
 31
0.0
 11
124.1989571492928
 21
211.8729884143897
 31
0.0
 11
124.1904934833082
 21
211.8819967991345
 31
0.0
 11
124.1814749810297
 21
211.890417198493
 31
0.0
 11
124.1719920168448
 21
211.898300638688
 31
0.0
 11
124.1621235407924
 21
211.9057071139997
 31
0.0
 11
124.1501063876451
 21
211.9138837802927
 31
0.0
 11
124.1377343754755
 21
211.9215089657725
 31
0.0
 11
124.1250591984054
 21
211.9286264841674
 31
0.0
 11
124.1121330604591
 21
211.9352793962372
 31
0.0
 11
124.0970403746229
 21
211.9423978247488
 31
0.0
 11
124.0817152763088
 21
211.9490006778071
 31
0.0
 11
124.0661934438198
 21
211.9551239955817
 31
0.0
 11
124.0505046437431
 21
211.9608067222703
 31
0.0
 11
124.0328598504623
 21
211.9666630717408
 31
0.0
 11
124.0150656597589
 21
211.9720481785628
 31
0.0
 11
123.9971432487023
 21
211.9769890188363
 31
0.0
 11
123.9791108388997
 21
211.981513457215
 31
0.0
 11
123.8980160012352
 21
211.9970846206597
 31
0.0
 11
123.815934927733
 21
212.006114087227
 31
0.0
  0
SPLINE
  5
493
330
1F
100
AcDbEntity
  8
0
  6
CONTINUOUS
 62
     7
100
AcDbSpline
210
0.0
220
0.0
230
1.0
 70
  1064
 71
     3
 72
    27
 73
    23
 74
    21
 42
0.000000001
 43
0.0000000001
 44
0.00000001
 40
0.0
 40
0.0
 40
0.0
 40
0.0
 40
0.0825762407474971
 40
0.1651524708956799
 40
0.1837438222630115
 40
0.2023348072011129
 40
0.2209260040175404
 40
0.2395172804773966
 40
0.2562035572360964
 40
0.2728895485609001
 40
0.2895765587638586
 40
0.3062637153108795
 40
0.3208014690745716
 40
0.3353382908014701
 40
0.3498713614955202
 40
0.3644064861241975
 40
0.3767451530822994
 40
0.3890770323769284
 40
0.4014154487645147
 40
0.4137760576184299
 40
0.4529127122761265
 40
0.4920477835508553
 40
0.4920477835508553
 40
0.4920477835508553
 40
0.4920477835508553
 10
123.815934927733
 20
124.491833860573
 30
0.0
 10
123.8433519533921
 20
124.4943960497146
 30
0.0
 10
123.8981860012893
 20
124.4995204264654
 30
0.0
 10
123.9584362442141
 20
124.5111979449945
 30
0.0
 10
123.9971613335321
 20
124.5208880172022
 30
0.0
 10
124.0150870860922
 20
124.5258261213794
 30
0.0
 10
124.0328847229661
 20
124.5312062189993
 30
0.0
 10
124.0499306227802
 20
124.5368584459477
 30
0.0
 10
124.0662210338444
 20
124.5427504170468
 30
0.0
 10
124.0817484460223
 20
124.5488674822684
 30
0.0
 10
124.097079054301
 20
124.5554641602346
 30
0.0
 10
124.1115299771019
 20
124.5622714992776
 30
0.0
 10
124.1251004447593
 20
124.5692437086277
 30
0.0
 10
124.1377830900218
 20
124.5763533270344
 30
0.0
 10
124.1501662735982
 20
124.583972649818
 30
0.0
 10
124.161587322433
 20
124.5917314588181
 30
0.0
 10
124.1720540832666
 20
124.5995655604715
 30
0.0
 10
124.1815513538623
 20
124.607442854078
 30
0.0
 10
124.190605595832
 20
124.6158612045982
 30
0.0
 10
124.2051089116207
 20
124.6313569822182
 30
0.0
 10
124.2236139441114
 20
124.6564826271407
 30
0.0
 10
124.2272785698227
 20
124.6826905337178
 30
0.0
 10
124.2291108389
 20
124.6957942244
 30
0.0
 11
123.815934927733
 21
124.491833860573
 31
0.0
 11
123.8980160012352
 21
124.5008633271403
 31
0.0
 11
123.9791108388997
 21
124.516434490585
 31
0.0
 11
123.9971432487022
 21
124.5209589289637
 31
0.0
 11
124.015065659759
 21
124.5258997692372
 31
0.0
 11
124.0328598504624
 21
124.5312848760592
 31
0.0
 11
124.0505046437431
 21
124.5371412255297
 31
0.0
 11
124.0661934438197
 21
124.5428239522183
 31
0.0
 11
124.0817152763088
 21
124.5489472699929
 31
0.0
 11
124.0970403746229
 21
124.5555501230512
 31
0.0
 11
124.1121330604591
 21
124.5626685515628
 31
0.0
 11
124.1250591984053
 21
124.5693214636327
 31
0.0
 11
124.1377343754754
 21
124.5764389820275
 31
0.0
 11
124.1501063876451
 21
124.5840641675073
 31
0.0
 11
124.1621235407924
 21
124.5922408338004
 31
0.0
 11
124.1719920168448
 21
124.599647309112
 31
0.0
 11
124.1814749810298
 21
124.607530749307
 31
0.0
 11
124.1904934833085
 21
124.6159511486655
 31
0.0
 11
124.1989571492932
 21
124.6249595334103
 31
0.0
 11
124.2205349829792
 21
124.6576103386858
 31
0.0
 11
124.2291108389
 21
124.6957942244
 31
0.0
  0
SPLINE
  5
494
330
1F
100
AcDbEntity
  8
0
  6
CONTINUOUS
 62
     7
100
AcDbSpline
210
0.0
220
0.0
230
1.0
 70
  1064
 71
     3
 72
    31
 73
    27
 74
    25
 42
0.000000001
 43
0.0000000001
 44
0.00000001
 40
0.0
 40
0.0
 40
0.0
 40
0.0
 40
0.0871645420170192
 40
0.174329083881063
 40
0.1961465178334682
 40
0.2179602040715221
 40
0.2397755325296176
 40
0.2615917737754874
 40
0.2834069682052712
 40
0.3052219984122886
 40
0.3270370340984446
 40
0.3488520338495635
 40
0.3706668666087062
 40
0.3924817842772429
 40
0.4142967022728685
 40
0.4361115353365584
 40
0.4579265363774762
 40
0.4797415734644932
 40
0.5015566039037987
 40
0.5233717981379256
 40
0.5451880374662805
 40
0.5670033656717246
 40
0.5888170588127355
 40
0.6106344931998096
 40
0.6977231726381703
 40
0.7848118513723618
 40
0.7848118513723618
 40
0.7848118513723618
 40
0.7848118513723618
 10
103.229034686461
 20
211.248973973927
 30
0.0
 10
103.1999466569062
 20
211.2475153103873
 30
0.0
 10
103.1417705991362
 20
211.244597968682
 30
0.0
 10
103.0782545741481
 20
211.2268194946977
 30
0.0
 10
103.0376149256985
 20
211.2110603788279
 30
0.0
 10
103.0176406543498
 20
211.2022627077885
 30
0.0
 10
102.9980698828048
 20
211.192611797044
 30
0.0
 10
102.9789377617171
 20
211.1821143026559
 30
0.0
 10
102.960283134796
 20
211.170790876868
 30
0.0
 10
102.9421403632457
 20
211.1586648651058
 30
0.0
 10
102.924543086204
 20
211.1457601350381
 30
0.0
 10
102.9075253262806
 20
211.1321002881227
 30
0.0
 10
102.8911213820102
 20
211.1177091657578
 30
0.0
 10
102.8753607627643
 20
211.1026163285796
 30
0.0
 10
102.8602727281269
 20
211.0868511115394
 30
0.0
 10
102.845886603947
 20
211.0704427828727
 30
0.0
 10
102.8322319420627
 20
211.0534208610372
 30
0.0
 10
102.8193325736429
 20
211.0358196521431
 30
0.0
 10
102.8072120899498
 20
211.0176731864869
 30
0.0
 10
102.7958943482528
 20
210.9990151111576
 30
0.0
 10
102.7854026828968
 20
210.9798797941119
 30
0.0
 10
102.7757577338666
 20
210.9603060809874
 30
0.0
 10
102.7669661512912
 20
210.9403291302145
 30
0.0
 10
102.7512285350496
 20
210.8997082331099
 30
0.0
 10
102.7334792453547
 20
210.8362380884861
 30
0.0
 10
102.7305669694874
 20
210.7781127807388
 30
0.0
 10
102.729110838874
 20
210.749050126339
 30
0.0
 11
103.229034686461
 21
211.248973973927
 31
0.0
 11
103.1422018311438
 21
211.2413770714623
 31
0.0
 11
103.058007758906
 21
211.2188156910647
 31
0.0
 11
103.0376738768979
 21
211.2109078668898
 31
0.0
 11
103.0177083329962
 21
211.2021207183296
 31
0.0
 11
102.9981433316209
 21
211.1924708845391
 31
0.0
 11
102.9790170225789
 21
211.181976471772
 31
0.0
 11
102.9603683348091
 21
211.170657056289
 31
0.0
 11
102.94223126541
 21
211.158535081589
 31
0.0
 11
102.9246396479294
 21
211.1456342757911
 31
0.0
 11
102.9076275745126
 21
211.1319783764855
 31
0.0
 11
102.8912286133788
 21
211.1175922367821
 31
0.0
 11
102.8754728533632
 21
211.1025042722846
 31
0.0
 11
102.8603896897718
 21
211.0867439157946
 31
0.0
 11
102.8460085469612
 21
211.0703405720323
 31
0.0
 11
102.8323578307636
 21
211.0533243376852
 31
0.0
 11
102.8194623846252
 21
211.0357287892189
 31
0.0
 11
102.8073459363267
 21
211.0175880271681
 31
0.0
 11
102.7960322028955
 21
210.9989358919088
 31
0.0
 11
102.78554361805
 21
210.9798063884868
 31
0.0
 11
102.7758997456551
 21
210.9602384482473
 31
0.0
 11
102.7671186785506
 21
210.940270221366
 31
0.0
 11
102.7592170482411
 21
210.9199339311897
 31
0.0
 11
102.7366945423673
 21
210.8358079830986
 31
0.0
 11
102.729110838874
 21
210.749050126339
 31
0.0
  0
SPLINE
  5
495
330
1F
100
AcDbEntity
  8
0
  6
CONTINUOUS
 62
     7
100
AcDbSpline
210
0.0
220
0.0
230
1.0
 70
  1064
 71
     3
 72
    31
 73
    27
 74
    25
 42
0.000000001
 43
0.0000000001
 44
0.00000001
 40
0.0
 40
0.0
 40
0.0
 40
0.0
 40
0.087164542017775
 40
0.1743290838816036
 40
0.1961465178337844
 40
0.2179602040717259
 40
0.2397755325298512
 40
0.2615917737757602
 40
0.2834069682054797
 40
0.3052219984122958
 40
0.3270370340984297
 40
0.348852033849513
 40
0.370666866608669
 40
0.3924817842772852
 40
0.4142967022728393
 40
0.4361115353365319
 40
0.4579265363774186
 40
0.479741573464321
 40
0.5015566039034217
 40
0.5233717981374101
 40
0.5451880374658817
 40
0.567003365671568
 40
0.5888170588127479
 40
0.6106344931998271
 40
0.6977231726382053
 40
0.7848118513723967
 40
0.7848118513723967
 40
0.7848118513723967
 40
0.7848118513723967
 10
102.729110838874
 20
125.748897821461
 30
0.0
 10
102.7305695024131
 20
125.7198097919059
 30
0.0
 10
102.7334868441175
 20
125.6616337341356
 30
0.0
 10
102.7512653181017
 20
125.5981177091474
 30
0.0
 10
102.7670244339719
 20
125.557478060698
 30
0.0
 10
102.7758221050116
 20
125.5375037893496
 30
0.0
 10
102.7854730157565
 20
125.5179330178048
 30
0.0
 10
102.7959705101447
 20
125.4988008967172
 30
0.0
 10
102.8072939359325
 20
125.4801462697961
 30
0.0
 10
102.8194199476942
 20
125.4620034982457
 30
0.0
 10
102.832324677762
 20
125.444406221204
 30
0.0
 10
102.8459845246773
 20
125.4273884612806
 30
0.0
 10
102.8603756470421
 20
125.4109845170101
 30
0.0
 10
102.8754684842205
 20
125.3952238977644
 30
0.0
 10
102.8912337012605
 20
125.3801358631268
 30
0.0
 10
102.9076420299273
 20
125.365749738947
 30
0.0
 10
102.9246639517628
 20
125.3520950770628
 30
0.0
 10
102.9422651606567
 20
125.3391957086429
 30
0.0
 10
102.9604116263127
 20
125.3270752249497
 30
0.0
 10
102.9790697016418
 20
125.3157574832527
 30
0.0
 10
102.9982050186877
 20
125.3052658178968
 30
0.0
 10
103.0177787318125
 20
125.2956208688666
 30
0.0
 10
103.0377556825855
 20
125.2868292862913
 30
0.0
 10
103.07837657969
 20
125.2710916700496
 30
0.0
 10
103.1418467243139
 20
125.2533423803547
 30
0.0
 10
103.1999720320612
 20
125.2504301044873
 30
0.0
 10
103.229034686461
 20
125.248973973874
 30
0.0
 11
102.729110838874
 21
125.748897821461
 31
0.0
 11
102.7367077413375
 21
125.6620649661429
 31
0.0
 11
102.7592691217349
 21
125.5778708939053
 31
0.0
 11
102.7671769459101
 21
125.5575370118975
 31
0.0
 11
102.7759640944705
 21
125.5375714679961
 31
0.0
 11
102.7856139282614
 21
125.5180064666209
 31
0.0
 11
102.7961083410286
 21
125.498880157579
 31
0.0
 11
102.8074277565114
 21
125.4802314698091
 31
0.0
 11
102.8195497312111
 21
125.46209440041
 31
0.0
 11
102.832450537009
 21
125.4445027829295
 31
0.0
 11
102.8461064363145
 21
125.4274907095126
 31
0.0
 11
102.8604925760178
 21
125.4110917483788
 31
0.0
 11
102.8755805405154
 21
125.3953359883631
 31
0.0
 11
102.8913408970054
 21
125.3802528247718
 31
0.0
 11
102.9077442407676
 21
125.3658716819612
 31
0.0
 11
102.9247604751147
 21
125.3522209657636
 31
0.0
 11
102.9423560235809
 21
125.3393255196252
 31
0.0
 11
102.9604967856315
 21
125.3272090713267
 31
0.0
 11
102.9791489208906
 21
125.3158953378955
 31
0.0
 11
102.9982784243127
 21
125.30540675305
 31
0.0
 11
103.0178463645525
 21
125.2957628806551
 31
0.0
 11
103.0378145914339
 21
125.2869818135506
 31
0.0
 11
103.0581508816102
 21
125.2790801832411
 31
0.0
 11
103.1422768297014
 21
125.2565576773673
 31
0.0
 11
103.229034686461
 21
125.248973973874
 31
0.0
  0
SPLINE
  5
496
330
1F
100
AcDbEntity
  8
0
  6
CONTINUOUS
 62
     7
100
AcDbSpline
210
0.0
220
0.0
230
1.0
 70
  1064
 71
     3
 72
    31
 73
    27
 74
    25
 42
0.000000001
 43
0.0000000001
 44
0.00000001
 40
0.0
 40
0.0
 40
0.0
 40
0.0
 40
0.0871645420172785
 40
0.1743290838814137
 40
0.1961465178336518
 40
0.2179602040714877
 40
0.2397755325295132
 40
0.2615917737753967
 40
0.2834069682051805
 40
0.3052219984121308
 40
0.3270370340983831
 40
0.348852033849482
 40
0.3706668666086367
 40
0.3924817842772234
 40
0.4142967022727682
 40
0.4361115353364394
 40
0.4579265363773682
 40
0.4797415734642592
 40
0.5015566039033481
 40
0.5233717981373291
 40
0.5451880374658088
 40
0.5670033656715332
 40
0.5888170588126742
 40
0.6106344931997432
 40
0.6977231726381407
 40
0.7848118513724371
 40
0.7848118513724371
 40
0.7848118513724371
 40
0.7848118513724371
 10
122.729186991239
 20
125.248973973874
 30
0.0
 10
122.7582750207939
 20
125.2504326374132
 30
0.0
 10
122.8164510785641
 20
125.2533499791178
 30
0.0
 10
122.8799671035523
 20
125.2711284531023
 30
0.0
 10
122.9206067520018
 20
125.286887568972
 30
0.0
 10
122.9405810233503
 20
125.2956852400115
 30
0.0
 10
122.9601517948952
 20
125.305336150756
 30
0.0
 10
122.9792839159829
 20
125.315833645144
 30
0.0
 10
122.9979385429039
 20
125.327157070932
 30
0.0
 10
123.0160813144542
 20
125.3392830826941
 30
0.0
 10
123.0336785914961
 20
125.3521878127619
 30
0.0
 10
123.0506963514194
 20
125.3658476596773
 30
0.0
 10
123.0671002956898
 20
125.3802387820421
 30
0.0
 10
123.0828609149357
 20
125.3953316192205
 30
0.0
 10
123.0979489495731
 20
125.4110968362605
 30
0.0
 10
123.112335073753
 20
125.4275051649273
 30
0.0
 10
123.1259897356372
 20
125.4445270867627
 30
0.0
 10
123.1388891040571
 20
125.4621282956568
 30
0.0
 10
123.1510095877503
 20
125.4802747613127
 30
0.0
 10
123.1623273294473
 20
125.4989328366418
 30
0.0
 10
123.1728189948032
 20
125.5180681536876
 30
0.0
 10
123.1824639438333
 20
125.5376418668125
 30
0.0
 10
123.1912555264088
 20
125.5576188175855
 30
0.0
 10
123.2069931426503
 20
125.59823971469
 30
0.0
 10
123.2247424323453
 20
125.6617098593138
 30
0.0
 10
123.2276547082133
 20
125.7198351670612
 30
0.0
 10
123.229110838827
 20
125.748897821461
 30
0.0
 11
122.729186991239
 21
125.248973973874
 31
0.0
 11
122.8160198465566
 21
125.2565708763378
 31
0.0
 11
122.9002139187945
 21
125.2791322567353
 31
0.0
 11
122.9205478008024
 21
125.2870400809103
 31
0.0
 11
122.9405133447039
 21
125.2958272294703
 31
0.0
 11
122.9600783460791
 21
125.3054770632609
 31
0.0
 11
122.9792046551211
 21
125.315971476028
 31
0.0
 11
122.9978533428909
 21
125.327290891511
 31
0.0
 11
123.01599041229
 21
125.3394128662109
 31
0.0
 11
123.0335820297706
 21
125.3523136720089
 31
0.0
 11
123.0505941031874
 21
125.3659695713145
 31
0.0
 11
123.0669930643212
 21
125.3803557110179
 31
0.0
 11
123.0827488243369
 21
125.3954436755154
 31
0.0
 11
123.0978319879282
 21
125.4112040320054
 31
0.0
 11
123.1122131307388
 21
125.4276073757676
 31
0.0
 11
123.1258638469363
 21
125.4446236101147
 31
0.0
 11
123.1387592930748
 21
125.4622191585809
 31
0.0
 11
123.1508757413733
 21
125.4803599206315
 31
0.0
 11
123.1621894748044
 21
125.4990120558906
 31
0.0
 11
123.17267805965
 21
125.5181415593127
 31
0.0
 11
123.1823219320449
 21
125.5377094995525
 31
0.0
 11
123.1911029991494
 21
125.5576777264339
 31
0.0
 11
123.1990046294589
 21
125.5780140166102
 31
0.0
 11
123.2215271353328
 21
125.6621399647014
 31
0.0
 11
123.229110838827
 21
125.748897821461
 31
0.0
  0
SPLINE
  5
497
330
1F
100
AcDbEntity
  8
0
  6
CONTINUOUS
 62
     7
100
AcDbSpline
210
0.0
220
0.0
230
1.0
 70
  1064
 71
     3
 72
    31
 73
    27
 74
    25
 42
0.000000001
 43
0.0000000001
 44
0.00000001
 40
0.0
 40
0.0
 40
0.0
 40
0.0
 40
0.0871645420178635
 40
0.1743290838817225
 40
0.19614651783389
 40
0.2179602040717815
 40
0.2397755325297751
 40
0.2615917737755453
 40
0.2834069682053655
 40
0.3052219984122529
 40
0.3270370340982509
 40
0.3488520338491614
 40
0.3706668666084869
 40
0.3924817842773388
 40
0.4142967022729309
 40
0.4361115353365995
 40
0.4579265363775927
 40
0.4797415734646379
 40
0.5015566039039316
 40
0.5233717981380828
 40
0.5451880374663935
 40
0.5670033656718189
 40
0.5888170588127652
 40
0.6106344931997151
 40
0.6977231726380188
 40
0.784811851372269
 40
0.784811851372269
 40
0.784811851372269
 40
0.784811851372269
 10
123.229110838827
 20
210.749050126339
 30
0.0
 10
123.2276521752876
 20
210.778138155894
 30
0.0
 10
123.2247348335824
 20
210.8363142136643
 30
0.0
 10
123.2069563595983
 20
210.8998302386527
 30
0.0
 10
123.1911972437281
 20
210.9404698871019
 30
0.0
 10
123.1823995726885
 20
210.9604441584504
 30
0.0
 10
123.172748661944
 20
210.9800149299952
 30
0.0
 10
123.162251167556
 20
210.9991470510828
 30
0.0
 10
123.150927741768
 20
211.0178016780039
 30
0.0
 10
123.1388017300059
 20
211.035944449554
 30
0.0
 10
123.1258969999381
 20
211.0535417265956
 30
0.0
 10
123.1122371530226
 20
211.0705594865187
 30
0.0
 10
123.0978460306578
 20
211.0869634307894
 30
0.0
 10
123.0827531934796
 20
211.1027240500355
 30
0.0
 10
123.0669879764396
 20
211.1178120846731
 30
0.0
 10
123.0505796477727
 20
211.1321982088531
 30
0.0
 10
123.0335577259372
 20
211.1458528707372
 30
0.0
 10
123.015956517043
 20
211.1587522391572
 30
0.0
 10
122.9978100513869
 20
211.1708727228502
 30
0.0
 10
122.9791519760575
 20
211.1821904645471
 30
0.0
 10
122.960016659012
 20
211.1926821299032
 30
0.0
 10
122.9404429458873
 20
211.2023270789333
 30
0.0
 10
122.9204659951145
 20
211.2111186615086
 30
0.0
 10
122.8798450980098
 20
211.2268562777496
 30
0.0
 10
122.8163749533861
 20
211.2446055674444
 30
0.0
 10
122.7582496456388
 20
211.2475178433122
 30
0.0
 10
122.729186991239
 20
211.248973973926
 30
0.0
 11
123.229110838827
 21
210.749050126339
 31
0.0
 11
123.2215139363627
 21
210.8358829816571
 31
0.0
 11
123.1989525559651
 21
210.9200770538947
 31
0.0
 11
123.1910447317899
 21
210.9404109359025
 31
0.0
 11
123.1822575832297
 21
210.9603764798039
 31
0.0
 11
123.1726077494391
 21
210.9799414811791
 31
0.0
 11
123.1621133366721
 21
210.999067790221
 31
0.0
 11
123.150793921189
 21
211.0177164779908
 31
0.0
 11
123.138671946489
 21
211.0358535473898
 31
0.0
 11
123.1257711406911
 21
211.0534451648701
 31
0.0
 11
123.1121152413855
 21
211.0704572382867
 31
0.0
 11
123.0977291016822
 21
211.0868561994208
 31
0.0
 11
123.0826411371846
 21
211.1026119594367
 31
0.0
 11
123.0668807806946
 21
211.1176951230282
 31
0.0
 11
123.0504774369324
 21
211.1320762658388
 31
0.0
 11
123.0334612025852
 21
211.1457269820364
 31
0.0
 11
123.0158656541189
 21
211.1586224281749
 31
0.0
 11
122.997724892068
 21
211.1707388764733
 31
0.0
 11
122.9790727568087
 21
211.1820526099044
 31
0.0
 11
122.9599432533868
 21
211.19254119475
 31
0.0
 11
122.9403753131473
 21
211.2021850671449
 31
0.0
 11
122.920407086266
 21
211.2109661342492
 31
0.0
 11
122.9000707960898
 21
211.2188677645584
 31
0.0
 11
122.8159448479986
 21
211.2413902704319
 31
0.0
 11
122.729186991239
 21
211.248973973926
 31
0.0
  0
LWPOLYLINE
  5
498
330
1F
100
AcDbEntity
  8
0
  6
CONTINUOUS
 62
     7
100
AcDbPolyline
 90
        8
 70
     0
 43
0.0
 10
101.7291108389
 20
212.5726455831
 10
101.7390245949
 20
212.5743964695
 10
101.768372732
 20
212.5795708977
 10
101.8159914553
 20
212.5879677021
 10
101.8799924301
 20
212.5992516064
 10
101.9578377115
 20
212.6129793011
 10
102.0464403215
 20
212.6285994433
 10
102.142286744
 20
212.6455010854
  0
LWPOLYLINE
  5
499
330
1F
100
AcDbEntity
  8
0
  6
CONTINUOUS
 62
     7
100
AcDbPolyline
 90
        8
 70
     0
 43
0.0
 10
102.142286744
 20
207.7417636298
 10
102.0464403215
 20
207.7434362852
 10
101.9578377115
 20
207.7449822806
 10
101.8799924301
 20
207.7463420116
 10
101.8159914553
 20
207.7474558734
 10
101.768372732
 20
207.7482903384
 10
101.7390245949
 20
207.7488007032
 10
101.7291108389
 20
207.7489757918
  0
LWPOLYLINE
  5
49A
330
1F
100
AcDbEntity
  8
0
  6
CONTINUOUS
 62
     7
100
AcDbPolyline
 90
        9
 70
     0
 43
0.0
 10
102.142286744
 20
123.8524468624
 10
102.0581007712
 20
123.8672921442
 10
101.9791108507
 20
123.8812210046
 10
101.90771703
 20
123.8938087606
 10
101.846088614
 20
123.9046754324
 10
101.7960981359
 20
123.9134894692
 10
101.7592645282
 20
123.9199826502
 10
101.7367069623
 20
123.9239612602
 10
101.7291108389
 20
123.9253023647
  0
LWPOLYLINE
  5
49B
330
1F
100
AcDbEntity
  8
0
  6
CONTINUOUS
 62
     7
100
AcDbPolyline
 90
        8
 70
     0
 43
0.0
 10
101.7291108389
 20
129.2489731692
 10
101.7390245949
 20
129.2491482579
 10
101.768372732
 20
129.2496586226
 10
101.8159914553
 20
129.2504893624
 10
101.8799924301
 20
129.2516069495
 10
101.9578377115
 20
129.2529666804
 10
102.0464403215
 20
129.2545126759
 10
102.142286744
 20
129.2561853313
  0
LWPOLYLINE
  5
49C
330
1F
100
AcDbEntity
  8
0
  6
CONTINUOUS
 62
     7
100
AcDbPolyline
 90
        9
 70
     0
 43
0.0
 10
123.815934198
 20
212.6455010854
 10
123.9001201708
 20
212.6306558036
 10
123.9791112263
 20
212.6167269432
 10
124.0505045522
 20
212.6041391872
 10
124.1121338923
 20
212.5932725154
 10
124.1621235628
 20
212.5844584786
 10
124.1989573706
 20
212.5779652976
 10
124.2215140034
 20
212.5739866876
 10
124.2291117329
 20
212.5726455831
  0
LWPOLYLINE
  5
49D
330
1F
100
AcDbEntity
  8
0
  6
CONTINUOUS
 62
     7
100
AcDbPolyline
 90
        9
 70
     0
 43
0.0
 10
124.2291117329
 20
123.9253023647
 10
124.2215140034
 20
123.9239612602
 10
124.1989573706
 20
123.9199826502
 10
124.1621235628
 20
123.9134894692
 10
124.1121338923
 20
123.9046754324
 10
124.0505045522
 20
123.8938087606
 10
123.9791112263
 20
123.8812210046
 10
123.9001201708
 20
123.8672921442
 10
123.815934198
 20
123.8524468624
  0
LWPOLYLINE
  5
49E
330
1F
100
AcDbEntity
  8
0
  6
CONTINUOUS
 62
     7
100
AcDbPolyline
 90
        9
 70
     0
 43
0.0
 10
101.7291108389
 20
207.5280288242
 10
101.7385065558
 20
207.528192737
 10
101.7663405861
 20
207.5286770247
 10
101.8115668509
 20
207.5294667863
 10
101.8724856209
 20
207.5305322193
 10
101.9468073743
 20
207.5318286203
 10
102.0317388999
 20
207.5333112859
 10
102.1240882352
 20
207.5349206113
 10
102.2203846611
 20
207.5366044425
  0
LWPOLYLINE
  5
49F
330
1F
100
AcDbEntity
  8
0
  6
CONTINUOUS
 62
     7
100
AcDbPolyline
 90
        9
 70
     0
 43
0.0
 10
102.2203846611
 20
129.4613445186
 10
102.1240882352
 20
129.4630246245
 10
102.0317388999
 20
129.4646376752
 10
101.9468073743
 20
129.4661203407
 10
101.8724856209
 20
129.4674167418
 10
101.8115668509
 20
129.4684821748
 10
101.7663405861
 20
129.4692719363
 10
101.7385065558
 20
129.4697562241
 10
101.7291108389
 20
129.4699201368
  0
DIMENSION
  5
4B3
330
1F
100
AcDbEntity
  8
1
100
AcDbDimension
  2
*D1
 10
138.833685757168
 20
212.7489747488
 30
0.0
 11
136.583685757168
 21
195.612167223687
 31
0.0
 70
    32
  1
37
 53
90.0
  3
ME10_DIM_10
100
AcDbAlignedDimension
 13
132.736623159917
 23
175.58878889114
 33
0.0
 14
123.229111569
 24
212.7489747488
 34
0.0
 50
90.0
100
AcDbRotatedDimension
  0
DIMENSION
  5
4C0
330
1F
100
AcDbEntity
  8
1
100
AcDbDimension
  2
*D3
 10
162.8962496951
 20
116.748973199
 30
0.0
 11
197.8962498441
 21
118.998973199
 31
0.0
 70
    32
  1
70
 53
0.00013888888889
  3
ME10_DIM_11
100
AcDbAlignedDimension
 13
232.8962499931
 23
126.2489745401
 33
0.0
 14
162.8962496951
 24
125.7488990211
 34
0.0
100
AcDbRotatedDimension
  0
DIMENSION
  5
4CD
330
1F
100
AcDbEntity
  8
1
100
AcDbDimension
  2
*D4
 10
152.8962496950439
 20
116.748973199
 30
0.0
 11
157.896249695072
 21
118.998973199
 31
0.0
 70
    32
  1
10
 53
0.00013888888889
  3
ME10_DIM_12
100
AcDbAlignedDimension
 13
162.8962496951
 23
125.7488990211
 33
0.0
 14
152.896249695044
 24
167.917631280651
 34
0.0
100
AcDbRotatedDimension
  0
DIMENSION
  5
4DA
330
1F
100
AcDbEntity
  8
1
100
AcDbDimension
  2
*D5
 10
145.833685757168
 20
212.7489747488
 30
0.0
 11
143.583685757168
 21
168.2489739739
 31
0.0
 70
    32
  1
89
 53
90.0
  3
ME10_DIM_13
100
AcDbAlignedDimension
 13
123.229111569
 23
123.748973199
 33
0.0
 14
123.229111569
 24
212.7489747488
 34
0.0
 50
90.0
100
AcDbRotatedDimension
  0
DIMENSION
  5
4E7
330
1F
100
AcDbEntity
  8
1
100
AcDbDimension
  2
*D6
 10
124.2291117329
 20
116.748973199
 30
0.0
 11
112.9791112859
 21
118.998973199
 31
0.0
 70
    32
  1
22.5
 53
0.00013888888889
  3
ME10_DIM_14
100
AcDbAlignedDimension
 13
101.7291108389
 23
124.6957929813
 33
0.0
 14
124.2291117329
 24
124.6957929813
 34
0.0
100
AcDbRotatedDimension
  0
DIMENSION
  5
4F4
330
1F
100
AcDbEntity
  8
1
100
AcDbDimension
  2
*D7
 10
98.436712372893
 20
109.748973199
 30
0.0
 11
112.936712372893
 21
111.998973199
 31
0.0
 70
    32
  1
29.5
 53
0.00013888888889
  3
ME10_DIM_15
100
AcDbAlignedDimension
 13
127.436712372893
 23
140.80914294678
 33
0.0
 14
98.4367123728933
 24
140.80914294678
 34
0.0
100
AcDbRotatedDimension
  0
DIMENSION
  5
501
330
1F
100
AcDbEntity
  8
1
100
AcDbDimension
  2
*D8
 10
262.8962499931
 20
116.748973199
 30
0.0
 11
247.8962499931
 21
118.998973199
 31
0.0
 70
    32
  1
30
 53
0.00013888888889
  3
ME10_DIM_16
100
AcDbAlignedDimension
 13
232.8962499931
 23
158.58880414994
 33
0.0
 14
262.8962499931
 24
135.58880414994
 34
0.0
100
AcDbRotatedDimension
  0
ENDSEC
  0
SECTION
  2
OBJECTS
  0
DICTIONARY
  5
C
330
0
100
AcDbDictionary
  3
ACAD_GROUP
350
D
  3
ACAD_LAYOUT
350
1A
  3
ACAD_MATERIAL
350
43
  3
ACAD_MLEADERSTYLE
350
6B
  3
ACAD_MLINESTYLE
350
17
  3
ACAD_PLOTSETTINGS
350
19
  3
ACAD_SCALELIST
350
47
  3
ACAD_VISUALSTYLE
350
2A
  3
ACDBHEADERROUNDTRIPXREC
350
502
  3
ACDBVARIABLEDICTIONARY
350
523
  0
DICTIONARY
  5
52A
330
8
100
AcDbDictionary
280
     1
  3
ACAD_XREC_ROUNDTRIP
360
52B
  0
DICTIONARY
  5
D
102
{ACAD_REACTORS
330
C
102
}
330
C
100
AcDbDictionary
  0
DICTIONARY
  5
1A
102
{ACAD_REACTORS
330
C
102
}
330
C
100
AcDbDictionary
  0
DICTIONARY
  5
43
102
{ACAD_REACTORS
330
C
102
}
330
C
100
AcDbDictionary
  3
BYBLOCK
350
45
  3
BYLAYER
350
44
  3
GLOBAL
350
46
  0
DICTIONARY
  5
6B
102
{ACAD_REACTORS
330
C
102
}
330
C
100
AcDbDictionary
  3
STANDARD
350
6C
  0
DICTIONARY
  5
17
102
{ACAD_REACTORS
330
C
102
}
330
C
100
AcDbDictionary
  3
STANDARD
350
18
  0
DICTIONARY
  5
19
102
{ACAD_REACTORS
330
C
102
}
330
C
100
AcDbDictionary
  0
DICTIONARY
  5
47
102
{ACAD_REACTORS
330
C
102
}
330
C
100
AcDbDictionary
  3
A0
350
48
  3
A1
350
49
  3
A2
350
4A
  3
A3
350
4B
  3
A4
350
4C
  3
A5
350
4D
  3
A6
350
4E
  3
A7
350
4F
  3
A8
350
50
  3
A9
350
51
  3
B0
350
52
  3
B1
350
53
  3
B2
350
54
  3
B3
350
55
  3
B4
350
56
  3
B5
350
57
  3
B6
350
58
  3
B7
350
59
  3
B8
350
5A
  3
B9
350
5B
  3
C0
350
5C
  3
C1
350
5D
  3
C2
350
5E
  3
C3
350
5F
  3
C4
350
60
  3
C5
350
61
  3
C6
350
62
  3
C7
350
63
  3
C8
350
64
  3
C9
350
65
  3
D0
350
66
  3
D1
350
67
  3
D2
350
68
  0
DICTIONARY
  5
2A
102
{ACAD_REACTORS
330
C
102
}
330
C
100
AcDbDictionary
  3
2DWIREFRAME
350
2F
  3
BASIC
350
32
  3
BRIGHTEN
350
36
  3
COLORCHANGE
350
3A
  3
CONCEPTUAL
350
34
  3
DIM
350
35
  3
EDGECOLOROFF
350
3D
  3
FACEPATTERN
350
39
  3
FLAT
350
2B
  3
FLATWITHEDGES
350
2C
  3
GOURAUD
350
2D
  3
GOURAUDWITHEDGES
350
2E
  3
HIDDEN
350
31
  3
JITTEROFF
350
3B
  3
LINEPATTERN
350
38
  3
OVERHANGOFF
350
3C
  3
REALISTIC
350
33
  3
SHADED
350
42
  3
SHADED_WITH_EDGES
350
41
  3
SHADES_OF_GRAY
350
3E
  3
SKETCHY
350
3F
  3
THICKEN
350
37
  3
WIREFRAME
350
30
  3
X-RAY
350
40
  0
DICTIONARY
  5
502
102
{ACAD_REACTORS
330
C
102
}
330
C
100
AcDbDictionary
  3
CEPSNID
350
50C
  3
CEPSNTYPE
350
50B
  3
DIMSTYLEDATA
350
522
  3
FINGERPRINTGUID
350
50D
  3
HYPERLINKBASE
350
505
  3
INSUNITS
350
50A
  3
LAYOUTDICT
350
507
  3
LWETCUNION
350
509
  3
PLOTSETDICT
350
508
  3
PSVPSCALE
350
50F
  3
PUCSBASE
350
512
  3
PUCSORGBACK
350
518
  3
PUCSORGBOTTOM
350
514
  3
PUCSORGFRONT
350
517
  3
PUCSORGLEFT
350
515
  3
PUCSORGRIGHT
350
516
  3
PUCSORGTOP
350
513
  3
PUCSORTHOREF
350
510
  3
PUCSORTHOVIEW
350
511
  3
STYLESHEET
350
506
  3
TSTACKALIGN
350
503
  3
TSTACKSIZE
350
504
  3
UCSBASE
350
51B
  3
UCSORGBACK
350
521
  3
UCSORGBOTTOM
350
51D
  3
UCSORGFRONT
350
520
  3
UCSORGLEFT
350
51E
  3
UCSORGRIGHT
350
51F
  3
UCSORGTOP
350
51C
  3
UCSORTHOREF
350
519
  3
UCSORTHOVIEW
350
51A
  3
VERSIONGUID
350
50E
  0
DICTIONARY
  5
523
102
{ACAD_REACTORS
330
C
102
}
330
C
100
AcDbDictionary
  3
CANNOSCALE
350
52C
  3
CMLEADERSTYLE
350
525
  3
CTABLESTYLE
350
524
  3
DIMASSOC
350
528
  3
HIDETEXT
350
529
  3
MSLTSCALE
350
52D
  0
XRECORD
  5
52B
102
{ACAD_REACTORS
330
52A
102
}
330
52A
100
AcDbXrecord
102
VTR_0.000_0.000_1.000_1.000_GRIDDISPLAY
 70
     3
102
VTR_0.000_0.000_1.000_1.000_GRIDMAJOR
 70
     5
102
VTR_0.000_0.000_1.000_1.000_DEFAULTLIGHTING
280
     1
102
VTR_0.000_0.000_1.000_1.000_DEFAULTLIGHTINGTYPE
 70
     1
102
VTR_0.000_0.000_1.000_1.000_BRIGHTNESS
141
0.0
102
VTR_0.000_0.000_1.000_1.000_CONTRAST
142
0.0
  0
MATERIAL
  5
45
102
{ACAD_REACTORS
330
43
102
}
102
{ACAD_XDICTIONARY
360
530
102
}
330
43
100
AcDbMaterial
  1
BYBLOCK
  0
MATERIAL
  5
44
102
{ACAD_REACTORS
330
43
102
}
102
{ACAD_XDICTIONARY
360
52E
102
}
330
43
100
AcDbMaterial
  1
BYLAYER
  0
MATERIAL
  5
46
102
{ACAD_REACTORS
330
43
102
}
102
{ACAD_XDICTIONARY
360
532
102
}
330
43
100
AcDbMaterial
  1
GLOBAL
  0
ACAD_PROXY_OBJECT
  5
6C
102
{ACAD_REACTORS
330
6B
102
}
330
6B
100
AcDbProxyObject
 90
      499
 91
      505
 93
      610
310
40901902A4063FBFFFFFE056BD1B81E855B9FC0AD7A3703D0AD73F4214DD185B99185C9900AD7A3703D0AC73F90141901A02B5E8DC0F42B1CFC02B5E8DC0F42B1CFE5764000000000000300FC0
340
14
340
0
340
11
340
0
 94
        0
1001
ACAD_MLEADERVER
1070
     2
  0
MLINESTYLE
  5
18
102
{ACAD_REACTORS
330
17
102
}
330
17
100
AcDbMlineStyle
  2
Standard
 70
     0
  3

 62
   256
 51
90.0
 52
90.0
 71
     2
 49
0.5
 62
   256
  6
BYLAYER
 49
-0.5
 62
   256
  6
BYLAYER
  0
ACAD_PROXY_OBJECT
  5
48
102
{ACAD_REACTORS
330
47
102
}
330
47
100
AcDbProxyObject
 90
      499
 91
      503
 93
       41
310
903313A31580
  0
ACAD_PROXY_OBJECT
  5
49
102
{ACAD_REACTORS
330
47
102
}
330
47
100
AcDbProxyObject
 90
      499
 91
      503
 93
      105
310
903313A324000000000000004000
  0
ACAD_PROXY_OBJECT
  5
4A
102
{ACAD_REACTORS
330
47
102
}
330
47
100
AcDbProxyObject
 90
      499
 91
      503
 93
      105
310
903313A344000000000000104000
  0
ACAD_PROXY_OBJECT
  5
4B
102
{ACAD_REACTORS
330
47
102
}
330
47
100
AcDbProxyObject
 90
      499
 91
      503
 93
      105
310
903313A354000000000000144000
  0
ACAD_PROXY_OBJECT
  5
4C
102
{ACAD_REACTORS
330
47
102
}
330
47
100
AcDbProxyObject
 90
      499
 91
      503
 93
      105
310
903313A384000000000000204000
  0
ACAD_PROXY_OBJECT
  5
4D
102
{ACAD_REACTORS
330
47
102
}
330
47
100
AcDbProxyObject
 90
      499
 91
      503
 93
      113
310
904313A31304000000000000244000
  0
ACAD_PROXY_OBJECT
  5
4E
102
{ACAD_REACTORS
330
47
102
}
330
47
100
AcDbProxyObject
 90
      499
 91
      503
 93
      113
310
904313A31364000000000000304000
  0
ACAD_PROXY_OBJECT
  5
4F
102
{ACAD_REACTORS
330
47
102
}
330
47
100
AcDbProxyObject
 90
      499
 91
      503
 93
      113
310
904313A32304000000000000344000
  0
ACAD_PROXY_OBJECT
  5
50
102
{ACAD_REACTORS
330
47
102
}
330
47
100
AcDbProxyObject
 90
      499
 91
      503
 93
      113
310
904313A333040000000000003E4000
  0
ACAD_PROXY_OBJECT
  5
51
102
{ACAD_REACTORS
330
47
102
}
330
47
100
AcDbProxyObject
 90
      499
 91
      503
 93
      113
310
904313A34304000000000000444000
  0
ACAD_PROXY_OBJECT
  5
52
102
{ACAD_REACTORS
330
47
102
}
330
47
100
AcDbProxyObject
 90
      499
 91
      503
 93
      113
310
904313A35304000000000000494000
  0
ACAD_PROXY_OBJECT
  5
53
102
{ACAD_REACTORS
330
47
102
}
330
47
100
AcDbProxyObject
 90
      499
 91
      503
 93
      121
310
905313A3130304000000000000594000
  0
ACAD_PROXY_OBJECT
  5
54
102
{ACAD_REACTORS
330
47
102
}
330
47
100
AcDbProxyObject
 90
      499
 91
      503
 93
      105
310
903323A310000000000000010100
  0
ACAD_PROXY_OBJECT
  5
55
102
{ACAD_REACTORS
330
47
102
}
330
47
100
AcDbProxyObject
 90
      499
 91
      503
 93
      105
310
903343A310000000000000410100
  0
ACAD_PROXY_OBJECT
  5
56
102
{ACAD_REACTORS
330
47
102
}
330
47
100
AcDbProxyObject
 90
      499
 91
      503
 93
      105
310
903383A310000000000000810100
  0
ACAD_PROXY_OBJECT
  5
57
102
{ACAD_REACTORS
330
47
102
}
330
47
100
AcDbProxyObject
 90
      499
 91
      503
 93
      113
310
90431303A310000000000000910100
  0
ACAD_PROXY_OBJECT
  5
58
102
{ACAD_REACTORS
330
47
102
}
330
47
100
AcDbProxyObject
 90
      499
 91
      503
 93
      121
310
9053130303A310000000000001650100
  0
ACAD_PROXY_OBJECT
  5
59
102
{ACAD_REACTORS
330
47
102
}
330
47
100
AcDbProxyObject
 90
      499
 91
      503
 93
      257
310
90E312F31323822203D2031272D3022000000000000200FC000000000000284000
  0
ACAD_PROXY_OBJECT
  5
5A
102
{ACAD_REACTORS
330
47
102
}
330
47
100
AcDbProxyObject
 90
      499
 91
      503
 93
      249
310
90D312F363422203D2031272D3022000000000000240FC000000000000284000
  0
ACAD_PROXY_OBJECT
  5
5B
102
{ACAD_REACTORS
330
47
102
}
330
47
100
AcDbProxyObject
 90
      499
 91
      503
 93
      249
310
90D312F333222203D2031272D3022000000000000280FC000000000000284000
  0
ACAD_PROXY_OBJECT
  5
5C
102
{ACAD_REACTORS
330
47
102
}
330
47
100
AcDbProxyObject
 90
      499
 91
      503
 93
      249
310
90D312F313622203D2031272D30220000000000002C0FC000000000000284000
  0
ACAD_PROXY_OBJECT
  5
5D
102
{ACAD_REACTORS
330
47
102
}
330
47
100
AcDbProxyObject
 90
      499
 91
      503
 93
      249
310
90D332F333222203D2031272D30220000000000002E0FC000000000000284000
  0
ACAD_PROXY_OBJECT
  5
5E
102
{ACAD_REACTORS
330
47
102
}
330
47
100
AcDbProxyObject
 90
      499
 91
      503
 93
      241
310
90C312F3822203D2031272D3022000000000000300FC000000000000284000
  0
ACAD_PROXY_OBJECT
  5
5F
102
{ACAD_REACTORS
330
47
102
}
330
47
100
AcDbProxyObject
 90
      499
 91
      503
 93
      249
310
90D332F313622203D2031272D3022000000000000320FC000000000000284000
  0
ACAD_PROXY_OBJECT
  5
60
102
{ACAD_REACTORS
330
47
102
}
330
47
100
AcDbProxyObject
 90
      499
 91
      503
 93
      241
310
90C312F3422203D2031272D3022000000000000340FC000000000000284000
  0
ACAD_PROXY_OBJECT
  5
61
102
{ACAD_REACTORS
330
47
102
}
330
47
100
AcDbProxyObject
 90
      499
 91
      503
 93
      241
310
90C332F3822203D2031272D3022000000000000360FC000000000000284000
  0
ACAD_PROXY_OBJECT
  5
62
102
{ACAD_REACTORS
330
47
102
}
330
47
100
AcDbProxyObject
 90
      499
 91
      503
 93
      241
310
90C312F3222203D2031272D3022000000000000380FC000000000000284000
  0
ACAD_PROXY_OBJECT
  5
63
102
{ACAD_REACTORS
330
47
102
}
330
47
100
AcDbProxyObject
 90
      499
 91
      503
 93
      241
310
90C332F3422203D2031272D30220000000000003A0FC000000000000284000
  0
ACAD_PROXY_OBJECT
  5
64
102
{ACAD_REACTORS
330
47
102
}
330
47
100
AcDbProxyObject
 90
      499
 91
      503
 93
      161
310
90A3122203D2031272D30224000000000000284000
  0
ACAD_PROXY_OBJECT
  5
65
102
{ACAD_REACTORS
330
47
102
}
330
47
100
AcDbProxyObject
 90
      499
 91
      503
 93
      257
310
90E312D312F3222203D2031272D30220000000000003E0FC000000000000284000
  0
ACAD_PROXY_OBJECT
  5
66
102
{ACAD_REACTORS
330
47
102
}
330
47
100
AcDbProxyObject
 90
      499
 91
      503
 93
      225
310
90A3322203D2031272D302200000000000002100000000000000284000
  0
ACAD_PROXY_OBJECT
  5
67
102
{ACAD_REACTORS
330
47
102
}
330
47
100
AcDbProxyObject
 90
      499
 91
      503
 93
      225
310
90A3622203D2031272D302200000000000006100000000000000284000
  0
ACAD_PROXY_OBJECT
  5
68
102
{ACAD_REACTORS
330
47
102
}
330
47
100
AcDbProxyObject
 90
      499
 91
      503
 93
      249
310
90D31272D3022203D2031272D30220000000000000A100000000000000284000
  0
ACAD_PROXY_OBJECT
  5
2F
102
{ACAD_REACTORS
330
2A
102
}
330
2A
100
AcDbProxyObject
 90
      499
 91
      501
 93
      436
310
42CC9915DA5C99599C985B595049028333333333333E33F0000000000000F90107901411070040501600405405064090741402480A0340
1001
ACAD
1000
AcDbSavedByObjectVersion
1070
     0
  0
ACAD_PROXY_OBJECT
  5
32
102
{ACAD_REACTORS
330
2A
102
}
330
2A
100
AcDbProxyObject
 90
      499
 91
      501
 93
      388
310
4150985CDA58D07406404333333333333E33F0000000000000F90107A41107004050150841D405064090741402480A0350
1001
ACAD
1000
AcDbSavedByObjectVersion
1070
     0
  0
ACAD_PROXY_OBJECT
  5
36
102
{ACAD_REACTORS
330
2A
102
}
330
2A
100
AcDbProxyObject
 90
      499
 91
      501
 93
      428
310
42109C9A59DA1D195B90C409028333333333333E33F0000000000000F9010790141107004050150841D405064090741402480A029950
1001
ACAD
1000
AcDbSavedByObjectVersion
1070
     0
  0
ACAD_PROXY_OBJECT
  5
3A
102
{ACAD_REACTORS
330
2A
102
}
330
2A
100
AcDbProxyObject
 90
      499
 91
      501
 93
      452
310
42D0DBDB1BDC90DA185B99D95104090240C333333333333E33F0000000000000F90108901411070040501508421405064090741402480A0350
1001
ACAD
1000
AcDbSavedByObjectVersion
1070
     0
  0
ACAD_PROXY_OBJECT
  5
34
102
{ACAD_REACTORS
330
2A
102
}
330
2A
100
AcDbProxyObject
 90
      499
 91
      501
 93
      500
310
4290DBDB98D95C1D1D585B10940D028333333333333E33F0000000000000F90107902409070040501000000000018199010841D405064090740C02480A0340
1001
ACAD
1000
AcDbSavedByObjectVersion
1070
     0
  0
ACAD_PROXY_OBJECT
  5
35
102
{ACAD_REACTORS
330
2A
102
}
330
2A
100
AcDbProxyObject
 90
      499
 91
      501
 93
      412
310
40D11A5B50B409028333333333333E33F0000000000000F9010790141107004050150841D405064090741402480A02677FFFFFD0
1001
ACAD
1000
AcDbSavedByObjectVersion
1070
     0
  0
ACAD_PROXY_OBJECT
  5
3D
102
{ACAD_REACTORS
330
2A
102
}
330
2A
100
AcDbProxyObject
 90
      499
 91
      501
 93
      452
310
43115919D950DBDB1BDC93D999916409028333333333333E33F0000000000000F9010790141107004050150841D405064090741402480A0350
1001
ACAD
1000
AcDbSavedByObjectVersion
1070
     0
  0
ACAD_PROXY_OBJECT
  5
39
102
{ACAD_REACTORS
330
2A
102
}
330
2A
100
AcDbProxyObject
 90
      499
 91
      501
 93
      444
310
42D19858D95C185D1D195C9B90F409028333333333333E33F0000000000000F9010790141107004050150841D405064090741402480A0350
1001
ACAD
1000
AcDbSavedByObjectVersion
1070
     0
  0
ACAD_PROXY_OBJECT
  5
2B
102
{ACAD_REACTORS
330
2A
102
}
330
2A
100
AcDbProxyObject
 90
      499
 91
      501
 93
      380
310
41119B185D240901404333333333333E33F0000000000000F9010740A907004050150841D405064090741402480A1B50
1001
ACAD
1000
AcDbSavedByObjectVersion
1070
     0
  0
ACAD_PROXY_OBJECT
  5
2C
102
{ACAD_REACTORS
330
2A
102
}
330
2A
100
AcDbProxyObject
 90
      499
 91
      501
 93
      468
310
43519B185D15DA5D1A115919D95CD0140901404333333333333E33F0000000000000F90107409019070040501600405405064090741402480A1B50
1001
ACAD
1000
AcDbSavedByObjectVersion
1070
     0
  0
ACAD_PROXY_OBJECT
  5
2D
102
{ACAD_REACTORS
330
2A
102
}
330
2A
100
AcDbProxyObject
 90
      499
 91
      501
 93
      404
310
41D1DBDD5C985D5910240902404333333333333E33F0000000000000F9010740A9070040501641D405064090741402480A1B50
1001
ACAD
1000
AcDbSavedByObjectVersion
1070
     0
  0
ACAD_PROXY_OBJECT
  5
2E
102
{ACAD_REACTORS
330
2A
102
}
330
2A
100
AcDbProxyObject
 90
      499
 91
      501
 93
      492
310
4411DBDD5C985D5915DA5D1A115919D95CD0340902404333333333333E33F0000000000000F90107409019070040501600405405064090741402480A1B50
1001
ACAD
1000
AcDbSavedByObjectVersion
1070
     0
  0
ACAD_PROXY_OBJECT
  5
31
102
{ACAD_REACTORS
330
2A
102
}
330
2A
100
AcDbProxyObject
 90
      499
 91
      501
 93
      476
310
41921A5919195B90640502408333333333333E33F0000000000000F901079024090700405020000000000001110200405405064090740C02480A0340
1001
ACAD
1000
AcDbSavedByObjectVersion
1070
     0
  0
ACAD_PROXY_OBJECT
  5
3B
102
{ACAD_REACTORS
330
2A
102
}
330
2A
100
AcDbProxyObject
 90
      499
 91
      501
 93
      428
310
42529A5D1D195C93D999914409028333333333333E33F0000000000000F9010790141107004050150A41D405064090741402480A0350
1001
ACAD
1000
AcDbSavedByObjectVersion
1070
     0
  0
ACAD_PROXY_OBJECT
  5
38
102
{ACAD_REACTORS
330
2A
102
}
330
2A
100
AcDbProxyObject
 90
      499
 91
      501
 93
      444
310
42D31A5B995C185D1D195C9B90E409028333333333333E33F0000000000000F9010790141107004050750841D405064090741402483A0350
1001
ACAD
1000
AcDbSavedByObjectVersion
1070
     0
  0
ACAD_PROXY_OBJECT
  5
3C
102
{ACAD_REACTORS
330
2A
102
}
330
2A
100
AcDbProxyObject
 90
      499
 91
      501
 93
      444
310
42D3DD995C9A185B99D3D999915409028333333333333E33F0000000000000F9010790141107004050150941D405064090741402480A0350
1001
ACAD
1000
AcDbSavedByObjectVersion
1070
     0
  0
ACAD_PROXY_OBJECT
  5
33
102
{ACAD_REACTORS
330
2A
102
}
330
2A
100
AcDbProxyObject
 90
      499
 91
      501
 93
      428
310
425499585B1A5CDD1A58D08409038333333333333E33F0000000000000F9010740A907004050150800405405064090740C02480A1B40
1001
ACAD
1000
AcDbSavedByObjectVersion
1070
     0
  0
ACAD_PROXY_OBJECT
  5
42
102
{ACAD_REACTORS
330
2A
102
}
330
2A
100
AcDbProxyObject
 90
      499
 91
      501
 93
      420
310
4194DA1859195911B40902404333333333333E33F0000000000000F9010740A41107004050150800405405064090840C02480A0B40
1001
ACAD
1000
AcDbSavedByObjectVersion
1070
     0
  0
ACAD_PROXY_OBJECT
  5
41
102
{ACAD_REACTORS
330
2A
102
}
330
2A
100
AcDbProxyObject
 90
      499
 91
      501
 93
      516
310
4454DA18591959081DDA5D1A08195919D95CD1A40902404333333333333E33F0000000000000F901074090142907004050250800405405064090740C02480A0B40
1001
ACAD
1000
AcDbSavedByObjectVersion
1070
     0
  0
ACAD_PROXY_OBJECT
  5
3E
102
{ACAD_REACTORS
330
2A
102
}
330
2A
100
AcDbProxyObject
 90
      499
 91
      501
 93
      532
310
4394DA1859195CC81BD98811DC985E5174090240C333333333333E33F0000000000000F901079024090741D01000000000000111010841D405064090740C02480A0340
1001
ACAD
1000
AcDbSavedByObjectVersion
1070
     0
  0
ACAD_PROXY_OBJECT
  5
3F
102
{ACAD_REACTORS
330
2A
102
}
330
2A
100
AcDbProxyObject
 90
      499
 91
      501
 93
      476
310
41D4DAD95D18DA1E51840502408333333333333E33F0000000000000F901079024090741D01000000000000111010B41D405064090741802480A0340
1001
ACAD
1000
AcDbSavedByObjectVersion
1070
     0
  0
ACAD_PROXY_OBJECT
  5
37
102
{ACAD_REACTORS
330
2A
102
}
330
2A
100
AcDbProxyObject
 90
      499
 91
      501
 93
      412
310
41D51A1A58DAD95B90D409028333333333333E33F0000000000000F9010790141107004050150C41D405064090741402480A0350
1001
ACAD
1000
AcDbSavedByObjectVersion
1070
     0
  0
ACAD_PROXY_OBJECT
  5
30
102
{ACAD_REACTORS
330
2A
102
}
330
2A
100
AcDbProxyObject
 90
      499
 91
      501
 93
      420
310
4255DA5C99599C985B595059028333333333333E33F0000000000000F90107901411070040501600405405064090740C02480A0340
1001
ACAD
1000
AcDbSavedByObjectVersion
1070
     0
  0
ACAD_PROXY_OBJECT
  5
40
102
{ACAD_REACTORS
330
2A
102
}
330
2A
100
AcDbProxyObject
 90
      499
 91
      501
 93
      404
310
41560B54985E51940902404000000000000E03F0000000000000F9010740501907004050150841D405064090740C02480A1B40
1001
ACAD
1000
AcDbSavedByObjectVersion
1070
     0
  0
XRECORD
  5
50C
102
{ACAD_REACTORS
330
502
102
}
330
502
100
AcDbXrecord
340
0
  0
XRECORD
  5
50B
102
{ACAD_REACTORS
330
502
102
}
330
502
100
AcDbXrecord
 90
        0
  0
XRECORD
  5
522
102
{ACAD_REACTORS
330
502
102
}
330
502
100
AcDbXrecord
1000
DSTYLE
1002
{
1070
   171
 70
     2
1070
   143
 40
25.4
1070
   274
 70
     2
1070
    41
 40
0.18
1070
   141
 40
0.09
1070
   271
 70
     4
1070
    43
 40
0.38
1070
   278
 70
    46
1070
    44
 40
0.18
1070
    42
 40
0.0625
1070
   147
 40
0.09
1070
    77
 70
     0
1070
   272
 70
     4
1070
    73
 70
     1
1070
   172
 70
     0
1070
    74
 70
     1
1070
   283
 70
     1
1070
   340
340
11
1070
   140
 40
0.18
1070
   284
 70
     0
1070
    78
 70
     0
1002
}
  0
XRECORD
  5
50D
102
{ACAD_REACTORS
330
502
102
}
330
502
100
AcDbXrecord
  1
{D63736DA-EAC2-4D7E-A1ED-F5C80A7F5176}
  0
XRECORD
  5
505
102
{ACAD_REACTORS
330
502
102
}
330
502
100
AcDbXrecord
  1

  0
XRECORD
  5
50A
102
{ACAD_REACTORS
330
502
102
}
330
502
100
AcDbXrecord
 90
        4
  0
XRECORD
  5
507
102
{ACAD_REACTORS
330
502
102
}
330
502
100
AcDbXrecord
340
1A
  0
XRECORD
  5
509
102
{ACAD_REACTORS
330
502
102
}
330
502
100
AcDbXrecord
 90
    10781
  0
XRECORD
  5
508
102
{ACAD_REACTORS
330
502
102
}
330
502
100
AcDbXrecord
340
19
  0
XRECORD
  5
50F
102
{ACAD_REACTORS
330
502
102
}
330
502
100
AcDbXrecord
 40
0.0
  0
XRECORD
  5
512
102
{ACAD_REACTORS
330
502
102
}
330
502
100
AcDbXrecord
340
0
  0
XRECORD
  5
518
102
{ACAD_REACTORS
330
502
102
}
330
502
100
AcDbXrecord
 10
0.0
 20
0.0
 30
0.0
  0
XRECORD
  5
514
102
{ACAD_REACTORS
330
502
102
}
330
502
100
AcDbXrecord
 10
0.0
 20
0.0
 30
0.0
  0
XRECORD
  5
517
102
{ACAD_REACTORS
330
502
102
}
330
502
100
AcDbXrecord
 10
0.0
 20
0.0
 30
0.0
  0
XRECORD
  5
515
102
{ACAD_REACTORS
330
502
102
}
330
502
100
AcDbXrecord
 10
0.0
 20
0.0
 30
0.0
  0
XRECORD
  5
516
102
{ACAD_REACTORS
330
502
102
}
330
502
100
AcDbXrecord
 10
0.0
 20
0.0
 30
0.0
  0
XRECORD
  5
513
102
{ACAD_REACTORS
330
502
102
}
330
502
100
AcDbXrecord
 10
0.0
 20
0.0
 30
0.0
  0
XRECORD
  5
510
102
{ACAD_REACTORS
330
502
102
}
330
502
100
AcDbXrecord
340
0
  0
XRECORD
  5
511
102
{ACAD_REACTORS
330
502
102
}
330
502
100
AcDbXrecord
 70
     0
  0
XRECORD
  5
506
102
{ACAD_REACTORS
330
502
102
}
330
502
100
AcDbXrecord
  1

  0
XRECORD
  5
503
102
{ACAD_REACTORS
330
502
102
}
330
502
100
AcDbXrecord
 90
        1
  0
XRECORD
  5
504
102
{ACAD_REACTORS
330
502
102
}
330
502
100
AcDbXrecord
 90
       70
  0
XRECORD
  5
51B
102
{ACAD_REACTORS
330
502
102
}
330
502
100
AcDbXrecord
340
0
  0
XRECORD
  5
521
102
{ACAD_REACTORS
330
502
102
}
330
502
100
AcDbXrecord
 10
0.0
 20
0.0
 30
0.0
  0
XRECORD
  5
51D
102
{ACAD_REACTORS
330
502
102
}
330
502
100
AcDbXrecord
 10
0.0
 20
0.0
 30
0.0
  0
XRECORD
  5
520
102
{ACAD_REACTORS
330
502
102
}
330
502
100
AcDbXrecord
 10
0.0
 20
0.0
 30
0.0
  0
XRECORD
  5
51E
102
{ACAD_REACTORS
330
502
102
}
330
502
100
AcDbXrecord
 10
0.0
 20
0.0
 30
0.0
  0
XRECORD
  5
51F
102
{ACAD_REACTORS
330
502
102
}
330
502
100
AcDbXrecord
 10
0.0
 20
0.0
 30
0.0
  0
XRECORD
  5
51C
102
{ACAD_REACTORS
330
502
102
}
330
502
100
AcDbXrecord
 10
0.0
 20
0.0
 30
0.0
  0
XRECORD
  5
519
102
{ACAD_REACTORS
330
502
102
}
330
502
100
AcDbXrecord
340
0
  0
XRECORD
  5
51A
102
{ACAD_REACTORS
330
502
102
}
330
502
100
AcDbXrecord
 70
     0
  0
XRECORD
  5
50E
102
{ACAD_REACTORS
330
502
102
}
330
502
100
AcDbXrecord
  1
{FAEB1C32-E019-11D5-929B-00C0DF256EC4}
  0
DICTIONARYVAR
  5
52C
102
{ACAD_REACTORS
330
523
102
}
330
523
100
DictionaryVariables
280
     0
  1
1:1
  0
DICTIONARYVAR
  5
525
102
{ACAD_REACTORS
330
523
102
}
330
523
100
DictionaryVariables
280
     0
  1
Standard
  0
DICTIONARYVAR
  5
524
102
{ACAD_REACTORS
330
523
102
}
330
523
100
DictionaryVariables
280
     0
  1
Standard
  0
DICTIONARYVAR
  5
528
102
{ACAD_REACTORS
330
523
102
}
330
523
100
DictionaryVariables
280
     0
  1
2
  0
DICTIONARYVAR
  5
529
102
{ACAD_REACTORS
330
523
102
}
330
523
100
DictionaryVariables
280
     0
  1
1
  0
DICTIONARYVAR
  5
52D
102
{ACAD_REACTORS
330
523
102
}
330
523
100
DictionaryVariables
280
     0
  1
1
  0
DICTIONARY
  5
530
330
45
100
AcDbDictionary
280
     1
  3
ACAD_XREC_ROUNDTRIP
360
531
  0
DICTIONARY
  5
52E
330
44
100
AcDbDictionary
280
     1
  3
ACAD_XREC_ROUNDTRIP
360
52F
  0
DICTIONARY
  5
532
330
46
100
AcDbDictionary
280
     1
  3
ACAD_XREC_ROUNDTRIP
360
533
  0
XRECORD
  5
531
102
{ACAD_REACTORS
330
530
102
}
330
530
100
AcDbXrecord
102
MATERIAL
148
0.0
149
0.0
149
0.0
 93
        0
 94
      127
282
     0
 72
     1
 77
     1
171
     1
175
     1
179
     1
273
     0
  0
XRECORD
  5
52F
102
{ACAD_REACTORS
330
52E
102
}
330
52E
100
AcDbXrecord
102
MATERIAL
148
0.0
149
0.0
149
0.0
 93
        0
 94
      127
282
     0
 72
     1
 77
     1
171
     1
175
     1
179
     1
273
     0
  0
XRECORD
  5
533
102
{ACAD_REACTORS
330
532
102
}
330
532
100
AcDbXrecord
102
MATERIAL
148
0.0
149
0.0
149
0.0
 93
        0
 94
      127
282
     0
 72
     1
 77
     1
171
     1
175
     1
179
     1
273
     0
  0
ENDSEC
  0
EOF
