  0
SECTION
  2
HEADER
  9
$ACADVER
  1
AC1014
  9
$ACADMAINTVER
 70
     9
  9
$DWGCODEPAGE
  3
ANSI_932
  9
$INSBASE
 10
0.0
 20
0.0
 30
0.0
  9
$EXTMIN
 10
93.4614705074754
 20
114.627652856
 30
0.0
  9
$EXTMAX
 10
268.98610776574
 20
212.7489747488
 30
0.0
  9
$LIMMIN
 10
0.0
 20
0.0
  9
$LIMMAX
 10
12.0
 20
9.0
  9
$ORTHOMODE
 70
     0
  9
$REGENMODE
 70
     1
  9
$FILLMODE
 70
     1
  9
$QTEXTMODE
 70
     0
  9
$MIRRTEXT
 70
     1
  9
$DRAGMODE
 70
     2
  9
$LTSCALE
 40
1.0
  9
$OSMODE
 70
    37
  9
$ATTMODE
 70
     1
  9
$TEXTSIZE
 40
0.2
  9
$TRACEWID
 40
0.05
  9
$TEXTSTYLE
  7
STANDARD
  9
$CLAYER
  8
0
  9
$CELTYPE
  6
BYLAYER
  9
$CECOLOR
 62
   256
  9
$CELTSCALE
 40
1.0
  9
$DELOBJ
 70
     1
  9
$DISPSILH
 70
     0
  9
$DIMSCALE
 40
1.0
  9
$DIMASZ
 40
0.18
  9
$DIMEXO
 40
0.0625
  9
$DIMDLI
 40
0.38
  9
$DIMRND
 40
0.0
  9
$DIMDLE
 40
0.0
  9
$DIMEXE
 40
0.18
  9
$DIMTP
 40
0.0
  9
$DIMTM
 40
0.0
  9
$DIMTXT
 40
0.18
  9
$DIMCEN
 40
0.09
  9
$DIMTSZ
 40
0.0
  9
$DIMTOL
 70
     0
  9
$DIMLIM
 70
     0
  9
$DIMTIH
 70
     1
  9
$DIMTOH
 70
     1
  9
$DIMSE1
 70
     0
  9
$DIMSE2
 70
     0
  9
$DIMTAD
 70
     0
  9
$DIMZIN
 70
     0
  9
$DIMBLK
  1

  9
$DIMASO
 70
     1
  9
$DIMSHO
 70
     1
  9
$DIMPOST
  1

  9
$DIMAPOST
  1

  9
$DIMALT
 70
     0
  9
$DIMALTD
 70
     2
  9
$DIMALTF
 40
25.4
  9
$DIMLFAC
 40
1.0
  9
$DIMTOFL
 70
     0
  9
$DIMTVP
 40
0.0
  9
$DIMTIX
 70
     0
  9
$DIMSOXD
 70
     0
  9
$DIMSAH
 70
     0
  9
$DIMBLK1
  1

  9
$DIMBLK2
  1

  9
$DIMSTYLE
  2
STANDARD
  9
$DIMCLRD
 70
     0
  9
$DIMCLRE
 70
     0
  9
$DIMCLRT
 70
     0
  9
$DIMTFAC
 40
1.0
  9
$DIMGAP
 40
0.09
  9
$DIMJUST
 70
     0
  9
$DIMSD1
 70
     0
  9
$DIMSD2
 70
     0
  9
$DIMTOLJ
 70
     1
  9
$DIMTZIN
 70
     0
  9
$DIMALTZ
 70
     0
  9
$DIMALTTZ
 70
     0
  9
$DIMFIT
 70
     3
  9
$DIMUPT
 70
     0
  9
$DIMUNIT
 70
     2
  9
$DIMDEC
 70
     4
  9
$DIMTDEC
 70
     4
  9
$DIMALTU
 70
     2
  9
$DIMALTTD
 70
     2
  9
$DIMTXSTY
  7
STANDARD
  9
$DIMAUNIT
 70
     0
  9
$LUNITS
 70
     2
  9
$LUPREC
 70
     4
  9
$SKETCHINC
 40
0.1
  9
$FILLETRAD
 40
0.5
  9
$AUNITS
 70
     0
  9
$AUPREC
 70
     0
  9
$MENU
  1
.
  9
$ELEVATION
 40
0.0
  9
$PELEVATION
 40
0.0
  9
$THICKNESS
 40
0.0
  9
$LIMCHECK
 70
     0
  9
$CHAMFERA
 40
0.0
  9
$CHAMFERB
 40
0.0
  9
$CHAMFERC
 40
0.0
  9
$CHAMFERD
 40
0.0
  9
$SKPOLY
 70
     0
  9
$TDCREATE
 40
2458439.665024028
  9
$TDUPDATE
 40
2458439.665072743
  9
$TDINDWG
 40
0.0000000116
  9
$TDUSRTIMER
 40
0.0000000116
  9
$USRTIMER
 70
     1
  9
$ANGBASE
 50
0.0
  9
$ANGDIR
 70
     0
  9
$PDMODE
 70
     0
  9
$PDSIZE
 40
0.0
  9
$PLINEWID
 40
0.0
  9
$COORDS
 70
     1
  9
$SPLFRAME
 70
     0
  9
$SPLINETYPE
 70
     6
  9
$SPLINESEGS
 70
     8
  9
$ATTDIA
 70
     0
  9
$ATTREQ
 70
     1
  9
$HANDLING
 70
     1
  9
$HANDSEED
  5
4AB
  9
$SURFTAB1
 70
     6
  9
$SURFTAB2
 70
     6
  9
$SURFTYPE
 70
     6
  9
$SURFU
 70
     6
  9
$SURFV
 70
     6
  9
$UCSNAME
  2

  9
$UCSORG
 10
0.0
 20
0.0
 30
0.0
  9
$UCSXDIR
 10
1.0
 20
0.0
 30
0.0
  9
$UCSYDIR
 10
0.0
 20
1.0
 30
0.0
  9
$PUCSNAME
  2

  9
$PUCSORG
 10
0.0
 20
0.0
 30
0.0
  9
$PUCSXDIR
 10
1.0
 20
0.0
 30
0.0
  9
$PUCSYDIR
 10
0.0
 20
1.0
 30
0.0
  9
$USERI1
 70
     0
  9
$USERI2
 70
     0
  9
$USERI3
 70
     0
  9
$USERI4
 70
     0
  9
$USERI5
 70
     0
  9
$USERR1
 40
20.0
  9
$USERR2
 40
0.0
  9
$USERR3
 40
0.0
  9
$USERR4
 40
0.0
  9
$USERR5
 40
0.0
  9
$WORLDVIEW
 70
     1
  9
$SHADEDGE
 70
     3
  9
$SHADEDIF
 70
    70
  9
$TILEMODE
 70
     1
  9
$MAXACTVP
 70
    64
  9
$PINSBASE
 10
0.0
 20
0.0
 30
0.0
  9
$PLIMCHECK
 70
     0
  9
$PEXTMIN
 10
1.00000000000000E+20
 20
1.00000000000000E+20
 30
1.00000000000000E+20
  9
$PEXTMAX
 10
-1.00000000000000E+20
 20
-1.00000000000000E+20
 30
-1.00000000000000E+20
  9
$PLIMMIN
 10
0.0
 20
0.0
  9
$PLIMMAX
 10
12.0
 20
9.0
  9
$UNITMODE
 70
     0
  9
$VISRETAIN
 70
     1
  9
$PLINEGEN
 70
     0
  9
$PSLTSCALE
 70
     1
  9
$TREEDEPTH
 70
  3020
  9
$PICKSTYLE
 70
     1
  9
$CMLSTYLE
  2
STANDARD
  9
$CMLJUST
 70
     0
  9
$CMLSCALE
 40
1.0
  9
$PROXYGRAPHICS
 70
     1
  9
$MEASUREMENT
 70
     1
  0
ENDSEC
  0
SECTION
  2
CLASSES
  0
CLASS
  1
ACDBDICTIONARYWDFLT
  2
AcDbDictionaryWithDefault
  3
ObjectDBX Classes
 90
        0
280
     0
281
     0
  0
CLASS
  1
VISUALSTYLE
  2
AcDbVisualStyle
  3
ObjectDBX Classes
 90
     4095
280
     0
281
     0
  0
CLASS
  1
MATERIAL
  2
AcDbMaterial
  3
ObjectDBX Classes
 90
     1153
280
     0
281
     0
  0
CLASS
  1
SCALE
  2
AcDbScale
  3
ObjectDBX Classes
 90
     1153
280
     0
281
     0
  0
CLASS
  1
TABLESTYLE
  2
AcDbTableStyle
  3
ObjectDBX Classes
 90
     4095
280
     0
281
     0
  0
CLASS
  1
MLEADERSTYLE
  2
AcDbMLeaderStyle
  3
ACDB_MLEADERSTYLE_CLASS
 90
     4095
280
     0
281
     0
  0
CLASS
  1
SUN
  2
AcDbSun
  3
SCENEOE
 90
     1153
280
     0
281
     0
  0
CLASS
  1
DICTIONARYVAR
  2
AcDbDictionaryVar
  3
ObjectDBX Classes
 90
        0
280
     0
281
     0
  0
CLASS
  1
XRECORD
  2
AcDbXrecord
  3
ObjectDBX Classes
 90
        0
280
     0
281
     0
  0
CLASS
  1
LWPOLYLINE
  2
AcDbPolyline
  3
ObjectDBX Classes
 90
        0
280
     0
281
     1
  0
CLASS
  1
HATCH
  2
AcDbHatch
  3
ObjectDBX Classes
 90
        0
280
     0
281
     1
  0
CLASS
  1
ACDBPLACEHOLDER
  2
AcDbPlaceHolder
  3
ObjectDBX Classes
 90
        0
280
     0
281
     0
  0
CLASS
  1
LAYOUT
  2
AcDbLayout
  3
ObjectDBX Classes
 90
        0
280
     0
281
     0
  0
ENDSEC
  0
SECTION
  2
TABLES
  0
TABLE
  2
VPORT
  5
8
102
{ACAD_XDICTIONARY
360
4A0
102
}
330
0
100
AcDbSymbolTable
 70
     1
  0
VPORT
  5
29
330
8
100
AcDbSymbolTableRecord
100
AcDbViewportTableRecord
  2
*ACTIVE
 70
     0
 10
0.0
 20
0.0
 11
1.0
 21
1.0
 12
181.2237891366077
 22
163.6883138024
 13
0.0
 23
0.0
 14
0.5
 24
0.5
 15
0.5
 25
0.5
 16
0.0
 26
0.0
 36
1.0
 17
0.0
 27
0.0
 37
0.0
 40
120.4715059065081
 41
1.60267857142857
 42
50.0
 43
0.0
 44
0.0
 50
0.0
 51
0.0
 71
     0
 72
   100
 73
     1
 74
     3
 75
     0
 76
     0
 77
     0
 78
     0
  0
ENDTAB
  0
TABLE
  2
LTYPE
  5
5
330
0
100
AcDbSymbolTable
 70
     8
  0
LTYPE
  5
14
330
5
100
AcDbSymbolTableRecord
100
AcDbLinetypeTableRecord
  2
BYBLOCK
 70
     0
  3

 72
    65
 73
     0
 40
0.0
  0
LTYPE
  5
15
330
5
100
AcDbSymbolTableRecord
100
AcDbLinetypeTableRecord
  2
BYLAYER
 70
     0
  3

 72
    65
 73
     0
 40
0.0
  0
LTYPE
  5
16
330
5
100
AcDbSymbolTableRecord
100
AcDbLinetypeTableRecord
  2
CONTINUOUS
 70
     0
  3
Solid line
 72
    65
 73
     0
 40
0.0
  0
LTYPE
  5
6E
330
5
100
AcDbSymbolTableRecord
100
AcDbLinetypeTableRecord
  2
DASHED
 70
     0
  3
Dashed
 72
    65
 73
     2
 40
15.0
 49
7.0
 74
     0
 49
-8.0
 74
     0
  0
LTYPE
  5
6F
330
5
100
AcDbSymbolTableRecord
100
AcDbLinetypeTableRecord
  2
DOTTED
 70
     0
  3
Dotted
 72
    65
 73
     2
 40
1.0
 49
0.0
 74
     0
 49
-1.0
 74
     0
  0
LTYPE
  5
70
330
5
100
AcDbSymbolTableRecord
100
AcDbLinetypeTableRecord
  2
DOT_CENTER
 70
     0
  3
Dot_Center
 72
    65
 73
     4
 40
14.0
 49
12.0
 74
     0
 49
-1.0
 74
     0
 49
0.0
 74
     0
 49
-1.0
 74
     0
  0
LTYPE
  5
71
330
5
100
AcDbSymbolTableRecord
100
AcDbLinetypeTableRecord
  2
LONG_DASHED
 70
     0
  3
Long_Dashed
 72
    65
 73
     2
 40
15.0
 49
10.0
 74
     0
 49
-5.0
 74
     0
  0
LTYPE
  5
72
330
5
100
AcDbSymbolTableRecord
100
AcDbLinetypeTableRecord
  2
DASH_CENTER
 70
     0
  3
Dash_Center
 72
    65
 73
     4
 40
14.0
 49
11.0
 74
     0
 49
-1.0
 74
     0
 49
1.0
 74
     0
 49
-1.0
 74
     0
  0
LTYPE
  5
73
330
5
100
AcDbSymbolTableRecord
100
AcDbLinetypeTableRecord
  2
PHANTOM
 70
     0
  3
Phantom
 72
    65
 73
     6
 40
13.0
 49
10.0
 74
     0
 49
-1.0
 74
     0
 49
0.0
 74
     0
 49
-1.0
 74
     0
 49
0.0
 74
     0
 49
-1.0
 74
     0
  0
LTYPE
  5
74
330
5
100
AcDbSymbolTableRecord
100
AcDbLinetypeTableRecord
  2
CENTER_DASH_DASH
 70
     0
  3
Center_Dash_Dash
 72
    65
 73
     6
 40
14.0
 49
9.0
 74
     0
 49
-1.0
 74
     0
 49
1.0
 74
     0
 49
-1.0
 74
     0
 49
1.0
 74
     0
 49
-1.0
 74
     0
  0
ENDTAB
  0
TABLE
  2
LAYER
  5
2
330
0
100
AcDbSymbolTable
 70
     2
  0
LAYER
  5
10
330
2
100
AcDbSymbolTableRecord
100
AcDbLayerTableRecord
  2
0
 70
     0
 62
     7
  6
CONTINUOUS
  0
LAYER
  5
75
330
2
100
AcDbSymbolTableRecord
100
AcDbLayerTableRecord
  2
1
 70
     0
 62
     7
  6
CONTINUOUS
  0
ENDTAB
  0
TABLE
  2
STYLE
  5
3
330
0
100
AcDbSymbolTable
 70
     2
  0
STYLE
  5
11
330
3
100
AcDbSymbolTableRecord
100
AcDbTextStyleTableRecord
  2
STANDARD
 70
     0
 40
0.0
 41
1.0
 50
0.0
 71
     0
 42
0.2
  3
txt
  4

  0
STYLE
  5
42B
330
3
100
AcDbSymbolTableRecord
100
AcDbTextStyleTableRecord
  2
CONVERTER_11
 70
     0
 40
0.0
 41
0.9
 50
0.0
 71
     0
 42
0.2
  3
txt.shx
  4

  0
ENDTAB
  0
TABLE
  2
VIEW
  5
6
330
0
100
AcDbSymbolTable
 70
     0
  0
ENDTAB
  0
TABLE
  2
UCS
  5
7
330
0
100
AcDbSymbolTable
 70
     0
  0
ENDTAB
  0
TABLE
  2
APPID
  5
9
330
0
100
AcDbSymbolTable
 70
     2
  0
APPID
  5
12
330
9
100
AcDbSymbolTableRecord
100
AcDbRegAppTableRecord
  2
ACAD
 70
     0
  0
APPID
  5
4AA
330
9
100
AcDbSymbolTableRecord
100
AcDbRegAppTableRecord
  2
ACAD_MLEADERVER
 70
     0
  0
ENDTAB
  0
TABLE
  2
DIMSTYLE
  5
A
330
0
100
AcDbSymbolTable
 70
     7
  0
DIMSTYLE
105
27
330
A
100
AcDbSymbolTableRecord
100
AcDbDimStyleTableRecord
  2
STANDARD
 70
     0
  3

  4

  5

  6

  7

 40
1.0
 41
0.18
 42
0.0625
 43
0.38
 44
0.18
 45
0.0
 46
0.0
 47
0.0
 48
0.0
140
0.18
141
0.09
142
0.0
143
25.4
144
1.0
145
0.0
146
1.0
147
0.09
 71
     0
 72
     0
 73
     1
 74
     1
 75
     0
 76
     0
 77
     0
 78
     0
170
     0
171
     2
172
     0
173
     0
174
     0
175
     0
176
     0
177
     0
178
     0
270
     2
271
     4
272
     4
273
     2
274
     2
340
11
275
     0
280
     0
281
     0
282
     0
283
     1
284
     0
285
     0
286
     0
287
     3
288
     0
  0
DIMSTYLE
105
435
102
{ACAD_REACTORS
330
436
102
}
330
A
100
AcDbSymbolTableRecord
100
AcDbDimStyleTableRecord
  2
ME10_DIM_10
 70
     0
  3

  4

  5

  6
OPEN30
  7
OPEN30
 40
1.0
 41
2.5
 42
0.5
 43
0.38
 44
2.121320343
 45
0.0
 46
0.0
 47
0.0
 48
0.0
140
2.5
141
0.09
142
0.0
143
25.4
144
1.0
145
0.0
146
1.0
147
1.0
 71
     0
 72
     0
 73
     0
 74
     0
 75
     0
 76
     0
 77
     1
 78
    12
170
     0
171
     2
172
     1
173
     1
174
     1
175
     1
176
     2
177
     2
178
     2
270
     2
271
     2
272
     4
273
     2
274
     2
340
42B
275
     0
280
     0
281
     0
282
     0
283
     1
284
     0
285
     0
286
     0
287
     3
288
     0
  0
DIMSTYLE
105
442
102
{ACAD_REACTORS
330
443
102
}
330
A
100
AcDbSymbolTableRecord
100
AcDbDimStyleTableRecord
  2
ME10_DIM_11
 70
     0
  3

  4

  5

  6
OPEN30
  7
OPEN30
 40
1.0
 41
2.5
 42
0.5
 43
0.38
 44
2.121320343
 45
0.0
 46
0.0
 47
0.0
 48
0.0
140
2.5
141
0.09
142
0.0
143
25.4
144
1.0
145
0.0
146
1.0
147
1.0
 71
     0
 72
     0
 73
     0
 74
     0
 75
     0
 76
     0
 77
     1
 78
    12
170
     0
171
     2
172
     1
173
     1
174
     1
175
     1
176
     2
177
     2
178
     2
270
     2
271
     2
272
     4
273
     2
274
     2
340
42B
275
     0
280
     0
281
     0
282
     0
283
     1
284
     0
285
     0
286
     0
287
     3
288
     0
  0
DIMSTYLE
105
44F
102
{ACAD_REACTORS
330
450
102
}
330
A
100
AcDbSymbolTableRecord
100
AcDbDimStyleTableRecord
  2
ME10_DIM_12
 70
     0
  3

  4

  5

  6
OPEN30
  7
OPEN30
 40
1.0
 41
2.5
 42
0.5
 43
0.38
 44
2.121320343
 45
0.0
 46
0.0
 47
0.0
 48
0.0
140
2.5
141
0.09
142
0.0
143
25.4
144
1.0
145
0.0
146
1.0
147
1.0
 71
     0
 72
     0
 73
     0
 74
     0
 75
     0
 76
     0
 77
     1
 78
    12
170
     0
171
     2
172
     1
173
     1
174
     1
175
     1
176
     2
177
     2
178
     2
270
     2
271
     2
272
     4
273
     2
274
     2
340
42B
275
     0
280
     0
281
     0
282
     0
283
     1
284
     0
285
     0
286
     0
287
     3
288
     0
  0
DIMSTYLE
105
45C
102
{ACAD_REACTORS
330
45D
102
}
330
A
100
AcDbSymbolTableRecord
100
AcDbDimStyleTableRecord
  2
ME10_DIM_13
 70
     0
  3

  4

  5

  6
OPEN30
  7
OPEN30
 40
1.0
 41
2.5
 42
0.5
 43
0.38
 44
2.121320343
 45
0.0
 46
0.0
 47
0.0
 48
0.0
140
2.5
141
0.09
142
0.0
143
25.4
144
1.0
145
0.0
146
1.0
147
1.0
 71
     0
 72
     0
 73
     0
 74
     0
 75
     0
 76
     0
 77
     1
 78
    12
170
     0
171
     2
172
     1
173
     1
174
     1
175
     1
176
     2
177
     2
178
     2
270
     2
271
     2
272
     4
273
     2
274
     2
340
42B
275
     0
280
     0
281
     0
282
     0
283
     1
284
     0
285
     0
286
     0
287
     3
288
     0
  0
DIMSTYLE
105
469
102
{ACAD_REACTORS
330
46A
102
}
330
A
100
AcDbSymbolTableRecord
100
AcDbDimStyleTableRecord
  2
ME10_DIM_14
 70
     0
  3

  4

  5

  6
OPEN30
  7
OPEN30
 40
1.0
 41
2.5
 42
0.5
 43
0.38
 44
2.121320343
 45
0.0
 46
0.0
 47
0.0
 48
0.0
140
2.5
141
0.09
142
0.0
143
25.4
144
1.0
145
0.0
146
1.0
147
1.0
 71
     0
 72
     0
 73
     0
 74
     0
 75
     0
 76
     0
 77
     1
 78
    12
170
     0
171
     2
172
     1
173
     1
174
     1
175
     1
176
     2
177
     2
178
     2
270
     2
271
     2
272
     4
273
     2
274
     2
340
42B
275
     0
280
     0
281
     0
282
     0
283
     1
284
     0
285
     0
286
     0
287
     3
288
     0
  0
DIMSTYLE
105
476
102
{ACAD_REACTORS
330
477
102
}
330
A
100
AcDbSymbolTableRecord
100
AcDbDimStyleTableRecord
  2
ME10_DIM_15
 70
     0
  3

  4

  5

  6
OPEN30
  7
OPEN30
 40
1.0
 41
2.5
 42
0.5
 43
0.38
 44
2.121320343
 45
0.0
 46
0.0
 47
0.0
 48
0.0
140
2.5
141
0.09
142
0.0
143
25.4
144
1.0
145
0.0
146
1.0
147
1.0
 71
     0
 72
     0
 73
     0
 74
     0
 75
     0
 76
     0
 77
     1
 78
    12
170
     0
171
     2
172
     1
173
     1
174
     1
175
     1
176
     2
177
     2
178
     2
270
     2
271
     2
272
     4
273
     2
274
     2
340
42B
275
     0
280
     0
281
     0
282
     0
283
     1
284
     0
285
     0
286
     0
287
     3
288
     0
  0
ENDTAB
  0
TABLE
  2
BLOCK_RECORD
  5
1
330
0
100
AcDbSymbolTable
 70
     8
  0
BLOCK_RECORD
  5
1F
330
1
100
AcDbSymbolTableRecord
100
AcDbBlockTableRecord
  2
*MODEL_SPACE
  0
BLOCK_RECORD
  5
1B
330
1
100
AcDbSymbolTableRecord
100
AcDbBlockTableRecord
  2
*PAPER_SPACE
  0
BLOCK_RECORD
  5
423
330
1
100
AcDbSymbolTableRecord
100
AcDbBlockTableRecord
  2
*D1
  0
BLOCK_RECORD
  5
42F
330
1
100
AcDbSymbolTableRecord
100
AcDbBlockTableRecord
  2
_OPEN30
  0
BLOCK_RECORD
  5
437
330
1
100
AcDbSymbolTableRecord
100
AcDbBlockTableRecord
  2
*D3
  0
BLOCK_RECORD
  5
444
330
1
100
AcDbSymbolTableRecord
100
AcDbBlockTableRecord
  2
*D4
  0
BLOCK_RECORD
  5
451
330
1
100
AcDbSymbolTableRecord
100
AcDbBlockTableRecord
  2
*D5
  0
BLOCK_RECORD
  5
45E
330
1
100
AcDbSymbolTableRecord
100
AcDbBlockTableRecord
  2
*D6
  0
BLOCK_RECORD
  5
46B
330
1
100
AcDbSymbolTableRecord
100
AcDbBlockTableRecord
  2
*D7
  0
ENDTAB
  0
ENDSEC
  0
SECTION
  2
BLOCKS
  0
BLOCK
  5
20
330
1F
100
AcDbEntity
  8
0
100
AcDbBlockBegin
  2
*MODEL_SPACE
 70
     0
 10
0.0
 20
0.0
 30
0.0
  3
*MODEL_SPACE
  1

  0
ENDBLK
  5
21
330
1F
100
AcDbEntity
  8
0
100
AcDbBlockEnd
  0
BLOCK
  5
1C
330
1B
100
AcDbEntity
 67
     1
  8
0
100
AcDbBlockBegin
  2
*PAPER_SPACE
 70
     0
 10
0.0
 20
0.0
 30
0.0
  3
*PAPER_SPACE
  1

  0
ENDBLK
  5
1D
330
1B
100
AcDbEntity
 67
     1
  8
0
100
AcDbBlockEnd
  0
BLOCK
  5
42D
330
423
100
AcDbEntity
  8
0
100
AcDbBlockBegin
  2
*D1
 70
     1
 10
0.0
 20
0.0
 30
0.0
  3
*D1
  1

  0
LINE
  5
424
330
423
100
AcDbEntity
  8
1
  6
CONTINUOUS
 62
     2
100
AcDbLine
 10
104.936711478893
 20
116.748973199
 30
0.0
 11
127.436712372893
 21
116.748973199
 31
0.0
  0
LINE
  5
425
330
423
100
AcDbEntity
  8
1
  6
CONTINUOUS
 62
     2
100
AcDbLine
 10
104.936711478893
 20
124.1957929813
 30
0.0
 11
104.936711478893
 21
114.627652856
 31
0.0
  0
LINE
  5
426
330
423
100
AcDbEntity
  8
1
  6
CONTINUOUS
 62
     2
100
AcDbLine
 10
127.436712372893
 20
124.1957929813
 30
0.0
 11
127.436712372893
 21
114.627652856
 31
0.0
  0
LINE
  5
427
330
423
100
AcDbEntity
  8
1
 62
     2
100
AcDbLine
 10
127.436712372893
 20
116.748973199
 30
0.0
 11
124.936712372893
 21
116.0791002179222
 31
0.0
  0
LINE
  5
428
330
423
100
AcDbEntity
  8
1
 62
     2
100
AcDbLine
 10
127.436712372893
 20
116.748973199
 30
0.0
 11
124.936712372893
 21
117.4188461800778
 31
0.0
  0
LINE
  5
429
330
423
100
AcDbEntity
  8
1
 62
     2
100
AcDbLine
 10
104.936711478893
 20
116.748973199
 30
0.0
 11
107.436711478893
 21
117.4188461800778
 31
0.0
  0
LINE
  5
42A
330
423
100
AcDbEntity
  8
1
 62
     2
100
AcDbLine
 10
104.936711478893
 20
116.748973199
 30
0.0
 11
107.436711478893
 21
116.0791002179222
 31
0.0
  0
MTEXT
  5
42C
330
423
100
AcDbEntity
  8
1
 62
     2
100
AcDbMText
 10
112.4967149559893
 20
117.7489642541913
 30
0.0
 40
2.5
 41
0.0
 71
     7
 72
     1
  1
22.5
  7
CONVERTER_11
 11
0.9999999999882478
 21
4.848136811095759E-6
 31
0.0
1001
ACAD
1000
MTEXTBEGIN
1070
    44
1040
0.60024009603842
1000
MTEXTEND
  0
ENDBLK
  5
42E
330
423
100
AcDbEntity
  8
0
100
AcDbBlockEnd
  0
BLOCK
  5
430
330
42F
100
AcDbEntity
  8
0
100
AcDbBlockBegin
  2
_OPEN30
 70
     0
 10
0.0
 20
0.0
 30
0.0
  3
_OPEN30
  1

  0
LINE
  5
432
330
42F
100
AcDbEntity
  8
0
  6
BYBLOCK
 62
     0
100
AcDbLine
 10
-1.0
 20
0.267949
 30
0.0
 11
0.0
 21
0.0
 31
0.0
  0
LINE
  5
433
330
42F
100
AcDbEntity
  8
0
  6
BYBLOCK
 62
     0
100
AcDbLine
 10
0.0
 20
0.0
 30
0.0
 11
-1.0
 21
-0.267949
 31
0.0
  0
LINE
  5
434
330
42F
100
AcDbEntity
  8
0
  6
BYBLOCK
 62
     0
100
AcDbLine
 10
0.0
 20
0.0
 30
0.0
 11
-1.0
 21
0.0
 31
0.0
  0
ENDBLK
  5
431
330
42F
100
AcDbEntity
  8
0
100
AcDbBlockEnd
  0
BLOCK
  5
440
330
437
100
AcDbEntity
  8
0
100
AcDbBlockBegin
  2
*D3
 70
     1
 10
0.0
 20
0.0
 30
0.0
  3
*D3
  1

  0
LINE
  5
438
330
437
100
AcDbEntity
  8
1
  6
CONTINUOUS
 62
     2
100
AcDbLine
 10
138.833685757168
 20
175.5887888911399
 30
0.0
 11
138.833685757168
 21
212.7489747488
 31
0.0
  0
LINE
  5
439
330
437
100
AcDbEntity
  8
1
  6
CONTINUOUS
 62
     2
100
AcDbLine
 10
133.236623159917
 20
175.5887888911399
 30
0.0
 11
140.955006100168
 21
175.5887888911399
 31
0.0
  0
LINE
  5
43A
330
437
100
AcDbEntity
  8
1
  6
CONTINUOUS
 62
     2
100
AcDbLine
 10
126.9367122089933
 20
212.7489747488
 30
0.0
 11
140.955006100168
 21
212.7489747488
 31
0.0
  0
LINE
  5
43B
330
437
100
AcDbEntity
  8
1
 62
     2
100
AcDbLine
 10
138.833685757168
 20
212.7489747488
 30
0.0
 11
139.5035587382458
 21
210.2489747488
 31
0.0
  0
LINE
  5
43C
330
437
100
AcDbEntity
  8
1
 62
     2
100
AcDbLine
 10
138.833685757168
 20
212.7489747488
 30
0.0
 11
138.1638127760902
 21
210.2489747488
 31
0.0
  0
LINE
  5
43D
330
437
100
AcDbEntity
  8
1
 62
     2
100
AcDbLine
 10
138.833685757168
 20
175.5887888911399
 30
0.0
 11
138.1638127760902
 21
178.0887888911399
 31
0.0
  0
LINE
  5
43E
330
437
100
AcDbEntity
  8
1
 62
     2
100
AcDbLine
 10
138.833685757168
 20
175.5887888911399
 30
0.0
 11
139.5035587382458
 21
178.0887888911399
 31
0.0
  0
MTEXT
  5
43F
330
437
100
AcDbEntity
  8
1
 62
     2
100
AcDbMText
 10
137.833685757168
 20
193.767167223687
 30
0.0
 40
2.5
 41
0.0
 71
     7
 72
     1
  1
37
  7
CONVERTER_11
 11
0.0
 21
1.0
 31
0.0
1001
ACAD
1000
MTEXTBEGIN
1070
    44
1040
0.60024009603842
1000
MTEXTEND
  0
ENDBLK
  5
441
330
437
100
AcDbEntity
  8
0
100
AcDbBlockEnd
  0
BLOCK
  5
44D
330
444
100
AcDbEntity
  8
0
100
AcDbBlockBegin
  2
*D4
 70
     1
 10
0.0
 20
0.0
 30
0.0
  3
*D4
  1

  0
LINE
  5
445
330
444
100
AcDbEntity
  8
1
  6
CONTINUOUS
 62
     2
100
AcDbLine
 10
145.833685757168
 20
123.748973199
 30
0.0
 11
145.833685757168
 21
212.7489747488
 31
0.0
  0
LINE
  5
446
330
444
100
AcDbEntity
  8
1
  6
CONTINUOUS
 62
     2
100
AcDbLine
 10
126.9367122089933
 20
123.748973199
 30
0.0
 11
147.955006100168
 21
123.748973199
 31
0.0
  0
LINE
  5
447
330
444
100
AcDbEntity
  8
1
  6
CONTINUOUS
 62
     2
100
AcDbLine
 10
126.9367122089933
 20
212.7489747488
 30
0.0
 11
147.955006100168
 21
212.7489747488
 31
0.0
  0
LINE
  5
448
330
444
100
AcDbEntity
  8
1
 62
     2
100
AcDbLine
 10
145.833685757168
 20
212.7489747488
 30
0.0
 11
146.5035587382458
 21
210.2489747488
 31
0.0
  0
LINE
  5
449
330
444
100
AcDbEntity
  8
1
 62
     2
100
AcDbLine
 10
145.833685757168
 20
212.7489747488
 30
0.0
 11
145.1638127760902
 21
210.2489747488
 31
0.0
  0
LINE
  5
44A
330
444
100
AcDbEntity
  8
1
 62
     2
100
AcDbLine
 10
145.833685757168
 20
123.748973199
 30
0.0
 11
145.1638127760902
 21
126.248973199
 31
0.0
  0
LINE
  5
44B
330
444
100
AcDbEntity
  8
1
 62
     2
100
AcDbLine
 10
145.833685757168
 20
123.748973199
 30
0.0
 11
146.5035587382458
 21
126.248973199
 31
0.0
  0
MTEXT
  5
44C
330
444
100
AcDbEntity
  8
1
 62
     2
100
AcDbMText
 10
144.833685757168
 20
166.4039739739
 30
0.0
 40
2.5
 41
0.0
 71
     7
 72
     1
  1
89
  7
CONVERTER_11
 11
0.0
 21
1.0
 31
0.0
1001
ACAD
1000
MTEXTBEGIN
1070
    44
1040
0.60024009603842
1000
MTEXTEND
  0
ENDBLK
  5
44E
330
444
100
AcDbEntity
  8
0
100
AcDbBlockEnd
  0
BLOCK
  5
45A
330
451
100
AcDbEntity
  8
0
100
AcDbBlockBegin
  2
*D5
 70
     1
 10
0.0
 20
0.0
 30
0.0
  3
*D5
  1

  0
LINE
  5
452
330
451
100
AcDbEntity
  8
1
  6
CONTINUOUS
 62
     2
100
AcDbLine
 10
162.8962496951
 20
116.748973199
 30
0.0
 11
152.8962496950439
 21
116.748973199
 31
0.0
  0
LINE
  5
453
330
451
100
AcDbEntity
  8
1
  6
CONTINUOUS
 62
     2
100
AcDbLine
 10
162.8962496951
 20
125.2488990211
 30
0.0
 11
162.8962496951
 21
114.627652856
 31
0.0
  0
LINE
  5
454
330
451
100
AcDbEntity
  8
1
  6
CONTINUOUS
 62
     2
100
AcDbLine
 10
152.8962496950439
 20
167.417631280651
 30
0.0
 11
152.8962496950439
 21
114.627652856
 31
0.0
  0
LINE
  5
455
330
451
100
AcDbEntity
  8
1
 62
     2
100
AcDbLine
 10
152.8962496950439
 20
116.748973199
 30
0.0
 11
155.3962496950439
 21
117.4188461800778
 31
0.0
  0
LINE
  5
456
330
451
100
AcDbEntity
  8
1
 62
     2
100
AcDbLine
 10
152.8962496950439
 20
116.748973199
 30
0.0
 11
155.3962496950439
 21
116.0791002179222
 31
0.0
  0
LINE
  5
457
330
451
100
AcDbEntity
  8
1
 62
     2
100
AcDbLine
 10
162.8962496951
 20
116.748973199
 30
0.0
 11
160.3962496951
 21
116.0791002179222
 31
0.0
  0
LINE
  5
458
330
451
100
AcDbEntity
  8
1
 62
     2
100
AcDbLine
 10
162.8962496951
 20
116.748973199
 30
0.0
 11
160.3962496951
 21
117.4188461800778
 31
0.0
  0
MTEXT
  5
459
330
451
100
AcDbEntity
  8
1
 62
     2
100
AcDbMText
 10
156.0512527251629
 20
117.7489687265975
 30
0.0
 40
2.5
 41
0.0
 71
     7
 72
     1
  1
10
  7
CONVERTER_11
 11
0.9999999999882478
 21
4.848136811095759E-6
 31
0.0
1001
ACAD
1000
MTEXTBEGIN
1070
    44
1040
0.60024009603842
1000
MTEXTEND
  0
ENDBLK
  5
45B
330
451
100
AcDbEntity
  8
0
100
AcDbBlockEnd
  0
BLOCK
  5
467
330
45E
100
AcDbEntity
  8
0
100
AcDbBlockBegin
  2
*D6
 70
     1
 10
0.0
 20
0.0
 30
0.0
  3
*D6
  1

  0
LINE
  5
45F
330
45E
100
AcDbEntity
  8
1
  6
CONTINUOUS
 62
     2
100
AcDbLine
 10
232.8962499931
 20
116.748973199
 30
0.0
 11
162.8962496951
 21
116.748973199
 31
0.0
  0
LINE
  5
460
330
45E
100
AcDbEntity
  8
1
  6
CONTINUOUS
 62
     2
100
AcDbLine
 10
232.8962499931
 20
125.7489745401
 30
0.0
 11
232.8962499931
 21
114.627652856
 31
0.0
  0
LINE
  5
461
330
45E
100
AcDbEntity
  8
1
  6
CONTINUOUS
 62
     2
100
AcDbLine
 10
162.8962496951
 20
125.2488990211
 30
0.0
 11
162.8962496951
 21
114.627652856
 31
0.0
  0
LINE
  5
462
330
45E
100
AcDbEntity
  8
1
 62
     2
100
AcDbLine
 10
162.8962496951
 20
116.748973199
 30
0.0
 11
165.3962496951
 21
117.4188461800778
 31
0.0
  0
LINE
  5
463
330
45E
100
AcDbEntity
  8
1
 62
     2
100
AcDbLine
 10
162.8962496951
 20
116.748973199
 30
0.0
 11
165.3962496951
 21
116.0791002179222
 31
0.0
  0
LINE
  5
464
330
45E
100
AcDbEntity
  8
1
 62
     2
100
AcDbLine
 10
232.8962499931
 20
116.748973199
 30
0.0
 11
230.3962499931
 21
116.0791002179222
 31
0.0
  0
LINE
  5
465
330
45E
100
AcDbEntity
  8
1
 62
     2
100
AcDbLine
 10
232.8962499931
 20
116.748973199
 30
0.0
 11
230.3962499931
 21
117.4188461800778
 31
0.0
  0
MTEXT
  5
466
330
45E
100
AcDbEntity
  8
1
 62
     2
100
AcDbMText
 10
196.0512528741909
 20
117.7489687265975
 30
0.0
 40
2.5
 41
0.0
 71
     7
 72
     1
  1
70
  7
CONVERTER_11
 11
0.9999999999882478
 21
4.848136811095759E-6
 31
0.0
1001
ACAD
1000
MTEXTBEGIN
1070
    44
1040
0.60024009603842
1000
MTEXTEND
  0
ENDBLK
  5
468
330
45E
100
AcDbEntity
  8
0
100
AcDbBlockEnd
  0
BLOCK
  5
474
330
46B
100
AcDbEntity
  8
0
100
AcDbBlockBegin
  2
*D7
 70
     1
 10
0.0
 20
0.0
 30
0.0
  3
*D7
  1

  0
LINE
  5
46C
330
46B
100
AcDbEntity
  8
1
  6
CONTINUOUS
 62
     2
100
AcDbLine
 10
232.8962499931
 20
116.748973199
 30
0.0
 11
262.8962499931
 21
116.748973199
 31
0.0
  0
LINE
  5
46D
330
46B
100
AcDbEntity
  8
1
  6
CONTINUOUS
 62
     2
100
AcDbLine
 10
232.8962499931
 20
158.0888041499398
 30
0.0
 11
232.8962499931
 21
114.627652856
 31
0.0
  0
LINE
  5
46E
330
46B
100
AcDbEntity
  8
1
  6
CONTINUOUS
 62
     2
100
AcDbLine
 10
262.8962499931
 20
135.0888041499398
 30
0.0
 11
262.8962499931
 21
114.627652856
 31
0.0
  0
LINE
  5
46F
330
46B
100
AcDbEntity
  8
1
 62
     2
100
AcDbLine
 10
262.8962499931
 20
116.748973199
 30
0.0
 11
260.3962499931
 21
116.0791002179222
 31
0.0
  0
LINE
  5
470
330
46B
100
AcDbEntity
  8
1
 62
     2
100
AcDbLine
 10
262.8962499931
 20
116.748973199
 30
0.0
 11
260.3962499931
 21
117.4188461800778
 31
0.0
  0
LINE
  5
471
330
46B
100
AcDbEntity
  8
1
 62
     2
100
AcDbLine
 10
232.8962499931
 20
116.748973199
 30
0.0
 11
235.3962499931
 21
117.4188461800778
 31
0.0
  0
LINE
  5
472
330
46B
100
AcDbEntity
  8
1
 62
     2
100
AcDbLine
 10
232.8962499931
 20
116.748973199
 30
0.0
 11
235.3962499931
 21
116.0791002179222
 31
0.0
  0
MTEXT
  5
473
330
46B
100
AcDbEntity
  8
1
 62
     2
100
AcDbMText
 10
246.051253023191
 20
117.7489687265975
 30
0.0
 40
2.5
 41
0.0
 71
     7
 72
     1
  1
30
  7
CONVERTER_11
 11
0.9999999999882478
 21
4.848136811095759E-6
 31
0.0
1001
ACAD
1000
MTEXTBEGIN
1070
    44
1040
0.60024009603842
1000
MTEXTEND
  0
ENDBLK
  5
475
330
46B
100
AcDbEntity
  8
0
100
AcDbBlockEnd
  0
ENDSEC
  0
SECTION
  2
ENTITIES
  0
POINT
  5
76
330
1F
100
AcDbEntity
  8
1
 62
     7
100
AcDbPoint
 10
104.936711478893
 20
124.6957929813
 30
0.0
  0
POINT
  5
77
330
1F
100
AcDbEntity
  8
1
 62
     7
100
AcDbPoint
 10
127.436712372893
 20
124.6957929813
 30
0.0
  0
POINT
  5
78
330
1F
100
AcDbEntity
  8
1
 62
     7
100
AcDbPoint
 10
132.736623159917
 20
175.58878889114
 30
0.0
  0
POINT
  5
79
330
1F
100
AcDbEntity
  8
1
 62
     7
100
AcDbPoint
 10
126.436712208993
 20
212.7489747488
 30
0.0
  0
POINT
  5
7A
330
1F
100
AcDbEntity
  8
1
 62
     7
100
AcDbPoint
 10
126.436712208993
 20
123.748973199
 30
0.0
  0
POINT
  5
7B
330
1F
100
AcDbEntity
  8
1
 62
     7
100
AcDbPoint
 10
126.436712208993
 20
212.7489747488
 30
0.0
  0
POINT
  5
7C
330
1F
100
AcDbEntity
  8
1
 62
     7
100
AcDbPoint
 10
162.8962496951
 20
125.7488990211
 30
0.0
  0
POINT
  5
7D
330
1F
100
AcDbEntity
  8
1
 62
     7
100
AcDbPoint
 10
152.896249695044
 20
167.917631280651
 30
0.0
  0
POINT
  5
7E
330
1F
100
AcDbEntity
  8
1
 62
     7
100
AcDbPoint
 10
232.8962499931
 20
126.2489745401
 30
0.0
  0
POINT
  5
7F
330
1F
100
AcDbEntity
  8
1
 62
     7
100
AcDbPoint
 10
162.8962496951
 20
125.7488990211
 30
0.0
  0
POINT
  5
80
330
1F
100
AcDbEntity
  8
1
 62
     7
100
AcDbPoint
 10
232.8962499931
 20
158.58880414994
 30
0.0
  0
POINT
  5
81
330
1F
100
AcDbEntity
  8
1
 62
     7
100
AcDbPoint
 10
262.8962499931
 20
135.58880414994
 30
0.0
  0
POINT
  5
82
330
1F
100
AcDbEntity
  8
1
 62
     3
100
AcDbPoint
 10
152.896249695044
 20
167.917631280651
 30
0.0
  0
LINE
  5
83
330
1F
100
AcDbEntity
  8
0
  6
CONTINUOUS
 62
     7
100
AcDbLine
 10
108.8385357429523
 20
206.7335893585655
 30
0.0
 11
107.8165638855404
 21
206.7335893585655
 31
0.0
  0
LINE
  5
84
330
1F
100
AcDbEntity
  8
0
  6
CONTINUOUS
 62
     7
100
AcDbLine
 10
111.9478609036439
 20
207.5643585893347
 30
0.0
 11
111.766162079498
 21
207.5643585893347
 31
0.0
  0
LINE
  5
85
330
1F
100
AcDbEntity
  8
0
  6
CONTINUOUS
 62
     7
100
AcDbLine
 10
112.2678728438506
 20
207.5643585893347
 30
0.0
 11
112.1974759919453
 21
207.5643585893347
 31
0.0
  0
LINE
  5
86
330
1F
100
AcDbEntity
  8
0
  6
CONTINUOUS
 62
     7
100
AcDbLine
 10
114.8591817993566
 20
206.8032563454696
 30
0.0
 11
114.8274198208741
 21
206.684719028024
 31
0.0
  0
LINE
  5
87
330
1F
100
AcDbEntity
  8
0
  6
CONTINUOUS
 62
     7
100
AcDbLine
 10
114.8851833845417
 20
206.8032563454696
 30
0.0
 11
114.8591817993566
 21
206.8032563454696
 31
0.0
  0
LINE
  5
88
330
1F
100
AcDbEntity
  8
0
  6
CONTINUOUS
 62
     7
100
AcDbLine
 10
116.5475980914526
 20
207.0797432047193
 30
0.0
 11
116.446409513176
 21
207.0797432047193
 31
0.0
  0
LINE
  5
89
330
1F
100
AcDbEntity
  8
0
  6
CONTINUOUS
 62
     7
100
AcDbLine
 10
116.6733306772925
 20
206.907887380195
 30
0.0
 11
116.6479057734135
 21
207.0027744132492
 31
0.0
  0
LINE
  5
8A
330
1F
100
AcDbEntity
  8
0
  6
CONTINUOUS
 62
     7
100
AcDbLine
 10
116.4544205032839
 20
206.7335893585655
 30
0.0
 11
116.5395871013449
 21
206.7335893585655
 31
0.0
  0
LINE
  5
8B
330
1F
100
AcDbEntity
  8
0
  6
CONTINUOUS
 62
     7
100
AcDbLine
 10
116.3461018312151
 20
207.0027744132492
 30
0.0
 11
116.3206769273362
 21
206.907887380195
 31
0.0
  0
LINE
  5
8C
330
1F
100
AcDbEntity
  8
0
  6
CONTINUOUS
 62
     7
100
AcDbLine
 10
107.8165638855404
 20
206.7335893585655
 30
0.0
 11
107.6867115845931
 21
206.24897397395
 31
0.0
  0
LINE
  5
8D
330
1F
100
AcDbEntity
  8
0
  6
CONTINUOUS
 62
     7
100
AcDbLine
 10
108.2078659260578
 20
207.4412880367388
 30
0.0
 11
108.8838892215639
 21
206.8551265460078
 31
0.0
  0
LINE
  5
8E
330
1F
100
AcDbEntity
  8
0
  6
CONTINUOUS
 62
     7
100
AcDbLine
 10
109.606895643581
 20
208.04897397395
 30
0.0
 11
108.4346333191156
 21
208.04897397395
 31
0.0
  0
LINE
  5
8F
330
1F
100
AcDbEntity
  8
0
  6
CONTINUOUS
 62
     7
100
AcDbLine
 10
110.2475361547155
 20
208.04897397395
 30
0.0
 11
110.210435497302
 21
207.9105124354885
 31
0.0
  0
LINE
  5
90
330
1F
100
AcDbEntity
  8
0
  6
CONTINUOUS
 62
     7
100
AcDbLine
 10
110.749246919068
 20
208.04897397395
 30
0.0
 11
110.2475361547155
 21
208.04897397395
 31
0.0
  0
LINE
  5
91
330
1F
100
AcDbEntity
  8
0
  6
CONTINUOUS
 62
     7
100
AcDbLine
 10
110.5506488663979
 20
207.3077959511009
 30
0.0
 11
110.749246919068
 21
208.04897397395
 31
0.0
  0
LINE
  5
92
330
1F
100
AcDbEntity
  8
0
  6
CONTINUOUS
 62
     7
100
AcDbLine
 10
111.1602233511381
 20
206.907887380195
 30
0.0
 11
111.2193667461365
 21
207.1286135352608
 31
0.0
  0
LINE
  5
93
330
1F
100
AcDbEntity
  8
0
  6
CONTINUOUS
 62
     7
100
AcDbLine
 10
111.3841902221288
 20
206.7335893585655
 30
0.0
 11
111.293966927086
 21
206.7335893585655
 31
0.0
  0
LINE
  5
94
330
1F
100
AcDbEntity
  8
0
  6
CONTINUOUS
 62
     7
100
AcDbLine
 10
111.766162079498
 20
207.5643585893347
 30
0.0
 11
111.5848055860505
 21
206.8875269415056
 31
0.0
  0
LINE
  5
95
330
1F
100
AcDbEntity
  8
0
  6
CONTINUOUS
 62
     7
100
AcDbLine
 10
112.0919719135073
 20
206.907887380195
 30
0.0
 11
112.2678728438506
 21
207.5643585893347
 31
0.0
  0
LINE
  5
96
330
1F
100
AcDbEntity
  8
0
  6
CONTINUOUS
 62
     7
100
AcDbLine
 10
112.697910641867
 20
207.5643585893347
 30
0.0
 11
112.5165541484194
 21
206.8875269415056
 31
0.0
  0
LINE
  5
97
330
1F
100
AcDbEntity
  8
0
  6
CONTINUOUS
 62
     7
100
AcDbLine
 10
113.1996214062195
 20
207.5643585893347
 30
0.0
 11
112.697910641867
 21
207.5643585893347
 31
0.0
  0
LINE
  5
98
330
1F
100
AcDbEntity
  8
0
  6
CONTINUOUS
 62
     7
100
AcDbLine
 10
113.1308756544969
 20
207.3077959511009
 30
0.0
 11
113.1996214062195
 21
207.5643585893347
 31
0.0
  0
LINE
  5
99
330
1F
100
AcDbEntity
  8
0
  6
CONTINUOUS
 62
     7
100
AcDbLine
 10
113.7404501392372
 20
206.907887380195
 30
0.0
 11
113.7995935342354
 21
207.1286135352608
 31
0.0
  0
LINE
  5
9A
330
1F
100
AcDbEntity
  8
0
  6
CONTINUOUS
 62
     7
100
AcDbLine
 10
113.9644170102277
 20
206.7335893585655
 30
0.0
 11
113.874193715185
 21
206.7335893585655
 31
0.0
  0
LINE
  5
9B
330
1F
100
AcDbEntity
  8
0
  6
CONTINUOUS
 62
     7
100
AcDbLine
 10
114.4762411685443
 20
208.04897397395
 30
0.0
 11
114.1650323741495
 21
206.8875269415056
 31
0.0
  0
LINE
  5
9C
330
1F
100
AcDbEntity
  8
0
  6
CONTINUOUS
 62
     7
100
AcDbLine
 10
114.9779519328969
 20
208.04897397395
 30
0.0
 11
114.4762411685443
 21
208.04897397395
 31
0.0
  0
LINE
  5
9D
330
1F
100
AcDbEntity
  8
0
  6
CONTINUOUS
 62
     7
100
AcDbLine
 10
114.7656047298823
 20
207.2564834234541
 30
0.0
 11
114.9779519328969
 21
208.04897397395
 31
0.0
  0
LINE
  5
9E
330
1F
100
AcDbEntity
  8
0
  6
CONTINUOUS
 62
     7
100
AcDbLine
 10
115.6128952359578
 20
206.7335893585655
 30
0.0
 11
115.5059955759569
 21
206.7335893585655
 31
0.0
  0
LINE
  5
9F
330
1F
100
AcDbEntity
  8
0
  6
CONTINUOUS
 62
     7
100
AcDbLine
 10
115.9054976160872
 20
207.2308271596307
 30
0.0
 11
115.8135105998793
 21
206.8875269415056
 31
0.0
  0
LINE
  5
A0
330
1F
100
AcDbEntity
  8
0
  6
CONTINUOUS
 62
     7
100
AcDbLine
 10
116.6538433667114
 20
207.5643585893347
 30
0.0
 11
116.3401642379175
 21
207.5643585893347
 31
0.0
  0
LINE
  5
A1
330
1F
100
AcDbEntity
  8
0
  6
CONTINUOUS
 62
     7
100
AcDbLine
 10
117.2231634678511
 20
206.7282935334314
 30
0.0
 11
117.0885099885414
 21
207.2308271596307
 31
0.0
  0
LINE
  5
A2
330
1F
100
AcDbEntity
  8
0
  6
CONTINUOUS
 62
     7
100
AcDbLine
 10
115.9700143653453
 20
206.24897397395
 30
0.0
 11
116.8553686339948
 21
206.24897397395
 31
0.0
  0
LINE
  5
A3
330
1F
100
AcDbEntity
  8
0
  6
CONTINUOUS
 62
     7
100
AcDbLine
 10
115.1617787607435
 20
206.24897397395
 30
0.0
 11
115.3704583165714
 21
206.24897397395
 31
0.0
  0
LINE
  5
A4
330
1F
100
AcDbEntity
  8
0
  6
CONTINUOUS
 62
     7
100
AcDbLine
 10
114.8776152438901
 20
207.0797432047193
 30
0.0
 11
114.8961655725969
 21
207.0797432047193
 31
0.0
  0
LINE
  5
A5
330
1F
100
AcDbEntity
  8
0
  6
CONTINUOUS
 62
     7
100
AcDbLine
 10
114.495643386521
 20
206.24897397395
 30
0.0
 11
114.6769998799685
 21
206.9258056217791
 31
0.0
  0
LINE
  5
A6
330
1F
100
AcDbEntity
  8
0
  6
CONTINUOUS
 62
     7
100
AcDbLine
 10
113.9939326221682
 20
206.24897397395
 30
0.0
 11
114.495643386521
 21
206.24897397395
 31
0.0
  0
LINE
  5
A7
330
1F
100
AcDbEntity
  8
0
  6
CONTINUOUS
 62
     7
100
AcDbLine
 10
114.0217581152285
 20
206.3528201277962
 30
0.0
 11
113.9939326221682
 21
206.24897397395
 31
0.0
  0
LINE
  5
A8
330
1F
100
AcDbEntity
  8
0
  6
CONTINUOUS
 62
     7
100
AcDbLine
 10
113.5133005350136
 20
206.24897397395
 30
0.0
 11
113.7219800908416
 21
206.24897397395
 31
0.0
  0
LINE
  5
A9
330
1F
100
AcDbEntity
  8
0
  6
CONTINUOUS
 62
     7
100
AcDbLine
 10
113.2531581134252
 20
206.9616988450099
 30
0.0
 11
113.1789415951442
 21
206.684719028024
 31
0.0
  0
LINE
  5
AA
330
1F
100
AcDbEntity
  8
0
  6
CONTINUOUS
 62
     7
100
AcDbLine
 10
112.8471651607909
 20
206.24897397395
 30
0.0
 11
113.0353962294109
 21
206.9514618856025
 31
0.0
  0
LINE
  5
AB
330
1F
100
AcDbEntity
  8
0
  6
CONTINUOUS
 62
     7
100
AcDbLine
 10
112.3454543964384
 20
206.24897397395
 30
0.0
 11
112.8471651607909
 21
206.24897397395
 31
0.0
  0
LINE
  5
AC
330
1F
100
AcDbEntity
  8
0
  6
CONTINUOUS
 62
     7
100
AcDbLine
 10
112.3732798894986
 20
206.3528201277962
 30
0.0
 11
112.3454543964384
 21
206.24897397395
 31
0.0
  0
LINE
  5
AD
330
1F
100
AcDbEntity
  8
0
  6
CONTINUOUS
 62
     7
100
AcDbLine
 10
111.7413093515164
 20
206.24897397395
 30
0.0
 11
112.0735018651118
 21
206.24897397395
 31
0.0
  0
LINE
  5
AE
330
1F
100
AcDbEntity
  8
0
  6
CONTINUOUS
 62
     7
100
AcDbLine
 10
110.669533955578
 20
206.9490196884973
 30
0.0
 11
110.5987148070452
 21
206.684719028024
 31
0.0
  0
LINE
  5
AF
330
1F
100
AcDbEntity
  8
0
  6
CONTINUOUS
 62
     7
100
AcDbLine
 10
110.266938372692
 20
206.24897397395
 30
0.0
 11
110.4689185916565
 21
207.0027744132492
 31
0.0
  0
LINE
  5
B0
330
1F
100
AcDbEntity
  8
0
  6
CONTINUOUS
 62
     7
100
AcDbLine
 10
109.7652276083394
 20
206.24897397395
 30
0.0
 11
110.266938372692
 21
206.24897397395
 31
0.0
  0
LINE
  5
B1
330
1F
100
AcDbEntity
  8
0
  6
CONTINUOUS
 62
     7
100
AcDbLine
 10
110.0814379505938
 20
207.4290870371218
 30
0.0
 11
109.7652276083394
 21
206.24897397395
 31
0.0
  0
LINE
  5
B2
330
1F
100
AcDbEntity
  8
0
  6
CONTINUOUS
 62
     7
100
AcDbLine
 10
108.8806930973479
 20
207.5643585893347
 30
0.0
 11
109.606895643581
 21
207.5643585893347
 31
0.0
  0
LINE
  5
B3
330
1F
100
AcDbEntity
  8
0
  6
CONTINUOUS
 62
     7
100
AcDbLine
 10
109.5113629142423
 20
206.8566599111614
 30
0.0
 11
108.8353396187364
 21
207.4428214018925
 31
0.0
  0
LINE
  5
B4
330
1F
100
AcDbEntity
  8
0
  6
CONTINUOUS
 62
     7
100
AcDbLine
 10
107.6867115845931
 20
206.24897397395
 30
0.0
 11
109.2845955211845
 21
206.24897397395
 31
0.0
  0
LINE
  5
B5
330
1F
100
AcDbEntity
  8
0
  6
CONTINUOUS
 62
     7
100
AcDbLine
 10
111.1417533027426
 20
206.24897397395
 30
0.0
 11
110.9277351728671
 21
206.2490151436036
 31
0.0
  0
LINE
  5
B6
330
1F
100
AcDbEntity
  8
0
  6
CONTINUOUS
 62
     7
100
AcDbLine
 10
112.2259247358929
 20
206.7335895166746
 30
0.0
 11
112.3159387844979
 21
206.7335893585655
 31
0.0
  0
LINE
  5
F4
330
1F
100
AcDbEntity
  8
1
  6
CONTINUOUS
 62
     7
100
AcDbLine
 10
113.186711478893
 20
139.2989743092
 30
0.0
 11
109.386711478893
 21
139.2989743092
 31
0.0
  0
LINE
  5
F5
330
1F
100
AcDbEntity
  8
1
  6
CONTINUOUS
 62
     7
100
AcDbLine
 10
108.886711478893
 20
138.7989743092
 30
0.0
 11
108.886711478893
 21
137.1989743092
 31
0.0
  0
LINE
  5
F6
330
1F
100
AcDbEntity
  8
1
  6
CONTINUOUS
 62
     7
100
AcDbLine
 10
109.386711478893
 20
136.6989743092
 30
0.0
 11
113.186711478893
 21
136.6989743092
 31
0.0
  0
LINE
  5
F7
330
1F
100
AcDbEntity
  8
1
  6
CONTINUOUS
 62
     7
100
AcDbLine
 10
113.686711478893
 20
137.1989743092
 30
0.0
 11
113.686711478893
 21
138.7989743092
 31
0.0
  0
LINE
  5
F8
330
1F
100
AcDbEntity
  8
1
  6
CONTINUOUS
 62
     7
100
AcDbLine
 10
116.073666501216
 20
131.195291177135
 30
0.0
 11
116.236711363393
 21
131.47769316234
 31
0.0
  0
LINE
  5
F9
330
1F
100
AcDbEntity
  8
1
  6
CONTINUOUS
 62
     7
100
AcDbLine
 10
118.218585041642
 20
138.244619586066
 30
0.0
 11
118.266595542262
 21
138.746966072979
 31
0.0
  0
LINE
  5
FA
330
1F
100
AcDbEntity
  8
1
  6
CONTINUOUS
 62
     7
100
AcDbLine
 10
118.266595542262
 20
138.746966072979
 30
0.0
 11
119.189089622609
 21
137.149159456135
 31
0.0
  0
LINE
  5
FB
330
1F
100
AcDbEntity
  8
1
  6
CONTINUOUS
 62
     7
100
AcDbLine
 10
116.073666501216
 20
138.695291009485
 30
0.0
 11
116.236711363393
 21
138.97769299469
 31
0.0
  0
LINE
  5
FC
330
1F
100
AcDbEntity
  8
1
  6
CONTINUOUS
 62
     7
100
AcDbLine
 10
118.218585041642
 20
145.744619418416
 30
0.0
 11
118.266595542262
 21
146.246965905329
 31
0.0
  0
LINE
  5
FD
330
1F
100
AcDbEntity
  8
1
  6
CONTINUOUS
 62
     7
100
AcDbLine
 10
118.266595542262
 20
146.246965905329
 30
0.0
 11
119.189089622609
 21
144.649159288485
 31
0.0
  0
LINE
  5
FE
330
1F
100
AcDbEntity
  8
1
  6
CONTINUOUS
 62
     7
100
AcDbLine
 10
121.736712208993
 20
145.29897426525
 30
0.0
 11
121.536712208993
 21
145.29897426525
 31
0.0
  0
LINE
  5
FF
330
1F
100
AcDbEntity
  8
1
  6
CONTINUOUS
 62
     7
100
AcDbLine
 10
121.536712208993
 20
145.59897426525
 30
0.0
 11
121.536712208993
 21
145.29897426525
 31
0.0
  0
LINE
  5
100
330
1F
100
AcDbEntity
  8
1
  6
CONTINUOUS
 62
     7
100
AcDbLine
 10
121.736712208993
 20
145.59897426525
 30
0.0
 11
121.536712208993
 21
145.59897426525
 31
0.0
  0
LINE
  5
101
330
1F
100
AcDbEntity
  8
1
  6
CONTINUOUS
 62
     7
100
AcDbLine
 10
122.236712208993
 20
140.69897426525
 30
0.0
 11
122.536712208993
 21
140.69897426525
 31
0.0
  0
LINE
  5
102
330
1F
100
AcDbEntity
  8
1
  6
CONTINUOUS
 62
     7
100
AcDbLine
 10
122.236712208993
 20
144.79897426525
 30
0.0
 11
122.236712208993
 21
140.69897426525
 31
0.0
  0
LINE
  5
103
330
1F
100
AcDbEntity
  8
1
  6
CONTINUOUS
 62
     7
100
AcDbLine
 10
122.536712208993
 20
140.69897426525
 30
0.0
 11
122.536712208993
 21
144.79897426525
 31
0.0
  0
LINE
  5
104
330
1F
100
AcDbEntity
  8
1
  6
CONTINUOUS
 62
     7
100
AcDbLine
 10
122.536712208993
 20
131.99897435315
 30
0.0
 11
122.536712208993
 21
136.09897435315
 31
0.0
  0
LINE
  5
105
330
1F
100
AcDbEntity
  8
1
  6
CONTINUOUS
 62
     7
100
AcDbLine
 10
122.236712208993
 20
136.09897435315
 30
0.0
 11
122.236712208993
 21
131.99897435315
 31
0.0
  0
LINE
  5
106
330
1F
100
AcDbEntity
  8
1
  6
CONTINUOUS
 62
     7
100
AcDbLine
 10
122.536712208993
 20
136.09897435315
 30
0.0
 11
122.236712208993
 21
136.09897435315
 31
0.0
  0
LINE
  5
107
330
1F
100
AcDbEntity
  8
1
  6
CONTINUOUS
 62
     7
100
AcDbLine
 10
121.536712208993
 20
131.19897435315
 30
0.0
 11
121.736712208993
 21
131.19897435315
 31
0.0
  0
LINE
  5
108
330
1F
100
AcDbEntity
  8
1
  6
CONTINUOUS
 62
     7
100
AcDbLine
 10
121.536712208993
 20
131.49897435315
 30
0.0
 11
121.536712208993
 21
131.19897435315
 31
0.0
  0
LINE
  5
109
330
1F
100
AcDbEntity
  8
1
  6
CONTINUOUS
 62
     7
100
AcDbLine
 10
121.536712208993
 20
131.49897435315
 30
0.0
 11
121.736712208993
 21
131.49897435315
 31
0.0
  0
LINE
  5
10A
330
1F
100
AcDbEntity
  8
1
  6
DOT_CENTER
 62
     7
100
AcDbLine
 10
132.736623159917
 20
175.58878889114
 30
0.0
 11
95.736623159917
 21
175.58878889114
 31
0.0
  0
LINE
  5
10B
330
1F
100
AcDbEntity
  8
1
  6
CONTINUOUS
 62
     7
100
AcDbLine
 10
218.2983088031
 20
210.1684624337
 30
0.0
 11
218.2983088031
 21
209.0489754461
 31
0.0
  0
LINE
  5
10C
330
1F
100
AcDbEntity
  8
1
  6
CONTINUOUS
 62
     7
100
AcDbLine
 10
165.8264082115
 20
123.748973199
 30
0.0
 11
165.8264082115
 21
125.7489735269
 31
0.0
  0
LINE
  5
10D
330
1F
100
AcDbEntity
  8
1
  6
CONTINUOUS
 62
     7
100
AcDbLine
 10
165.8264082115
 20
212.7489747488
 30
0.0
 11
165.8264082115
 21
210.7489744209
 31
0.0
  0
LINE
  5
10E
330
1F
100
AcDbEntity
  8
1
  6
CONTINUOUS
 62
     7
100
AcDbLine
 10
105.936711478867
 20
210.749050126339
 30
0.0
 11
105.936711478867
 21
207.7315190815
 31
0.0
  0
LINE
  5
10F
330
1F
100
AcDbEntity
  8
1
  6
CONTINUOUS
 62
     7
100
AcDbLine
 10
105.936711478867
 20
125.748897821461
 30
0.0
 11
105.936711478867
 21
129.2664298796
 31
0.0
  0
LINE
  5
110
330
1F
100
AcDbEntity
  8
1
  6
CONTINUOUS
 62
     7
100
AcDbLine
 10
126.43671147882
 20
210.749050126339
 30
0.0
 11
126.43671147882
 21
125.748897821461
 31
0.0
  0
LINE
  5
111
330
1F
100
AcDbEntity
  8
0
  6
CONTINUOUS
 62
     7
100
AcDbLine
 10
162.8962496951
 20
212.0489740752
 30
0.0
 11
162.8962496951
 21
210.7490489267
 31
0.0
  0
LINE
  5
112
330
1F
100
AcDbEntity
  8
0
  6
CONTINUOUS
 62
     7
100
AcDbLine
 10
162.8962496951
 20
125.7488990211
 30
0.0
 11
162.8962496951
 21
210.7490489267
 31
0.0
  0
LINE
  5
113
330
1F
100
AcDbEntity
  8
0
  6
CONTINUOUS
 62
     7
100
AcDbLine
 10
162.8962496951
 20
125.7488990211
 30
0.0
 11
162.8962496951
 21
124.4489738726
 31
0.0
  0
LINE
  5
114
330
1F
100
AcDbEntity
  8
0
  6
CONTINUOUS
 62
     7
100
AcDbLine
 10
163.5962496701
 20
212.7489747488
 30
0.0
 11
162.8962496951
 21
212.0489740752
 31
0.0
  0
LINE
  5
115
330
1F
100
AcDbEntity
  8
0
  6
CONTINUOUS
 62
     7
100
AcDbLine
 10
162.8962496951
 20
124.4489738726
 30
0.0
 11
163.5962496701
 21
123.748973199
 31
0.0
  0
LINE
  5
116
330
1F
100
AcDbEntity
  8
0
  6
CONTINUOUS
 62
     7
100
AcDbLine
 10
165.8264082115
 20
210.7489744209
 30
0.0
 11
217.7886890903
 21
210.7489744209
 31
0.0
  0
LINE
  5
117
330
1F
100
AcDbEntity
  8
0
  6
CONTINUOUS
 62
     7
100
AcDbLine
 10
217.7886890903
 20
210.7489744209
 30
0.0
 11
217.7893521919
 21
210.7489744209
 31
0.0
  0
LINE
  5
118
330
1F
100
AcDbEntity
  8
0
  6
CONTINUOUS
 62
     7
100
AcDbLine
 10
218.2874495819
 20
210.2925518536
 30
0.0
 11
218.2983088031
 21
210.1684624337
 31
0.0
  0
LINE
  5
119
330
1F
100
AcDbEntity
  8
0
  6
CONTINUOUS
 62
     7
100
AcDbLine
 10
165.8264082115
 20
125.7489735269
 30
0.0
 11
232.3962489798
 21
125.7489735269
 31
0.0
  0
LINE
  5
11A
330
1F
100
AcDbEntity
  8
0
  6
CONTINUOUS
 62
     7
100
AcDbLine
 10
218.2983088031
 20
209.0489754461
 30
0.0
 11
232.3962489798
 21
209.0489754461
 31
0.0
  0
LINE
  5
11B
330
1F
100
AcDbEntity
  8
0
  6
CONTINUOUS
 62
     7
100
AcDbLine
 10
232.8962499931
 20
126.2489745401
 30
0.0
 11
232.8962499931
 21
208.5489744329
 31
0.0
  0
LINE
  5
11C
330
1F
100
AcDbEntity
  8
0
  6
CONTINUOUS
 62
     7
100
AcDbLine
 10
165.8264082115
 20
212.7489747488
 30
0.0
 11
163.5962496701
 21
212.7489747488
 31
0.0
  0
LINE
  5
11D
330
1F
100
AcDbEntity
  8
0
  6
CONTINUOUS
 62
     7
100
AcDbLine
 10
163.5962496701
 20
123.748973199
 30
0.0
 11
165.8264082115
 21
123.748973199
 31
0.0
  0
LINE
  5
11E
330
1F
100
AcDbEntity
  8
0
  6
CONTINUOUS
 62
     7
100
AcDbLine
 10
183.2462495848
 20
128.9489755415
 30
0.0
 11
189.2462505683
 21
128.9489755415
 31
0.0
  0
LINE
  5
11F
330
1F
100
AcDbEntity
  8
0
  6
CONTINUOUS
 62
     7
100
AcDbLine
 10
189.2462505683
 20
131.5489748501
 30
0.0
 11
183.2462495848
 21
131.5489748501
 31
0.0
  0
LINE
  5
120
330
1F
100
AcDbEntity
  8
0
  6
CONTINUOUS
 62
     7
100
AcDbLine
 10
179.4667674884
 20
133.2489738249
 30
0.0
 11
225.8962507083
 21
133.2489738249
 31
0.0
  0
LINE
  5
121
330
1F
100
AcDbEntity
  8
0
  6
CONTINUOUS
 62
     7
100
AcDbLine
 10
179.4667674884
 20
133.2489738249
 30
0.0
 11
177.8962493598
 21
134.7714217388
 31
0.0
  0
LINE
  5
122
330
1F
100
AcDbEntity
  8
0
  6
CONTINUOUS
 62
     7
100
AcDbLine
 10
177.8962493598
 20
203.2489741229
 30
0.0
 11
177.8962493598
 21
134.7714217388
 31
0.0
  0
LINE
  5
123
330
1F
100
AcDbEntity
  8
0
  6
CONTINUOUS
 62
     7
100
AcDbLine
 10
225.8962507083
 20
203.2489741229
 30
0.0
 11
177.8962493598
 21
203.2489741229
 31
0.0
  0
LINE
  5
124
330
1F
100
AcDbEntity
  8
0
  6
CONTINUOUS
 62
     7
100
AcDbLine
 10
225.8962507083
 20
133.2489738249
 30
0.0
 11
225.8962507083
 21
203.2489741229
 31
0.0
  0
LINE
  5
125
330
1F
100
AcDbEntity
  8
0
  6
CONTINUOUS
 62
     7
100
AcDbLine
 10
228.5462508633
 20
134.648975172
 30
0.0
 11
230.0462464526
 21
134.648975172
 31
0.0
  0
LINE
  5
126
330
1F
100
AcDbEntity
  8
0
  6
CONTINUOUS
 62
     7
100
AcDbLine
 10
228.5462508633
 20
138.2489746444
 30
0.0
 11
228.5462508633
 21
134.648975172
 31
0.0
  0
LINE
  5
127
330
1F
100
AcDbEntity
  8
0
  6
CONTINUOUS
 62
     7
100
AcDbLine
 10
230.0462464526
 20
138.2489746444
 30
0.0
 11
228.5462508633
 21
138.2489746444
 31
0.0
  0
LINE
  5
128
330
1F
100
AcDbEntity
  8
0
  6
CONTINUOUS
 62
     7
100
AcDbLine
 10
230.0462464526
 20
134.648975172
 30
0.0
 11
230.0462464526
 21
138.2489746444
 31
0.0
  0
LINE
  5
129
330
1F
100
AcDbEntity
  8
0
  6
CONTINUOUS
 62
     7
100
AcDbLine
 10
218.8962514236
 20
210.0489737474
 30
0.0
 11
223.0962480142
 21
210.0489737474
 31
0.0
  0
LINE
  5
12A
330
1F
100
AcDbEntity
  8
0
  6
CONTINUOUS
 62
     7
100
AcDbLine
 10
223.0962480142
 20
210.0489737474
 30
0.0
 11
223.0962480142
 21
209.0489754461
 31
0.0
  0
LINE
  5
12B
330
1F
100
AcDbEntity
  8
0
  6
CONTINUOUS
 62
     7
100
AcDbLine
 10
223.0962480142
 20
210.0489737474
 30
0.0
 11
223.8962503805
 21
210.0489737474
 31
0.0
  0
LINE
  5
12C
330
1F
100
AcDbEntity
  8
0
  6
CONTINUOUS
 62
     7
100
AcDbLine
 10
223.5962490275
 20
209.7489723944
 30
0.0
 11
223.5962490275
 21
209.0489754461
 31
0.0
  0
LINE
  5
12D
330
1F
100
AcDbEntity
  8
0
  6
CONTINUOUS
 62
     7
100
AcDbLine
 10
223.8962503805
 20
210.0489737474
 30
0.0
 11
232.296247287
 21
210.0489737474
 31
0.0
  0
LINE
  5
12E
330
1F
100
AcDbEntity
  8
0
  6
CONTINUOUS
 62
     7
100
AcDbLine
 10
232.3962489798
 20
209.0489754461
 30
0.0
 11
232.5962523654
 21
209.0489754461
 31
0.0
  0
LINE
  5
12F
330
1F
100
AcDbEntity
  8
0
  6
CONTINUOUS
 62
     7
100
AcDbLine
 10
232.5962523654
 20
209.7489723944
 30
0.0
 11
232.5962523654
 21
209.0489754461
 31
0.0
  0
LINE
  5
130
330
1F
100
AcDbEntity
  8
0
  6
CONTINUOUS
 62
     7
100
AcDbLine
 10
154.0962497427
 20
173.2487368405
 30
0.0
 11
154.0962497427
 21
173.2472723358
 31
0.0
  0
LINE
  5
131
330
1F
100
AcDbEntity
  8
0
  6
CONTINUOUS
 62
     7
100
AcDbLine
 10
162.3962496713
 20
173.2487368405
 30
0.0
 11
154.0962497427
 21
173.2487368405
 31
0.0
  0
LINE
  5
132
330
1F
100
AcDbEntity
  8
0
  6
CONTINUOUS
 62
     7
100
AcDbLine
 10
154.0962497427
 20
165.3137935334
 30
0.0
 11
154.0962497427
 21
165.2492112022
 31
0.0
  0
LINE
  5
133
330
1F
100
AcDbEntity
  8
0
  6
CONTINUOUS
 62
     7
100
AcDbLine
 10
162.3962496713
 20
165.2492112022
 30
0.0
 11
154.0962497427
 21
165.2492112022
 31
0.0
  0
LINE
  5
134
330
1F
100
AcDbEntity
  8
0
  6
CONTINUOUS
 62
     7
100
AcDbLine
 10
154.0962497427
 20
173.2472723358
 30
0.0
 11
154.0962497427
 21
173.1522751049
 31
0.0
  0
LINE
  5
135
330
1F
100
AcDbEntity
  8
0
  6
CONTINUOUS
 62
     7
100
AcDbLine
 10
154.0962497427
 20
173.2472723358
 30
0.0
 11
162.3962496713
 21
173.2472723358
 31
0.0
  0
LINE
  5
136
330
1F
100
AcDbEntity
  8
0
  6
CONTINUOUS
 62
     7
100
AcDbLine
 10
154.0962497427
 20
165.3275582482
 30
0.0
 11
154.0962497427
 21
165.3137935334
 31
0.0
  0
LINE
  5
137
330
1F
100
AcDbEntity
  8
0
  6
CONTINUOUS
 62
     7
100
AcDbLine
 10
154.0962497427
 20
165.3137935334
 30
0.0
 11
162.3962496713
 21
165.3137935334
 31
0.0
  0
LINE
  5
138
330
1F
100
AcDbEntity
  8
0
  6
CONTINUOUS
 62
     7
100
AcDbLine
 10
154.0962497427
 20
173.1522751049
 30
0.0
 11
154.0962497427
 21
173.1356458746
 31
0.0
  0
LINE
  5
139
330
1F
100
AcDbEntity
  8
0
  6
CONTINUOUS
 62
     7
100
AcDbLine
 10
162.3962496713
 20
173.1522751049
 30
0.0
 11
154.0962497427
 21
173.1522751049
 31
0.0
  0
LINE
  5
13A
330
1F
100
AcDbEntity
  8
0
  6
CONTINUOUS
 62
     7
100
AcDbLine
 10
154.0962497427
 20
165.5488977682
 30
0.0
 11
154.0962497427
 21
165.3275582482
 31
0.0
  0
LINE
  5
13B
330
1F
100
AcDbEntity
  8
0
  6
CONTINUOUS
 62
     7
100
AcDbLine
 10
162.3962496713
 20
165.3275582482
 30
0.0
 11
154.0962497427
 21
165.3275582482
 31
0.0
  0
LINE
  5
13C
330
1F
100
AcDbEntity
  8
0
  6
CONTINUOUS
 62
     7
100
AcDbLine
 10
154.0962497427
 20
173.1356458746
 30
0.0
 11
154.0962497427
 21
172.8852202193
 31
0.0
  0
LINE
  5
13D
330
1F
100
AcDbEntity
  8
0
  6
CONTINUOUS
 62
     7
100
AcDbLine
 10
154.0962497427
 20
173.1356458746
 30
0.0
 11
162.3962496713
 21
173.1356458746
 31
0.0
  0
LINE
  5
13E
330
1F
100
AcDbEntity
  8
0
  6
CONTINUOUS
 62
     7
100
AcDbLine
 10
154.0962497427
 20
165.5772900683
 30
0.0
 11
154.0962497427
 21
165.5488977682
 31
0.0
  0
LINE
  5
13F
330
1F
100
AcDbEntity
  8
0
  6
CONTINUOUS
 62
     7
100
AcDbLine
 10
154.0962497427
 20
165.5488977682
 30
0.0
 11
162.3962496713
 21
165.5488977682
 31
0.0
  0
LINE
  5
140
330
1F
100
AcDbEntity
  8
0
  6
CONTINUOUS
 62
     7
100
AcDbLine
 10
154.0962497427
 20
172.8852202193
 30
0.0
 11
154.0962497427
 21
172.8541526951
 31
0.0
  0
LINE
  5
141
330
1F
100
AcDbEntity
  8
0
  6
CONTINUOUS
 62
     7
100
AcDbLine
 10
162.3962496713
 20
172.8852202193
 30
0.0
 11
154.0962497427
 21
172.8852202193
 31
0.0
  0
LINE
  5
142
330
1F
100
AcDbEntity
  8
0
  6
CONTINUOUS
 62
     7
100
AcDbLine
 10
154.0962497427
 20
165.9457131297
 30
0.0
 11
154.0962497427
 21
165.5772900683
 31
0.0
  0
LINE
  5
143
330
1F
100
AcDbEntity
  8
0
  6
CONTINUOUS
 62
     7
100
AcDbLine
 10
162.3962496713
 20
165.5772900683
 30
0.0
 11
154.0962497427
 21
165.5772900683
 31
0.0
  0
LINE
  5
144
330
1F
100
AcDbEntity
  8
0
  6
CONTINUOUS
 62
     7
100
AcDbLine
 10
154.0962497427
 20
172.8541526951
 30
0.0
 11
154.0962497427
 21
172.4592439838
 31
0.0
  0
LINE
  5
145
330
1F
100
AcDbEntity
  8
0
  6
CONTINUOUS
 62
     7
100
AcDbLine
 10
154.0962497427
 20
172.8541526951
 30
0.0
 11
162.3962496713
 21
172.8541526951
 31
0.0
  0
LINE
  5
146
330
1F
100
AcDbEntity
  8
0
  6
CONTINUOUS
 62
     7
100
AcDbLine
 10
154.0962497427
 20
165.9874920276
 30
0.0
 11
154.0962497427
 21
165.9457131297
 31
0.0
  0
LINE
  5
147
330
1F
100
AcDbEntity
  8
0
  6
CONTINUOUS
 62
     7
100
AcDbLine
 10
154.0962497427
 20
165.9457131297
 30
0.0
 11
162.3962496713
 21
165.9457131297
 31
0.0
  0
LINE
  5
148
330
1F
100
AcDbEntity
  8
0
  6
CONTINUOUS
 62
     7
100
AcDbLine
 10
154.0962497427
 20
172.4592439838
 30
0.0
 11
154.0962497427
 21
172.4150960342
 31
0.0
  0
LINE
  5
149
330
1F
100
AcDbEntity
  8
0
  6
CONTINUOUS
 62
     7
100
AcDbLine
 10
162.3962496713
 20
172.4592439838
 30
0.0
 11
154.0962497427
 21
172.4592439838
 31
0.0
  0
LINE
  5
14A
330
1F
100
AcDbEntity
  8
0
  6
CONTINUOUS
 62
     7
100
AcDbLine
 10
154.0962497427
 20
166.4868969944
 30
0.0
 11
154.0962497427
 21
165.9874920276
 31
0.0
  0
LINE
  5
14B
330
1F
100
AcDbEntity
  8
0
  6
CONTINUOUS
 62
     7
100
AcDbLine
 10
162.3962496713
 20
165.9874920276
 30
0.0
 11
154.0962497427
 21
165.9874920276
 31
0.0
  0
LINE
  5
14C
330
1F
100
AcDbEntity
  8
0
  6
CONTINUOUS
 62
     7
100
AcDbLine
 10
154.0962497427
 20
172.4150960342
 30
0.0
 11
154.0962497427
 21
171.8929637697
 31
0.0
  0
LINE
  5
14D
330
1F
100
AcDbEntity
  8
0
  6
CONTINUOUS
 62
     7
100
AcDbLine
 10
154.0962497427
 20
172.4150960342
 30
0.0
 11
162.3962496713
 21
172.4150960342
 31
0.0
  0
LINE
  5
14E
330
1F
100
AcDbEntity
  8
0
  6
CONTINUOUS
 62
     7
100
AcDbLine
 10
154.0962497427
 20
166.5402365158
 30
0.0
 11
154.0962497427
 21
166.4868969944
 31
0.0
  0
LINE
  5
14F
330
1F
100
AcDbEntity
  8
0
  6
CONTINUOUS
 62
     7
100
AcDbLine
 10
154.0962497427
 20
166.4868969944
 30
0.0
 11
162.3962496713
 21
166.4868969944
 31
0.0
  0
LINE
  5
150
330
1F
100
AcDbEntity
  8
0
  6
CONTINUOUS
 62
     7
100
AcDbLine
 10
154.0962497427
 20
171.8929637697
 30
0.0
 11
154.0962497427
 21
171.837664862
 31
0.0
  0
LINE
  5
151
330
1F
100
AcDbEntity
  8
0
  6
CONTINUOUS
 62
     7
100
AcDbLine
 10
162.3962496713
 20
171.8929637697
 30
0.0
 11
154.0962497427
 21
171.8929637697
 31
0.0
  0
LINE
  5
152
330
1F
100
AcDbEntity
  8
0
  6
CONTINUOUS
 62
     7
100
AcDbLine
 10
154.0962497427
 20
167.0750396567
 30
0.0
 11
154.0962497427
 21
166.5402365158
 31
0.0
  0
LINE
  5
153
330
1F
100
AcDbEntity
  8
0
  6
CONTINUOUS
 62
     7
100
AcDbLine
 10
162.3962496713
 20
166.5402365158
 30
0.0
 11
154.0962497427
 21
166.5402365158
 31
0.0
  0
LINE
  5
154
330
1F
100
AcDbEntity
  8
0
  6
CONTINUOUS
 62
     7
100
AcDbLine
 10
154.0962497427
 20
171.837664862
 30
0.0
 11
154.0962497427
 21
171.3062445175
 31
0.0
  0
LINE
  5
155
330
1F
100
AcDbEntity
  8
0
  6
CONTINUOUS
 62
     7
100
AcDbLine
 10
154.0962497427
 20
171.837664862
 30
0.0
 11
162.3962496713
 21
171.837664862
 31
0.0
  0
LINE
  5
156
330
1F
100
AcDbEntity
  8
0
  6
CONTINUOUS
 62
     7
100
AcDbLine
 10
154.0962497427
 20
167.1487967957
 30
0.0
 11
154.0962497427
 21
167.0750396567
 31
0.0
  0
LINE
  5
157
330
1F
100
AcDbEntity
  8
0
  6
CONTINUOUS
 62
     7
100
AcDbLine
 10
162.7962496976
 20
167.0750396567
 30
0.0
 11
154.0962497427
 21
167.0750396567
 31
0.0
  0
LINE
  5
158
330
1F
100
AcDbEntity
  8
0
  6
CONTINUOUS
 62
     7
100
AcDbLine
 10
154.0962497427
 20
167.2113657239
 30
0.0
 11
154.0962497427
 21
167.1487967957
 31
0.0
  0
LINE
  5
159
330
1F
100
AcDbEntity
  8
0
  6
CONTINUOUS
 62
     7
100
AcDbLine
 10
154.0962497427
 20
167.1487967957
 30
0.0
 11
162.3962496713
 21
167.1487967957
 31
0.0
  0
LINE
  5
15A
330
1F
100
AcDbEntity
  8
0
  6
CONTINUOUS
 62
     7
100
AcDbLine
 10
154.0962497427
 20
167.7191471805
 30
0.0
 11
154.0962497427
 21
167.2113657239
 31
0.0
  0
LINE
  5
15B
330
1F
100
AcDbEntity
  8
0
  6
CONTINUOUS
 62
     7
100
AcDbLine
 10
162.3962496713
 20
167.2113657239
 30
0.0
 11
154.0962497427
 21
167.2113657239
 31
0.0
  0
LINE
  5
15C
330
1F
100
AcDbEntity
  8
0
  6
CONTINUOUS
 62
     7
100
AcDbLine
 10
154.0962497427
 20
171.3062445175
 30
0.0
 11
154.0962497427
 21
171.211128543
 31
0.0
  0
LINE
  5
15D
330
1F
100
AcDbEntity
  8
0
  6
CONTINUOUS
 62
     7
100
AcDbLine
 10
162.7962496976
 20
171.3062445175
 30
0.0
 11
154.0962497427
 21
171.3062445175
 31
0.0
  0
LINE
  5
15E
330
1F
100
AcDbEntity
  8
0
  6
CONTINUOUS
 62
     7
100
AcDbLine
 10
154.0962497427
 20
171.211128543
 30
0.0
 11
154.0962497427
 21
171.1470952266
 31
0.0
  0
LINE
  5
15F
330
1F
100
AcDbEntity
  8
0
  6
CONTINUOUS
 62
     7
100
AcDbLine
 10
162.3962496713
 20
171.211128543
 30
0.0
 11
154.0962497427
 21
171.211128543
 31
0.0
  0
LINE
  5
160
330
1F
100
AcDbEntity
  8
0
  6
CONTINUOUS
 62
     7
100
AcDbLine
 10
154.0962497427
 20
171.1470952266
 30
0.0
 11
154.0962497427
 21
170.6470634796
 31
0.0
  0
LINE
  5
161
330
1F
100
AcDbEntity
  8
0
  6
CONTINUOUS
 62
     7
100
AcDbLine
 10
154.0962497427
 20
171.1470952266
 30
0.0
 11
162.3962496713
 21
171.1470952266
 31
0.0
  0
LINE
  5
162
330
1F
100
AcDbEntity
  8
0
  6
CONTINUOUS
 62
     7
100
AcDbLine
 10
154.0962497427
 20
167.9024843449
 30
0.0
 11
154.0962497427
 21
167.7191471805
 31
0.0
  0
LINE
  5
163
330
1F
100
AcDbEntity
  8
0
  6
CONTINUOUS
 62
     7
100
AcDbLine
 10
162.7962496976
 20
167.7191471805
 30
0.0
 11
154.0962497427
 21
167.7191471805
 31
0.0
  0
LINE
  5
164
330
1F
100
AcDbEntity
  8
0
  6
CONTINUOUS
 62
     7
100
AcDbLine
 10
154.0962497427
 20
168.4301154871
 30
0.0
 11
154.0962497427
 21
167.9715481711
 31
0.0
  0
LINE
  5
165
330
1F
100
AcDbEntity
  8
0
  6
CONTINUOUS
 62
     7
100
AcDbLine
 10
154.0962497427
 20
167.9715481711
 30
0.0
 11
154.0962497427
 21
167.9024843449
 31
0.0
  0
LINE
  5
166
330
1F
100
AcDbEntity
  8
0
  6
CONTINUOUS
 62
     7
100
AcDbLine
 10
154.0962497427
 20
167.9024843449
 30
0.0
 11
162.3962496713
 21
167.9024843449
 31
0.0
  0
LINE
  5
167
330
1F
100
AcDbEntity
  8
0
  6
CONTINUOUS
 62
     7
100
AcDbLine
 10
162.3962496713
 20
167.9715481711
 30
0.0
 11
154.0962497427
 21
167.9715481711
 31
0.0
  0
LINE
  5
168
330
1F
100
AcDbEntity
  8
0
  6
CONTINUOUS
 62
     7
100
AcDbLine
 10
154.0962497427
 20
170.6470634796
 30
0.0
 11
154.0962497427
 21
170.4435375993
 31
0.0
  0
LINE
  5
169
330
1F
100
AcDbEntity
  8
0
  6
CONTINUOUS
 62
     7
100
AcDbLine
 10
162.7962496976
 20
170.6470634796
 30
0.0
 11
154.0962497427
 21
170.6470634796
 31
0.0
  0
LINE
  5
16A
330
1F
100
AcDbEntity
  8
0
  6
CONTINUOUS
 62
     7
100
AcDbLine
 10
154.0962497427
 20
170.4435375993
 30
0.0
 11
154.0962497427
 21
170.3735687312
 31
0.0
  0
LINE
  5
16B
330
1F
100
AcDbEntity
  8
0
  6
CONTINUOUS
 62
     7
100
AcDbLine
 10
162.3962496713
 20
170.4435375993
 30
0.0
 11
154.0962497427
 21
170.4435375993
 31
0.0
  0
LINE
  5
16C
330
1F
100
AcDbEntity
  8
0
  6
CONTINUOUS
 62
     7
100
AcDbLine
 10
154.0962497427
 20
170.3735687312
 30
0.0
 11
154.0962497427
 21
169.9267794153
 31
0.0
  0
LINE
  5
16D
330
1F
100
AcDbEntity
  8
0
  6
CONTINUOUS
 62
     7
100
AcDbLine
 10
154.0962497427
 20
170.3735687312
 30
0.0
 11
162.3962496713
 21
170.3735687312
 31
0.0
  0
LINE
  5
16E
330
1F
100
AcDbEntity
  8
0
  6
CONTINUOUS
 62
     7
100
AcDbLine
 10
154.0962497427
 20
169.1768718426
 30
0.0
 11
154.0962497427
 21
168.7875603217
 31
0.0
  0
LINE
  5
16F
330
1F
100
AcDbEntity
  8
0
  6
CONTINUOUS
 62
     7
100
AcDbLine
 10
154.0962497427
 20
169.9267794153
 30
0.0
 11
154.0962497427
 21
169.6237384583
 31
0.0
  0
LINE
  5
170
330
1F
100
AcDbEntity
  8
0
  6
CONTINUOUS
 62
     7
100
AcDbLine
 10
162.7962496976
 20
169.9267794153
 30
0.0
 11
154.0962497427
 21
169.9267794153
 31
0.0
  0
LINE
  5
171
330
1F
100
AcDbEntity
  8
0
  6
CONTINUOUS
 62
     7
100
AcDbLine
 10
154.0962497427
 20
168.7150199847
 30
0.0
 11
154.0962497427
 21
168.4301154871
 31
0.0
  0
LINE
  5
172
330
1F
100
AcDbEntity
  8
0
  6
CONTINUOUS
 62
     7
100
AcDbLine
 10
162.7962496976
 20
168.4301154871
 30
0.0
 11
154.0962497427
 21
168.4301154871
 31
0.0
  0
LINE
  5
173
330
1F
100
AcDbEntity
  8
0
  6
CONTINUOUS
 62
     7
100
AcDbLine
 10
154.0962497427
 20
168.7875603217
 30
0.0
 11
154.0962497427
 21
168.7150199847
 31
0.0
  0
LINE
  5
174
330
1F
100
AcDbEntity
  8
0
  6
CONTINUOUS
 62
     7
100
AcDbLine
 10
154.0962497427
 20
168.7150199847
 30
0.0
 11
162.3962496713
 21
168.7150199847
 31
0.0
  0
LINE
  5
175
330
1F
100
AcDbEntity
  8
0
  6
CONTINUOUS
 62
     7
100
AcDbLine
 10
162.3962496713
 20
168.7875603217
 30
0.0
 11
154.0962497427
 21
168.7875603217
 31
0.0
  0
LINE
  5
176
330
1F
100
AcDbEntity
  8
0
  6
CONTINUOUS
 62
     7
100
AcDbLine
 10
154.0962497427
 20
169.6237384583
 30
0.0
 11
154.0962497427
 21
169.5508920363
 31
0.0
  0
LINE
  5
177
330
1F
100
AcDbEntity
  8
0
  6
CONTINUOUS
 62
     7
100
AcDbLine
 10
162.3962496713
 20
169.6237384583
 30
0.0
 11
154.0962497427
 21
169.6237384583
 31
0.0
  0
LINE
  5
178
330
1F
100
AcDbEntity
  8
0
  6
CONTINUOUS
 62
     7
100
AcDbLine
 10
154.0962497427
 20
169.5508920363
 30
0.0
 11
154.0962497427
 21
169.1768718426
 31
0.0
  0
LINE
  5
179
330
1F
100
AcDbEntity
  8
0
  6
CONTINUOUS
 62
     7
100
AcDbLine
 10
162.7962496976
 20
169.1768718426
 30
0.0
 11
154.0962497427
 21
169.1768718426
 31
0.0
  0
LINE
  5
17A
330
1F
100
AcDbEntity
  8
0
  6
CONTINUOUS
 62
     7
100
AcDbLine
 10
154.0962497427
 20
169.5508920363
 30
0.0
 11
162.3962496713
 21
169.5508920363
 31
0.0
  0
LINE
  5
17B
330
1F
100
AcDbEntity
  8
0
  6
CONTINUOUS
 62
     7
100
AcDbLine
 10
153.796249321
 20
172.4989742049
 30
0.0
 11
153.796249321
 21
165.9989740708
 31
0.0
  0
LINE
  5
17C
330
1F
100
AcDbEntity
  8
0
  6
CONTINUOUS
 62
     7
100
AcDbLine
 10
162.3962496713
 20
171.211128543
 30
0.0
 11
162.7962496976
 21
171.3062445175
 31
0.0
  0
LINE
  5
17D
330
1F
100
AcDbEntity
  8
0
  6
CONTINUOUS
 62
     7
100
AcDbLine
 10
162.3962496713
 20
171.1470952266
 30
0.0
 11
162.3962496713
 21
171.211128543
 31
0.0
  0
LINE
  5
17E
330
1F
100
AcDbEntity
  8
0
  6
CONTINUOUS
 62
     7
100
AcDbLine
 10
162.7962496976
 20
170.6470634796
 30
0.0
 11
162.3962496713
 21
171.1470952266
 31
0.0
  0
LINE
  5
17F
330
1F
100
AcDbEntity
  8
0
  6
CONTINUOUS
 62
     7
100
AcDbLine
 10
162.3962496713
 20
170.4435375993
 30
0.0
 11
162.7962496976
 21
170.6470634796
 31
0.0
  0
LINE
  5
180
330
1F
100
AcDbEntity
  8
0
  6
CONTINUOUS
 62
     7
100
AcDbLine
 10
162.3962496713
 20
170.3735687312
 30
0.0
 11
162.3962496713
 21
170.4435375993
 31
0.0
  0
LINE
  5
181
330
1F
100
AcDbEntity
  8
0
  6
CONTINUOUS
 62
     7
100
AcDbLine
 10
162.7962496976
 20
169.9267794153
 30
0.0
 11
162.3962496713
 21
170.3735687312
 31
0.0
  0
LINE
  5
182
330
1F
100
AcDbEntity
  8
0
  6
CONTINUOUS
 62
     7
100
AcDbLine
 10
162.3962496713
 20
169.6237384583
 30
0.0
 11
162.7962496976
 21
169.9267794153
 31
0.0
  0
LINE
  5
183
330
1F
100
AcDbEntity
  8
0
  6
CONTINUOUS
 62
     7
100
AcDbLine
 10
162.3962496713
 20
169.5508920363
 30
0.0
 11
162.3962496713
 21
169.6237384583
 31
0.0
  0
LINE
  5
184
330
1F
100
AcDbEntity
  8
0
  6
CONTINUOUS
 62
     7
100
AcDbLine
 10
162.7962496976
 20
169.1768718426
 30
0.0
 11
162.3962496713
 21
169.5508920363
 31
0.0
  0
LINE
  5
185
330
1F
100
AcDbEntity
  8
0
  6
CONTINUOUS
 62
     7
100
AcDbLine
 10
162.3962496713
 20
168.7875603217
 30
0.0
 11
162.7962496976
 21
169.1768718426
 31
0.0
  0
LINE
  5
186
330
1F
100
AcDbEntity
  8
0
  6
CONTINUOUS
 62
     7
100
AcDbLine
 10
162.3962496713
 20
168.7150199847
 30
0.0
 11
162.3962496713
 21
168.7875603217
 31
0.0
  0
LINE
  5
187
330
1F
100
AcDbEntity
  8
0
  6
CONTINUOUS
 62
     7
100
AcDbLine
 10
162.7962496976
 20
168.4301154871
 30
0.0
 11
162.3962496713
 21
168.7150199847
 31
0.0
  0
LINE
  5
188
330
1F
100
AcDbEntity
  8
0
  6
CONTINUOUS
 62
     7
100
AcDbLine
 10
162.3962496713
 20
167.9715481711
 30
0.0
 11
162.7962496976
 21
168.4301154871
 31
0.0
  0
LINE
  5
189
330
1F
100
AcDbEntity
  8
0
  6
CONTINUOUS
 62
     7
100
AcDbLine
 10
162.3962496713
 20
167.9024843449
 30
0.0
 11
162.3962496713
 21
167.9715481711
 31
0.0
  0
LINE
  5
18A
330
1F
100
AcDbEntity
  8
0
  6
CONTINUOUS
 62
     7
100
AcDbLine
 10
162.7962496976
 20
167.7191471805
 30
0.0
 11
162.3962496713
 21
167.9024843449
 31
0.0
  0
LINE
  5
18B
330
1F
100
AcDbEntity
  8
0
  6
CONTINUOUS
 62
     7
100
AcDbLine
 10
162.3962496713
 20
167.2113657239
 30
0.0
 11
162.7962496976
 21
167.7191471805
 31
0.0
  0
LINE
  5
18C
330
1F
100
AcDbEntity
  8
0
  6
CONTINUOUS
 62
     7
100
AcDbLine
 10
162.3962496713
 20
167.1487967957
 30
0.0
 11
162.3962496713
 21
167.2113657239
 31
0.0
  0
LINE
  5
18D
330
1F
100
AcDbEntity
  8
0
  6
CONTINUOUS
 62
     7
100
AcDbLine
 10
162.7962496976
 20
167.0750396567
 30
0.0
 11
162.3962496713
 21
167.1487967957
 31
0.0
  0
LINE
  5
18E
330
1F
100
AcDbEntity
  8
0
  6
CONTINUOUS
 62
     7
100
AcDbLine
 10
162.3962496713
 20
166.5402365158
 30
0.0
 11
162.7962496976
 21
167.0750396567
 31
0.0
  0
LINE
  5
18F
330
1F
100
AcDbEntity
  8
0
  6
CONTINUOUS
 62
     7
100
AcDbLine
 10
162.3962496713
 20
166.4868969944
 30
0.0
 11
162.3962496713
 21
166.5402365158
 31
0.0
  0
LINE
  5
190
330
1F
100
AcDbEntity
  8
0
  6
CONTINUOUS
 62
     7
100
AcDbLine
 10
162.7962496976
 20
166.5259435082
 30
0.0
 11
162.3962496713
 21
166.4868969944
 31
0.0
  0
LINE
  5
191
330
1F
100
AcDbEntity
  8
0
  6
CONTINUOUS
 62
     7
100
AcDbLine
 10
162.3962496713
 20
165.9874920276
 30
0.0
 11
162.7962496976
 21
166.5259435082
 31
0.0
  0
LINE
  5
192
330
1F
100
AcDbEntity
  8
0
  6
CONTINUOUS
 62
     7
100
AcDbLine
 10
162.3962496713
 20
165.9457131297
 30
0.0
 11
162.3962496713
 21
165.9874920276
 31
0.0
  0
LINE
  5
193
330
1F
100
AcDbEntity
  8
0
  6
CONTINUOUS
 62
     7
100
AcDbLine
 10
162.7962496976
 20
166.0958567642
 30
0.0
 11
162.3962496713
 21
165.9457131297
 31
0.0
  0
LINE
  5
194
330
1F
100
AcDbEntity
  8
0
  6
CONTINUOUS
 62
     7
100
AcDbLine
 10
162.3962496713
 20
165.5772900683
 30
0.0
 11
162.7962496976
 21
166.0958567642
 31
0.0
  0
LINE
  5
195
330
1F
100
AcDbEntity
  8
0
  6
CONTINUOUS
 62
     7
100
AcDbLine
 10
162.3962496713
 20
165.5488977682
 30
0.0
 11
162.3962496713
 21
165.5772900683
 31
0.0
  0
LINE
  5
196
330
1F
100
AcDbEntity
  8
0
  6
CONTINUOUS
 62
     7
100
AcDbLine
 10
162.7962496976
 20
165.803576541
 30
0.0
 11
162.3962496713
 21
165.5488977682
 31
0.0
  0
LINE
  5
197
330
1F
100
AcDbEntity
  8
0
  6
CONTINUOUS
 62
     7
100
AcDbLine
 10
162.3962496713
 20
165.3275582482
 30
0.0
 11
162.7962496976
 21
165.803576541
 31
0.0
  0
LINE
  5
198
330
1F
100
AcDbEntity
  8
0
  6
CONTINUOUS
 62
     7
100
AcDbLine
 10
162.3962496713
 20
165.3137935334
 30
0.0
 11
162.3962496713
 21
165.3275582482
 31
0.0
  0
LINE
  5
199
330
1F
100
AcDbEntity
  8
0
  6
CONTINUOUS
 62
     7
100
AcDbLine
 10
162.7962496976
 20
165.6618765098
 30
0.0
 11
162.3962496713
 21
165.3137935334
 31
0.0
  0
LINE
  5
19A
330
1F
100
AcDbEntity
  8
0
  6
CONTINUOUS
 62
     7
100
AcDbLine
 10
162.3962496713
 20
165.2492112022
 30
0.0
 11
162.7962496976
 21
165.6618765098
 31
0.0
  0
LINE
  5
19B
330
1F
100
AcDbEntity
  8
0
  6
CONTINUOUS
 62
     7
100
AcDbLine
 10
162.3962496713
 20
173.2487368405
 30
0.0
 11
162.4462723747
 21
173.197130394
 31
0.0
  0
LINE
  5
19C
330
1F
100
AcDbEntity
  8
0
  6
CONTINUOUS
 62
     7
100
AcDbLine
 10
162.3962496713
 20
173.2472723358
 30
0.0
 11
162.3962496713
 21
173.2487368405
 31
0.0
  0
LINE
  5
19D
330
1F
100
AcDbEntity
  8
0
  6
CONTINUOUS
 62
     7
100
AcDbLine
 10
162.7962496976
 20
172.8209980772
 30
0.0
 11
162.3962496713
 21
173.2472723358
 31
0.0
  0
LINE
  5
19E
330
1F
100
AcDbEntity
  8
0
  6
CONTINUOUS
 62
     7
100
AcDbLine
 10
162.3962496713
 20
173.1522751049
 30
0.0
 11
162.7962496976
 21
172.8209980772
 31
0.0
  0
LINE
  5
19F
330
1F
100
AcDbEntity
  8
0
  6
CONTINUOUS
 62
     7
100
AcDbLine
 10
162.3962496713
 20
173.1356458746
 30
0.0
 11
162.3962496713
 21
173.1522751049
 31
0.0
  0
LINE
  5
1A0
330
1F
100
AcDbEntity
  8
0
  6
CONTINUOUS
 62
     7
100
AcDbLine
 10
162.7962496976
 20
172.6498098121
 30
0.0
 11
162.3962496713
 21
173.1356458746
 31
0.0
  0
LINE
  5
1A1
330
1F
100
AcDbEntity
  8
0
  6
CONTINUOUS
 62
     7
100
AcDbLine
 10
162.3962496713
 20
172.8852202193
 30
0.0
 11
162.7962496976
 21
172.6498098121
 31
0.0
  0
LINE
  5
1A2
330
1F
100
AcDbEntity
  8
0
  6
CONTINUOUS
 62
     7
100
AcDbLine
 10
162.3962496713
 20
172.8541526951
 30
0.0
 11
162.3962496713
 21
172.8852202193
 31
0.0
  0
LINE
  5
1A3
330
1F
100
AcDbEntity
  8
0
  6
CONTINUOUS
 62
     7
100
AcDbLine
 10
162.7962496976
 20
172.3299889833
 30
0.0
 11
162.3962496713
 21
172.8541526951
 31
0.0
  0
LINE
  5
1A4
330
1F
100
AcDbEntity
  8
0
  6
CONTINUOUS
 62
     7
100
AcDbLine
 10
162.3962496713
 20
172.4592439838
 30
0.0
 11
162.7962496976
 21
172.3299889833
 31
0.0
  0
LINE
  5
1A5
330
1F
100
AcDbEntity
  8
0
  6
CONTINUOUS
 62
     7
100
AcDbLine
 10
162.3962496713
 20
172.4150960342
 30
0.0
 11
162.3962496713
 21
172.4592439838
 31
0.0
  0
LINE
  5
1A6
330
1F
100
AcDbEntity
  8
0
  6
CONTINUOUS
 62
     7
100
AcDbLine
 10
162.7962496976
 20
171.8755128801
 30
0.0
 11
162.3962496713
 21
172.4150960342
 31
0.0
  0
LINE
  5
1A7
330
1F
100
AcDbEntity
  8
0
  6
CONTINUOUS
 62
     7
100
AcDbLine
 10
162.3962496713
 20
171.8929637697
 30
0.0
 11
162.7962496976
 21
171.8755128801
 31
0.0
  0
LINE
  5
1A8
330
1F
100
AcDbEntity
  8
0
  6
CONTINUOUS
 62
     7
100
AcDbLine
 10
162.3962496713
 20
171.837664862
 30
0.0
 11
162.3962496713
 21
171.8929637697
 31
0.0
  0
LINE
  5
1A9
330
1F
100
AcDbEntity
  8
0
  6
CONTINUOUS
 62
     7
100
AcDbLine
 10
162.7962496976
 20
171.3062445175
 30
0.0
 11
162.3962496713
 21
171.837664862
 31
0.0
  0
LINE
  5
1AA
330
1F
100
AcDbEntity
  8
0
  6
CONTINUOUS
 62
     7
100
AcDbLine
 10
218.5962500706
 20
209.7489723944
 30
0.0
 11
218.5962500706
 21
209.0489754461
 31
0.0
  0
LINE
  5
1AB
330
1F
100
AcDbEntity
  8
0
  6
CONTINUOUS
 62
     7
100
AcDbLine
 10
153.796249321
 20
165.9989740708
 30
0.0
 11
154.0962497427
 21
165.9989740708
 31
0.0
  0
LINE
  5
1AC
330
1F
100
AcDbEntity
  8
0
  6
CONTINUOUS
 62
     7
100
AcDbLine
 10
154.0962497427
 20
172.4989742049
 30
0.0
 11
153.796249321
 21
172.4989742049
 31
0.0
  0
LINE
  5
1AD
330
1F
100
AcDbEntity
  8
0
  6
CONTINUOUS
 62
     7
100
AcDbLine
 10
162.8962496951
 20
172.7489737802
 30
0.0
 11
162.4471829462
 21
173.1980407619
 31
0.0
  0
LINE
  5
1AE
330
1F
100
AcDbEntity
  8
0
  6
CONTINUOUS
 62
     7
100
AcDbLine
 10
162.4471829462
 20
165.2999072809
 30
0.0
 11
162.8962496951
 21
165.7489740298
 31
0.0
  0
LINE
  5
1AF
330
1F
100
AcDbEntity
  8
0
  6
CONTINUOUS
 62
     7
100
AcDbLine
 10
104.936711478893
 20
211.8021549665
 30
0.0
 11
104.936711478893
 21
212.5726455831
 31
0.0
  0
LINE
  5
1B0
330
1F
100
AcDbEntity
  8
0
  6
CONTINUOUS
 62
     7
100
AcDbLine
 10
104.936711478893
 20
207.7489757918
 30
0.0
 11
104.936711478893
 21
211.8021549665
 31
0.0
  0
LINE
  5
1B1
330
1F
100
AcDbEntity
  8
0
  6
CONTINUOUS
 62
     7
100
AcDbLine
 10
104.936711478893
 20
123.9253023647
 30
0.0
 11
104.936711478893
 21
124.6957929813
 31
0.0
  0
LINE
  5
1B2
330
1F
100
AcDbEntity
  8
0
  6
CONTINUOUS
 62
     7
100
AcDbLine
 10
104.936711478893
 20
124.6957929813
 30
0.0
 11
104.936711478893
 21
129.2489731692
 31
0.0
  0
LINE
  5
1B3
330
1F
100
AcDbEntity
  8
0
  6
CONTINUOUS
 62
     7
100
AcDbLine
 10
127.436712372893
 20
212.5726455831
 30
0.0
 11
127.436712372893
 21
211.8021549665
 31
0.0
  0
LINE
  5
1B4
330
1F
100
AcDbEntity
  8
0
  6
CONTINUOUS
 62
     7
100
AcDbLine
 10
127.436712372893
 20
211.8021549665
 30
0.0
 11
127.436712372893
 21
124.6957929813
 31
0.0
  0
LINE
  5
1B5
330
1F
100
AcDbEntity
  8
0
  6
CONTINUOUS
 62
     7
100
AcDbLine
 10
127.436712372893
 20
124.6957929813
 30
0.0
 11
127.436712372893
 21
123.9253023647
 31
0.0
  0
LINE
  5
1B6
330
1F
100
AcDbEntity
  8
0
  6
CONTINUOUS
 62
     7
100
AcDbLine
 10
105.349887383993
 20
212.6455010854
 30
0.0
 11
105.936711526393
 21
212.7489747488
 31
0.0
  0
LINE
  5
1B7
330
1F
100
AcDbEntity
  8
0
  6
CONTINUOUS
 62
     7
100
AcDbLine
 10
105.349887383993
 20
123.8524468624
 30
0.0
 11
105.936711526393
 21
123.748973199
 31
0.0
  0
LINE
  5
1B8
330
1F
100
AcDbEntity
  8
0
  6
CONTINUOUS
 62
     7
100
AcDbLine
 10
105.936711526393
 20
212.7489747488
 30
0.0
 11
126.436712208993
 21
212.7489747488
 31
0.0
  0
LINE
  5
1B9
330
1F
100
AcDbEntity
  8
0
  6
CONTINUOUS
 62
     7
100
AcDbLine
 10
127.023534837993
 20
212.6455010854
 30
0.0
 11
126.436712208993
 21
212.7489747488
 31
0.0
  0
LINE
  5
1BA
330
1F
100
AcDbEntity
  8
0
  6
CONTINUOUS
 62
     7
100
AcDbLine
 10
126.436712208993
 20
123.748973199
 30
0.0
 11
105.936711526393
 21
123.748973199
 31
0.0
  0
LINE
  5
1BB
330
1F
100
AcDbEntity
  8
0
  6
CONTINUOUS
 62
     7
100
AcDbLine
 10
127.023534837993
 20
123.8524468624
 30
0.0
 11
126.436712208993
 21
123.748973199
 31
0.0
  0
LINE
  5
1BC
330
1F
100
AcDbEntity
  8
0
  6
CONTINUOUS
 62
     7
100
AcDbLine
 10
127.023534837993
 20
124.4918333375
 30
0.0
 11
126.436712208993
 21
124.4489738726
 31
0.0
  0
LINE
  5
1BD
330
1F
100
AcDbEntity
  8
0
  6
CONTINUOUS
 62
     7
100
AcDbLine
 10
127.023534837993
 20
212.0061146103
 30
0.0
 11
126.436712208993
 21
212.0489740752
 31
0.0
  0
LINE
  5
1BE
330
1F
100
AcDbEntity
  8
0
  6
CONTINUOUS
 62
     7
100
AcDbLine
 10
105.349887383993
 20
212.0061146103
 30
0.0
 11
105.936711526393
 21
212.0489740752
 31
0.0
  0
LINE
  5
1BF
330
1F
100
AcDbEntity
  8
0
  6
CONTINUOUS
 62
     7
100
AcDbLine
 10
105.349887383993
 20
207.7417636298
 30
0.0
 11
105.936711526393
 21
207.7315190815
 31
0.0
  0
LINE
  5
1C0
330
1F
100
AcDbEntity
  8
0
  6
CONTINUOUS
 62
     7
100
AcDbLine
 10
126.436712208993
 20
212.0489740752
 30
0.0
 11
105.936711526393
 21
212.0489740752
 31
0.0
  0
LINE
  5
1C1
330
1F
100
AcDbEntity
  8
0
  6
CONTINUOUS
 62
     7
100
AcDbLine
 10
105.936711526393
 20
129.2664298796
 30
0.0
 11
105.349887383993
 21
129.2561853313
 31
0.0
  0
LINE
  5
1C2
330
1F
100
AcDbEntity
  8
0
  6
CONTINUOUS
 62
     7
100
AcDbLine
 10
105.349887383993
 20
124.4918333375
 30
0.0
 11
105.936711526393
 21
124.4489738726
 31
0.0
  0
LINE
  5
1C3
330
1F
100
AcDbEntity
  8
0
  6
CONTINUOUS
 62
     7
100
AcDbLine
 10
105.936711526393
 20
124.4489738726
 30
0.0
 11
126.436712208993
 21
124.4489738726
 31
0.0
  0
LINE
  5
1C4
330
1F
100
AcDbEntity
  8
0
  6
CONTINUOUS
 62
     7
100
AcDbLine
 10
125.936787564193
 20
211.2489754342
 30
0.0
 11
106.436635356293
 21
211.2489754342
 31
0.0
  0
LINE
  5
1C5
330
1F
100
AcDbEntity
  8
0
  6
CONTINUOUS
 62
     7
100
AcDbLine
 10
106.436635356293
 20
125.2489725136
 30
0.0
 11
125.936787564193
 21
125.2489725136
 31
0.0
  0
LINE
  5
1C6
330
1F
100
AcDbEntity
  8
0
  6
CONTINUOUS
 62
     7
100
AcDbLine
 10
104.936711478893
 20
207.5280288242
 30
0.0
 11
104.936711478893
 21
207.7489757918
 31
0.0
  0
LINE
  5
1C7
330
1F
100
AcDbEntity
  8
0
  6
CONTINUOUS
 62
     7
100
AcDbLine
 10
104.936711478893
 20
129.2489731692
 30
0.0
 11
104.936711478893
 21
129.4699201368
 31
0.0
  0
LINE
  5
1C8
330
1F
100
AcDbEntity
  8
0
  6
CONTINUOUS
 62
     7
100
AcDbLine
 10
104.936711478893
 20
129.4699201368
 30
0.0
 11
104.936711478893
 21
207.5280288242
 31
0.0
  0
LINE
  5
1C9
330
1F
100
AcDbEntity
  8
0
  6
CONTINUOUS
 62
     7
100
AcDbLine
 10
105.427985301093
 20
207.5366044425
 30
0.0
 11
105.936711526393
 21
207.5454818093
 31
0.0
  0
LINE
  5
1CA
330
1F
100
AcDbEntity
  8
0
  6
CONTINUOUS
 62
     7
100
AcDbLine
 10
105.936711526393
 20
207.5454818093
 30
0.0
 11
105.936711526393
 21
129.4524634265
 31
0.0
  0
LINE
  5
1CB
330
1F
100
AcDbEntity
  8
0
  6
CONTINUOUS
 62
     7
100
AcDbLine
 10
105.427985301093
 20
129.4613445186
 30
0.0
 11
105.936711526393
 21
129.4524634265
 31
0.0
  0
LINE
  5
1CC
330
1F
100
AcDbEntity
  8
0
  6
CONTINUOUS
 62
     7
100
AcDbLine
 10
119.140968646693
 20
171.3062445175
 30
0.0
 11
119.672389689693
 21
171.211128543
 31
0.0
  0
LINE
  5
1CD
330
1F
100
AcDbEntity
  8
0
  6
CONTINUOUS
 62
     7
100
AcDbLine
 10
119.236085552593
 20
171.837664862
 30
0.0
 11
119.140968646693
 21
171.3062445175
 31
0.0
  0
LINE
  5
1CE
330
1F
100
AcDbEntity
  8
0
  6
CONTINUOUS
 62
     7
100
AcDbLine
 10
118.648680846993
 20
171.8755128801
 30
0.0
 11
119.188264000993
 21
171.8929637697
 31
0.0
  0
LINE
  5
1CF
330
1F
100
AcDbEntity
  8
0
  6
CONTINUOUS
 62
     7
100
AcDbLine
 10
118.631229724593
 20
172.4150960342
 30
0.0
 11
118.648680846993
 21
171.8755128801
 31
0.0
  0
LINE
  5
1D0
330
1F
100
AcDbEntity
  8
0
  6
CONTINUOUS
 62
     7
100
AcDbLine
 10
118.048792693593
 20
172.3299889833
 30
0.0
 11
118.572956871093
 21
172.4592439838
 31
0.0
  0
LINE
  5
1D1
330
1F
100
AcDbEntity
  8
0
  6
CONTINUOUS
 62
     7
100
AcDbLine
 10
117.919537227493
 20
172.8541526951
 30
0.0
 11
118.048792693593
 21
172.3299889833
 31
0.0
  0
LINE
  5
1D2
330
1F
100
AcDbEntity
  8
0
  6
CONTINUOUS
 62
     7
100
AcDbLine
 10
117.367522779693
 20
172.6498098121
 30
0.0
 11
117.853358376693
 21
172.8852202193
 31
0.0
  0
LINE
  5
1D3
330
1F
100
AcDbEntity
  8
0
  6
CONTINUOUS
 62
     7
100
AcDbLine
 10
117.132112372493
 20
173.1356458746
 30
0.0
 11
117.367522779693
 21
172.6498098121
 31
0.0
  0
LINE
  5
1D4
330
1F
100
AcDbEntity
  8
0
  6
CONTINUOUS
 62
     7
100
AcDbLine
 10
116.634645487993
 20
172.8209980772
 30
0.0
 11
117.060920212293
 21
173.1522751049
 31
0.0
  0
LINE
  5
1D5
330
1F
100
AcDbEntity
  8
0
  6
CONTINUOUS
 62
     7
100
AcDbLine
 10
116.303368460293
 20
173.2472723358
 30
0.0
 11
116.634645487993
 21
172.8209980772
 31
0.0
  0
LINE
  5
1D6
330
1F
100
AcDbEntity
  8
0
  6
CONTINUOUS
 62
     7
100
AcDbLine
 10
115.882191795693
 20
172.836071533
 30
0.0
 11
116.230274539293
 21
173.2487368405
 31
0.0
  0
LINE
  5
1D7
330
1F
100
AcDbEntity
  8
0
  6
CONTINUOUS
 62
     7
100
AcDbLine
 10
115.469526488193
 20
173.1841542766
 30
0.0
 11
115.882191795693
 21
172.836071533
 31
0.0
  0
LINE
  5
1D8
330
1F
100
AcDbEntity
  8
0
  6
CONTINUOUS
 62
     7
100
AcDbLine
 10
115.143046703093
 20
172.694371269
 30
0.0
 11
115.397725242993
 21
173.1703897946
 31
0.0
  0
LINE
  5
1D9
330
1F
100
AcDbEntity
  8
0
  6
CONTINUOUS
 62
     7
100
AcDbLine
 10
114.667028177393
 20
172.9490502745
 30
0.0
 11
115.143046703093
 21
172.694371269
 31
0.0
  0
LINE
  5
1DA
330
1F
100
AcDbEntity
  8
0
  6
CONTINUOUS
 62
     7
100
AcDbLine
 10
114.449514996093
 20
172.4020910457
 30
0.0
 11
114.599658164993
 21
172.9206579745
 31
0.0
  0
LINE
  5
1DB
330
1F
100
AcDbEntity
  8
0
  6
CONTINUOUS
 62
     7
100
AcDbLine
 10
113.930948067293
 20
172.5522346803
 30
0.0
 11
114.449514996093
 21
172.4020910457
 31
0.0
  0
LINE
  5
1DC
330
1F
100
AcDbEntity
  8
0
  6
CONTINUOUS
 62
     7
100
AcDbLine
 10
113.831906568093
 20
171.9720044181
 30
0.0
 11
113.870953198393
 21
172.5104560152
 31
0.0
  0
LINE
  5
1DD
330
1F
100
AcDbEntity
  8
0
  6
CONTINUOUS
 62
     7
100
AcDbLine
 10
113.293454970993
 20
172.0110510484
 30
0.0
 11
113.831906568093
 21
171.9720044181
 31
0.0
  0
LINE
  5
1DE
330
1F
100
AcDbEntity
  8
0
  6
CONTINUOUS
 62
     7
100
AcDbLine
 10
113.317214872593
 20
171.4229082697
 30
0.0
 11
113.243457849993
 21
171.9577114106
 31
0.0
  0
LINE
  5
1DF
330
1F
100
AcDbEntity
  8
0
  6
CONTINUOUS
 62
     7
100
AcDbLine
 10
112.782412197293
 20
171.3491512471
 30
0.0
 11
113.317214872593
 21
171.4229082697
 31
0.0
  0
LINE
  5
1E0
330
1F
100
AcDbEntity
  8
0
  6
CONTINUOUS
 62
     7
100
AcDbLine
 10
112.927934143593
 20
170.7788006876
 30
0.0
 11
112.744596775493
 21
171.2865822025
 31
0.0
  0
LINE
  5
1E1
330
1F
100
AcDbEntity
  8
0
  6
CONTINUOUS
 62
     7
100
AcDbLine
 10
112.420152395793
 20
170.5954635524
 30
0.0
 11
112.927934143593
 21
170.7788006876
 31
0.0
  0
LINE
  5
1E2
330
1F
100
AcDbEntity
  8
0
  6
CONTINUOUS
 62
     7
100
AcDbLine
 10
112.681077316293
 20
170.0678324102
 30
0.0
 11
112.396172702193
 21
170.526399697
 31
0.0
  0
LINE
  5
1E3
330
1F
100
AcDbEntity
  8
0
  6
CONTINUOUS
 62
     7
100
AcDbLine
 10
112.222509912993
 20
169.7829279125
 30
0.0
 11
112.681077316293
 21
170.0678324102
 31
0.0
  0
LINE
  5
1E4
330
1F
100
AcDbEntity
  8
0
  6
CONTINUOUS
 62
     7
100
AcDbLine
 10
112.587433762693
 20
169.3210760838
 30
0.0
 11
112.213413219793
 21
169.7103876629
 31
0.0
  0
LINE
  5
1E5
330
1F
100
AcDbEntity
  8
0
  6
CONTINUOUS
 62
     7
100
AcDbLine
 10
112.198121834393
 20
168.9470559483
 30
0.0
 11
112.587433762693
 21
169.3210760838
 31
0.0
  0
LINE
  5
1E6
330
1F
100
AcDbEntity
  8
0
  6
CONTINUOUS
 62
     7
100
AcDbLine
 10
112.651095714293
 20
168.5711685693
 30
0.0
 11
112.204306281993
 21
168.8742095263
 31
0.0
  0
LINE
  5
1E7
330
1F
100
AcDbEntity
  8
0
  6
CONTINUOUS
 62
     7
100
AcDbLine
 10
112.348054524393
 20
168.1243792097
 30
0.0
 11
112.651095714293
 21
168.5711685693
 31
0.0
  0
LINE
  5
1E8
330
1F
100
AcDbEntity
  8
0
  6
CONTINUOUS
 62
     7
100
AcDbLine
 10
112.869281310493
 20
167.8508843594
 30
0.0
 11
112.369249097893
 21
168.054410429
 31
0.0
  0
LINE
  5
1E9
330
1F
100
AcDbEntity
  8
0
  6
CONTINUOUS
 62
     7
100
AcDbLine
 10
112.665754731593
 20
167.3508526416
 30
0.0
 11
112.869281310493
 21
167.8508843594
 31
0.0
  0
LINE
  5
1EA
330
1F
100
AcDbEntity
  8
0
  6
CONTINUOUS
 62
     7
100
AcDbLine
 10
113.232454273693
 20
167.1917034088
 30
0.0
 11
112.701033696393
 21
167.2868194998
 31
0.0
  0
LINE
  5
1EB
330
1F
100
AcDbEntity
  8
0
  6
CONTINUOUS
 62
     7
100
AcDbLine
 10
113.137337367893
 20
166.6602831808
 30
0.0
 11
113.232454273693
 21
167.1917034088
 31
0.0
  0
LINE
  5
1EC
330
1F
100
AcDbEntity
  8
0
  6
CONTINUOUS
 62
     7
100
AcDbLine
 10
113.724742073393
 20
166.6224350462
 30
0.0
 11
113.185158919393
 21
166.6049841567
 31
0.0
  0
LINE
  5
1ED
330
1F
100
AcDbEntity
  8
0
  6
CONTINUOUS
 62
     7
100
AcDbLine
 10
113.742193195893
 20
166.0828517758
 30
0.0
 11
113.724742073393
 21
166.6224350462
 31
0.0
  0
LINE
  5
1EE
330
1F
100
AcDbEntity
  8
0
  6
CONTINUOUS
 62
     7
100
AcDbLine
 10
114.324630226793
 20
166.1679590595
 30
0.0
 11
113.800466049293
 21
166.0387038261
 31
0.0
  0
LINE
  5
1EF
330
1F
100
AcDbEntity
  8
0
  6
CONTINUOUS
 62
     7
100
AcDbLine
 10
114.453885692993
 20
165.6437951148
 30
0.0
 11
114.324630226793
 21
166.1679590595
 31
0.0
  0
LINE
  5
1F0
330
1F
100
AcDbEntity
  8
0
  6
CONTINUOUS
 62
     7
100
AcDbLine
 10
115.005900140693
 20
165.8481379979
 30
0.0
 11
114.520064543793
 21
165.6127275907
 31
0.0
  0
LINE
  5
1F1
330
1F
100
AcDbEntity
  8
0
  6
CONTINUOUS
 62
     7
100
AcDbLine
 10
115.241310547893
 20
165.3623021681
 30
0.0
 11
115.005900140693
 21
165.8481379979
 31
0.0
  0
LINE
  5
1F2
330
1F
100
AcDbEntity
  8
0
  6
CONTINUOUS
 62
     7
100
AcDbLine
 10
115.738777432493
 20
165.6769499656
 30
0.0
 11
115.312502708193
 21
165.3456729379
 31
0.0
  0
LINE
  5
1F3
330
1F
100
AcDbEntity
  8
0
  6
CONTINUOUS
 62
     7
100
AcDbLine
 10
116.070054460193
 20
165.2506754742
 30
0.0
 11
115.738777432493
 21
165.6769499656
 31
0.0
  0
LINE
  5
1F4
330
1F
100
AcDbEntity
  8
0
  6
CONTINUOUS
 62
     7
100
AcDbLine
 10
116.491231124693
 20
165.6618765098
 30
0.0
 11
116.143148381093
 21
165.2492112022
 31
0.0
  0
LINE
  5
1F5
330
1F
100
AcDbEntity
  8
0
  6
CONTINUOUS
 62
     7
100
AcDbLine
 10
116.903896432293
 20
165.3137935334
 30
0.0
 11
116.491231124693
 21
165.6618765098
 31
0.0
  0
LINE
  5
1F6
330
1F
100
AcDbEntity
  8
0
  6
CONTINUOUS
 62
     7
100
AcDbLine
 10
117.230376217393
 20
165.803576541
 30
0.0
 11
116.975697677493
 21
165.3275582482
 31
0.0
  0
LINE
  5
1F7
330
1F
100
AcDbEntity
  8
0
  6
CONTINUOUS
 62
     7
100
AcDbLine
 10
117.706394743093
 20
165.5488977682
 30
0.0
 11
117.230376217393
 21
165.803576541
 31
0.0
  0
LINE
  5
1F8
330
1F
100
AcDbEntity
  8
0
  6
CONTINUOUS
 62
     7
100
AcDbLine
 10
117.923907924293
 20
166.0958567642
 30
0.0
 11
117.773764755493
 21
165.5772900683
 31
0.0
  0
LINE
  5
1F9
330
1F
100
AcDbEntity
  8
0
  6
CONTINUOUS
 62
     7
100
AcDbLine
 10
118.442474853093
 20
165.9457131297
 30
0.0
 11
117.923907924293
 21
166.0958567642
 31
0.0
  0
LINE
  5
1FA
330
1F
100
AcDbEntity
  8
0
  6
CONTINUOUS
 62
     7
100
AcDbLine
 10
118.541516352293
 20
166.5259435082
 30
0.0
 11
118.502469722093
 21
165.9874920276
 31
0.0
  0
LINE
  5
1FB
330
1F
100
AcDbEntity
  8
0
  6
CONTINUOUS
 62
     7
100
AcDbLine
 10
119.079967949393
 20
166.4868969944
 30
0.0
 11
118.541516352293
 21
166.5259435082
 31
0.0
  0
LINE
  5
1FC
330
1F
100
AcDbEntity
  8
0
  6
CONTINUOUS
 62
     7
100
AcDbLine
 10
119.056208047893
 20
167.0750396567
 30
0.0
 11
119.129965070493
 21
166.5402365158
 31
0.0
  0
LINE
  5
1FD
330
1F
100
AcDbEntity
  8
0
  6
CONTINUOUS
 62
     7
100
AcDbLine
 10
119.591010723093
 20
167.1487967957
 30
0.0
 11
119.056208047893
 21
167.0750396567
 31
0.0
  0
LINE
  5
1FE
330
1F
100
AcDbEntity
  8
0
  6
CONTINUOUS
 62
     7
100
AcDbLine
 10
119.445488776893
 20
167.7191471805
 30
0.0
 11
119.628826144993
 21
167.2113657239
 31
0.0
  0
LINE
  5
1FF
330
1F
100
AcDbEntity
  8
0
  6
CONTINUOUS
 62
     7
100
AcDbLine
 10
119.953270058993
 20
167.9024843449
 30
0.0
 11
119.445488776893
 21
167.7191471805
 31
0.0
  0
LINE
  5
200
330
1F
100
AcDbEntity
  8
0
  6
CONTINUOUS
 62
     7
100
AcDbLine
 10
119.692346069793
 20
168.4301154871
 30
0.0
 11
119.977249752593
 21
167.9715481711
 31
0.0
  0
LINE
  5
201
330
1F
100
AcDbEntity
  8
0
  6
CONTINUOUS
 62
     7
100
AcDbLine
 10
120.150912541793
 20
168.7150199847
 30
0.0
 11
119.692346069793
 21
168.4301154871
 31
0.0
  0
LINE
  5
202
330
1F
100
AcDbEntity
  8
0
  6
CONTINUOUS
 62
     7
100
AcDbLine
 10
119.785989623393
 20
169.1768718426
 30
0.0
 11
120.160009700693
 21
168.7875603217
 31
0.0
  0
LINE
  5
203
330
1F
100
AcDbEntity
  8
0
  6
CONTINUOUS
 62
     7
100
AcDbLine
 10
120.175301085993
 20
169.5508920363
 30
0.0
 11
119.785989623393
 21
169.1768718426
 31
0.0
  0
LINE
  5
204
330
1F
100
AcDbEntity
  8
0
  6
CONTINUOUS
 62
     7
100
AcDbLine
 10
119.722327206193
 20
169.9267794153
 30
0.0
 11
120.169117104093
 21
169.6237384583
 31
0.0
  0
LINE
  5
205
330
1F
100
AcDbEntity
  8
0
  6
CONTINUOUS
 62
     7
100
AcDbLine
 10
120.025368396093
 20
170.3735687312
 30
0.0
 11
119.722327206193
 21
169.9267794153
 31
0.0
  0
LINE
  5
206
330
1F
100
AcDbEntity
  8
0
  6
CONTINUOUS
 62
     7
100
AcDbLine
 10
119.504141609993
 20
170.6470634796
 30
0.0
 11
120.004173356893
 21
170.4435375993
 31
0.0
  0
LINE
  5
207
330
1F
100
AcDbEntity
  8
0
  6
CONTINUOUS
 62
     7
100
AcDbLine
 10
119.707668188793
 20
171.1470952266
 30
0.0
 11
119.504141609993
 21
170.6470634796
 31
0.0
  0
LINE
  5
208
330
1F
100
AcDbEntity
  8
1
  6
DOT_CENTER
 62
     7
100
AcDbLine
 10
95.736623159917
 20
175.58878889114
 30
0.0
 11
93.4614705074754
 21
175.58878889114
 31
0.0
  0
LINE
  5
209
330
1F
100
AcDbEntity
  8
1
  6
CONTINUOUS
 62
     7
100
AcDbLine
 10
125.786712208993
 20
209.8989754342
 30
0.0
 11
125.786712208993
 21
126.5989725136
 31
0.0
  0
LINE
  5
20A
330
1F
100
AcDbEntity
  8
1
  6
CONTINUOUS
 62
     7
100
AcDbLine
 10
125.386712208993
 20
209.8989754342
 30
0.0
 11
125.386712208993
 21
126.5989725136
 31
0.0
  0
LINE
  5
20B
330
1F
100
AcDbEntity
  8
1
  6
CONTINUOUS
 62
     7
100
AcDbLine
 10
125.086712208993
 20
125.8989725136
 30
0.0
 11
107.286711526393
 21
125.8989725136
 31
0.0
  0
LINE
  5
20C
330
1F
100
AcDbEntity
  8
1
  6
CONTINUOUS
 62
     7
100
AcDbLine
 10
125.086712208993
 20
126.2989725136
 30
0.0
 11
107.286711526393
 21
126.2989725136
 31
0.0
  0
LINE
  5
20D
330
1F
100
AcDbEntity
  8
1
  6
CONTINUOUS
 62
     7
100
AcDbLine
 10
106.986711526393
 20
126.5989725136
 30
0.0
 11
106.986711526393
 21
209.8989754342
 31
0.0
  0
LINE
  5
20E
330
1F
100
AcDbEntity
  8
1
  6
CONTINUOUS
 62
     7
100
AcDbLine
 10
106.586711526394
 20
126.5989725136
 30
0.0
 11
106.586711526394
 21
209.8989754342
 31
0.0
  0
LINE
  5
20F
330
1F
100
AcDbEntity
  8
1
  6
CONTINUOUS
 62
     7
100
AcDbLine
 10
125.086712208993
 20
210.5989754342
 30
0.0
 11
107.286711526393
 21
210.5989754342
 31
0.0
  0
LINE
  5
210
330
1F
100
AcDbEntity
  8
1
  6
CONTINUOUS
 62
     7
100
AcDbLine
 10
107.286711526393
 20
210.1989754342
 30
0.0
 11
125.086712208993
 21
210.1989754342
 31
0.0
  0
LINE
  5
211
330
1F
100
AcDbEntity
  8
1
  6
CONTINUOUS
 62
     7
100
AcDbLine
 10
106.186711526393
 20
210.2989754342
 30
0.0
 11
106.186711526393
 21
126.1989725136
 31
0.0
  0
LINE
  5
212
330
1F
100
AcDbEntity
  8
1
  6
CONTINUOUS
 62
     7
100
AcDbLine
 10
126.186712208993
 20
126.1989725136
 30
0.0
 11
126.186712208993
 21
210.2989754342
 31
0.0
  0
LINE
  5
213
330
1F
100
AcDbEntity
  8
1
  6
CONTINUOUS
 62
     7
100
AcDbLine
 10
106.886711526393
 20
125.4989725136
 30
0.0
 11
125.486712208993
 21
125.4989725136
 31
0.0
  0
LINE
  5
214
330
1F
100
AcDbEntity
  8
1
  6
CONTINUOUS
 62
     7
100
AcDbLine
 10
125.486712208993
 20
210.9989754342
 30
0.0
 11
106.886711526393
 21
210.9989754342
 31
0.0
  0
LINE
  5
215
330
1F
100
AcDbEntity
  8
0
  6
CONTINUOUS
 62
     7
100
AcDbLine
 10
261.8962499931
 20
159.88880414994
 30
0.0
 11
262.8962499931
 21
157.88880414994
 31
0.0
  0
LINE
  5
216
330
1F
100
AcDbEntity
  8
0
  6
CONTINUOUS
 62
     7
100
AcDbLine
 10
261.2962499931
 20
158.78880414994
 30
0.0
 11
261.2962499931
 21
157.88880414994
 31
0.0
  0
LINE
  5
217
330
1F
100
AcDbEntity
  8
0
  6
DOTTED
 62
     7
100
AcDbLine
 10
260.8962499931
 20
159.88880414994
 30
0.0
 11
260.8962499931
 21
158.78880414994
 31
0.0
  0
LINE
  5
218
330
1F
100
AcDbEntity
  8
0
  6
CONTINUOUS
 62
     7
100
AcDbLine
 10
259.4962499931
 20
158.78880414994
 30
0.0
 11
261.2962499931
 21
158.78880414994
 31
0.0
  0
LINE
  5
219
330
1F
100
AcDbEntity
  8
0
  6
CONTINUOUS
 62
     7
100
AcDbLine
 10
262.8962499931
 20
193.28880414994
 30
0.0
 11
261.8962499931
 21
191.28880414994
 31
0.0
  0
LINE
  5
21A
330
1F
100
AcDbEntity
  8
0
  6
CONTINUOUS
 62
     7
100
AcDbLine
 10
260.8962499931
 20
159.88880414994
 30
0.0
 11
261.8962499931
 21
159.88880414994
 31
0.0
  0
LINE
  5
21B
330
1F
100
AcDbEntity
  8
0
  6
CONTINUOUS
 62
     7
100
AcDbLine
 10
260.8962499931
 20
193.28880414994
 30
0.0
 11
260.8962499931
 21
191.28880414994
 31
0.0
  0
LINE
  5
21C
330
1F
100
AcDbEntity
  8
0
  6
CONTINUOUS
 62
     7
100
AcDbLine
 10
256.8962499931
 20
140.58880414994
 30
0.0
 11
262.8962499931
 21
140.58880414994
 31
0.0
  0
LINE
  5
21D
330
1F
100
AcDbEntity
  8
0
  6
CONTINUOUS
 62
     7
100
AcDbLine
 10
260.8962499931
 20
191.28880414994
 30
0.0
 11
261.8962499931
 21
191.28880414994
 31
0.0
  0
LINE
  5
21E
330
1F
100
AcDbEntity
  8
0
  6
CONTINUOUS
 62
     7
100
AcDbLine
 10
234.8962499931
 20
152.48880414994
 30
0.0
 11
236.8962499931
 21
150.48880414994
 31
0.0
  0
LINE
  5
21F
330
1F
100
AcDbEntity
  8
0
  6
CONTINUOUS
 62
     7
100
AcDbLine
 10
236.8962499931
 20
200.68880414994
 30
0.0
 11
234.8962499931
 21
198.68880314994
 31
0.0
  0
LINE
  5
220
330
1F
100
AcDbEntity
  8
0
  6
CONTINUOUS
 62
     7
100
AcDbLine
 10
259.5962499931
 20
139.58880414994
 30
0.0
 11
259.5962499931
 21
135.58880414994
 31
0.0
  0
LINE
  5
221
330
1F
100
AcDbEntity
  8
0
  6
CONTINUOUS
 62
     7
100
AcDbLine
 10
246.3962499931
 20
141.58880414994
 30
0.0
 11
248.3962499931
 21
139.58880414994
 31
0.0
  0
LINE
  5
222
330
1F
100
AcDbEntity
  8
0
  6
CONTINUOUS
 62
     7
100
AcDbLine
 10
256.8962499931
 20
150.48880414994
 30
0.0
 11
256.8962499931
 21
139.58880414994
 31
0.0
  0
LINE
  5
223
330
1F
100
AcDbEntity
  8
0
  6
CONTINUOUS
 62
     7
100
AcDbLine
 10
248.3962499931
 20
211.58880414994
 30
0.0
 11
246.3962499931
 21
209.58880314994
 31
0.0
  0
LINE
  5
224
330
1F
100
AcDbEntity
  8
0
  6
CONTINUOUS
 62
     7
100
AcDbLine
 10
246.3962499931
 20
209.58880314994
 30
0.0
 11
246.3962499931
 21
200.68880414994
 31
0.0
  0
LINE
  5
225
330
1F
100
AcDbEntity
  8
0
  6
CONTINUOUS
 62
     7
100
AcDbLine
 10
234.8962499931
 20
198.68880314994
 30
0.0
 11
234.8962499931
 21
152.48880414994
 31
0.0
  0
LINE
  5
226
330
1F
100
AcDbEntity
  8
0
  6
CONTINUOUS
 62
     7
100
AcDbLine
 10
236.8962499931
 20
150.48880414994
 30
0.0
 11
256.8962499931
 21
150.48880414994
 31
0.0
  0
LINE
  5
227
330
1F
100
AcDbEntity
  8
0
  6
CONTINUOUS
 62
     7
100
AcDbLine
 10
236.8962499931
 20
200.68880414994
 30
0.0
 11
246.3962499931
 21
200.68880414994
 31
0.0
  0
LINE
  5
228
330
1F
100
AcDbEntity
  8
0
  6
CONTINUOUS
 62
     7
100
AcDbLine
 10
262.8962499931
 20
211.58880414994
 30
0.0
 11
262.8962499931
 21
193.28880414994
 31
0.0
  0
LINE
  5
229
330
1F
100
AcDbEntity
  8
0
  6
CONTINUOUS
 62
     7
100
AcDbLine
 10
262.8962499931
 20
157.88880414994
 30
0.0
 11
262.8962499931
 21
135.58880414994
 31
0.0
  0
LINE
  5
22A
330
1F
100
AcDbEntity
  8
0
  6
CONTINUOUS
 62
     7
100
AcDbLine
 10
259.4962499931
 20
193.28880414994
 30
0.0
 11
259.4962499931
 21
157.88880414994
 31
0.0
  0
LINE
  5
22B
330
1F
100
AcDbEntity
  8
0
  6
CONTINUOUS
 62
     7
100
AcDbLine
 10
259.4962499931
 20
157.88880414994
 30
0.0
 11
262.8962499931
 21
157.88880414994
 31
0.0
  0
LINE
  5
22C
330
1F
100
AcDbEntity
  8
0
  6
CONTINUOUS
 62
     7
100
AcDbLine
 10
259.4962499931
 20
193.28880414994
 30
0.0
 11
262.8962499931
 21
193.28880414994
 31
0.0
  0
LINE
  5
22D
330
1F
100
AcDbEntity
  8
0
  6
CONTINUOUS
 62
     7
100
AcDbLine
 10
248.3962499931
 20
139.58880414994
 30
0.0
 11
262.8962499931
 21
139.58880414994
 31
0.0
  0
LINE
  5
22E
330
1F
100
AcDbEntity
  8
0
  6
CONTINUOUS
 62
     7
100
AcDbLine
 10
246.3962499931
 20
150.48880414994
 30
0.0
 11
246.3962499931
 21
141.58880414994
 31
0.0
  0
LINE
  5
22F
330
1F
100
AcDbEntity
  8
0
  6
CONTINUOUS
 62
     7
100
AcDbLine
 10
259.5962499931
 20
135.58880414994
 30
0.0
 11
262.8962499931
 21
135.58880414994
 31
0.0
  0
LINE
  5
230
330
1F
100
AcDbEntity
  8
0
  6
CONTINUOUS
 62
     7
100
AcDbLine
 10
248.3962499931
 20
211.58880414994
 30
0.0
 11
262.8962499931
 21
211.58880414994
 31
0.0
  0
LINE
  5
231
330
1F
100
AcDbEntity
  8
0
  6
CONTINUOUS
 62
     7
100
AcDbLine
 10
259.5962499931
 20
138.58880414994
 30
0.0
 11
262.8962499931
 21
138.58880414994
 31
0.0
  0
LINE
  5
232
330
1F
100
AcDbEntity
  8
0
  6
CONTINUOUS
 62
     7
100
AcDbLine
 10
259.4962499931
 20
190.78880414994
 30
0.0
 11
259.7962499931
 21
189.28880414994
 31
0.0
  0
LINE
  5
233
330
1F
100
AcDbEntity
  8
0
  6
CONTINUOUS
 62
     7
100
AcDbLine
 10
259.7962499931
 20
189.28880414994
 30
0.0
 11
259.4962499931
 21
187.78880414994
 31
0.0
  0
LINE
  5
234
330
1F
100
AcDbEntity
  8
0
  6
DOTTED
 62
     7
100
AcDbLine
 10
259.8962499931
 20
193.08878889114
 30
0.0
 11
260.8962499931
 21
193.08878889114
 31
0.0
  0
LINE
  5
235
330
1F
100
AcDbEntity
  8
0
  6
DOTTED
 62
     7
100
AcDbLine
 10
259.8962499931
 20
158.08880414994
 30
0.0
 11
260.8962499931
 21
158.08880414994
 31
0.0
  0
LINE
  5
236
330
1F
100
AcDbEntity
  8
0
  6
DOTTED
 62
     7
100
AcDbLine
 10
266.1962530449
 20
163.88880720174
 30
0.0
 11
266.1962530449
 21
187.28880109814
 31
0.0
  0
LINE
  5
237
330
1F
100
AcDbEntity
  8
0
  6
DOTTED
 62
     7
100
AcDbLine
 10
267.1962530449
 20
162.88880720174
 30
0.0
 11
267.1962530449
 21
188.28880109814
 31
0.0
  0
LINE
  5
238
330
1F
100
AcDbEntity
  8
0
  6
DOTTED
 62
     7
100
AcDbLine
 10
260.6962683037
 20
163.08878889114
 30
0.0
 11
265.3962499931
 21
163.08878889114
 31
0.0
  0
LINE
  5
239
330
1F
100
AcDbEntity
  8
0
  6
DOTTED
 62
     7
100
AcDbLine
 10
261.6962683037
 20
162.08878889114
 30
0.0
 11
266.3962499931
 21
162.08878889114
 31
0.0
  0
LINE
  5
23A
330
1F
100
AcDbEntity
  8
0
  6
DOTTED
 62
     7
100
AcDbLine
 10
260.8962499931
 20
158.08880414994
 30
0.0
 11
260.8962499931
 21
161.28880109814
 31
0.0
  0
LINE
  5
23B
330
1F
100
AcDbEntity
  8
0
  6
DOTTED
 62
     7
100
AcDbLine
 10
260.6962683037
 20
188.08878889114
 30
0.0
 11
265.3962499931
 21
188.08878889114
 31
0.0
  0
LINE
  5
23C
330
1F
100
AcDbEntity
  8
0
  6
DOTTED
 62
     7
100
AcDbLine
 10
261.6962683037
 20
189.08878889114
 30
0.0
 11
266.3962499931
 21
189.08878889114
 31
0.0
  0
LINE
  5
23D
330
1F
100
AcDbEntity
  8
0
  6
DOTTED
 62
     7
100
AcDbLine
 10
260.8962499931
 20
189.88880720174
 30
0.0
 11
260.8962499931
 21
193.08880414994
 31
0.0
  0
LINE
  5
23E
330
1F
100
AcDbEntity
  8
0
  6
CONTINUOUS
 62
     7
100
AcDbLine
 10
232.8962499931
 20
192.58880414994
 30
0.0
 11
234.8962499931
 21
192.58880414994
 31
0.0
  0
LINE
  5
23F
330
1F
100
AcDbEntity
  8
0
  6
CONTINUOUS
 62
     7
100
AcDbLine
 10
232.8962499931
 20
189.58880414994
 30
0.0
 11
234.8962499931
 21
189.58880414994
 31
0.0
  0
LINE
  5
240
330
1F
100
AcDbEntity
  8
0
  6
CONTINUOUS
 62
     7
100
AcDbLine
 10
232.8962499931
 20
161.58880414994
 30
0.0
 11
234.8962499931
 21
161.58880414994
 31
0.0
  0
LINE
  5
241
330
1F
100
AcDbEntity
  8
0
  6
CONTINUOUS
 62
     7
100
AcDbLine
 10
232.8962499931
 20
158.58880414994
 30
0.0
 11
234.8962499931
 21
158.58880414994
 31
0.0
  0
LINE
  5
242
330
1F
100
AcDbEntity
  8
0
  6
CONTINUOUS
 62
     7
100
AcDbLine
 10
232.8962499931
 20
192.58880414994
 30
0.0
 11
232.8962499931
 21
158.58880414994
 31
0.0
  0
LINE
  5
243
330
1F
100
AcDbEntity
  8
1
  6
DOT_CENTER
 62
     7
100
AcDbLine
 10
257.98610776574
 20
175.58878889114
 30
0.0
 11
268.98610776574
 21
175.58878889114
 31
0.0
  0
LINE
  5
244
330
1F
100
AcDbEntity
  8
1
  6
DOTTED
 62
     7
100
AcDbLine
 10
97.4246751104426
 20
193.08878889114
 30
0.0
 11
104.936711478893
 21
193.08878889114
 31
0.0
  0
LINE
  5
245
330
1F
100
AcDbEntity
  8
1
  6
DOTTED
 62
     7
100
AcDbLine
 10
96.4558216022368
 20
188.08878889114
 30
0.0
 11
104.936711478893
 21
188.08878889114
 31
0.0
  0
LINE
  5
246
330
1F
100
AcDbEntity
  8
1
  6
DOTTED
 62
     7
100
AcDbLine
 10
94.5797206840605
 20
163.08878889114
 30
0.0
 11
104.936711478893
 21
163.08878889114
 31
0.0
  0
LINE
  5
247
330
1F
100
AcDbEntity
  8
1
  6
DOTTED
 62
     7
100
AcDbLine
 10
96.0460983001314
 20
158.08880414994
 30
0.0
 11
104.936711478893
 21
158.08880414994
 31
0.0
  0
LINE
  5
248
330
1F
100
AcDbEntity
  8
1
  6
DOTTED
 62
     7
100
AcDbLine
 10
131.455108946857
 20
158.08880414994
 30
0.0
 11
127.436712372893
 21
158.08880414994
 31
0.0
  0
LINE
  5
249
330
1F
100
AcDbEntity
  8
1
  6
DOTTED
 62
     7
100
AcDbLine
 10
129.988731330786
 20
163.08878889114
 30
0.0
 11
127.436712372893
 21
163.08878889114
 31
0.0
  0
LINE
  5
24A
330
1F
100
AcDbEntity
  8
1
  6
DOTTED
 62
     7
100
AcDbLine
 10
131.864832248962
 20
188.08878889114
 30
0.0
 11
127.436712372893
 21
188.08878889114
 31
0.0
  0
LINE
  5
24B
330
1F
100
AcDbEntity
  8
1
  6
DOTTED
 62
     7
100
AcDbLine
 10
132.833685757168
 20
193.08878889114
 30
0.0
 11
127.436712372893
 21
193.08878889114
 31
0.0
  0
LINE
  5
24C
330
1F
100
AcDbEntity
  8
1
  6
CONTINUOUS
 62
     7
100
AcDbLine
 10
109.58855257103
 20
138.004483189914
 30
0.0
 11
109.63175257103
 21
138.38122737596
 31
0.0
  0
LINE
  5
24D
330
1F
100
AcDbEntity
  8
1
  6
CONTINUOUS
 62
     7
100
AcDbLine
 10
109.63175257103
 20
138.38122737596
 30
0.0
 11
109.76135257103
 21
138.684715748053
 31
0.0
  0
LINE
  5
24E
330
1F
100
AcDbEntity
  8
1
  6
CONTINUOUS
 62
     7
100
AcDbLine
 10
109.76135257103
 20
138.684715748053
 30
0.0
 11
109.91975257103
 21
138.841692492239
 31
0.0
  0
LINE
  5
24F
330
1F
100
AcDbEntity
  8
1
  6
CONTINUOUS
 62
     7
100
AcDbLine
 10
109.91975257103
 20
138.841692492239
 30
0.0
 11
110.11415257103
 21
138.894018073635
 31
0.0
  0
LINE
  5
250
330
1F
100
AcDbEntity
  8
1
  6
CONTINUOUS
 62
     7
100
AcDbLine
 10
110.11415257103
 20
138.894018073635
 30
0.0
 11
110.30855257103
 21
138.841692492239
 31
0.0
  0
LINE
  5
251
330
1F
100
AcDbEntity
  8
1
  6
CONTINUOUS
 62
     7
100
AcDbLine
 10
110.30855257103
 20
138.841692492239
 30
0.0
 11
110.47415257103
 21
138.684715748053
 31
0.0
  0
LINE
  5
252
330
1F
100
AcDbEntity
  8
1
  6
CONTINUOUS
 62
     7
100
AcDbLine
 10
110.47415257103
 20
138.684715748053
 30
0.0
 11
110.60375257103
 21
138.38122737596
 31
0.0
  0
LINE
  5
253
330
1F
100
AcDbEntity
  8
1
  6
CONTINUOUS
 62
     7
100
AcDbLine
 10
110.60375257103
 20
138.38122737596
 30
0.0
 11
110.64695257103
 21
138.004483189914
 31
0.0
  0
LINE
  5
254
330
1F
100
AcDbEntity
  8
1
  6
CONTINUOUS
 62
     7
100
AcDbLine
 10
110.64695257103
 20
138.004483189914
 30
0.0
 11
110.60375257103
 21
137.617273887588
 31
0.0
  0
LINE
  5
255
330
1F
100
AcDbEntity
  8
1
  6
CONTINUOUS
 62
     7
100
AcDbLine
 10
110.60375257103
 20
137.617273887588
 30
0.0
 11
110.47415257103
 21
137.334715748053
 31
0.0
  0
LINE
  5
256
330
1F
100
AcDbEntity
  8
1
  6
CONTINUOUS
 62
     7
100
AcDbLine
 10
110.47415257103
 20
137.334715748053
 30
0.0
 11
110.30855257103
 21
137.167273887588
 31
0.0
  0
LINE
  5
257
330
1F
100
AcDbEntity
  8
1
  6
CONTINUOUS
 62
     7
100
AcDbLine
 10
110.30855257103
 20
137.167273887588
 30
0.0
 11
110.11415257103
 21
137.114948306193
 31
0.0
  0
LINE
  5
258
330
1F
100
AcDbEntity
  8
1
  6
CONTINUOUS
 62
     7
100
AcDbLine
 10
110.11415257103
 20
137.114948306193
 30
0.0
 11
109.91975257103
 21
137.167273887588
 31
0.0
  0
LINE
  5
259
330
1F
100
AcDbEntity
  8
1
  6
CONTINUOUS
 62
     7
100
AcDbLine
 10
109.91975257103
 20
137.167273887588
 30
0.0
 11
109.76135257103
 21
137.334715748053
 31
0.0
  0
LINE
  5
25A
330
1F
100
AcDbEntity
  8
1
  6
CONTINUOUS
 62
     7
100
AcDbLine
 10
109.76135257103
 20
137.334715748053
 30
0.0
 11
109.63175257103
 21
137.617273887588
 31
0.0
  0
LINE
  5
25B
330
1F
100
AcDbEntity
  8
1
  6
CONTINUOUS
 62
     7
100
AcDbLine
 10
109.63175257103
 20
137.617273887588
 30
0.0
 11
109.58855257103
 21
138.004483189914
 31
0.0
  0
LINE
  5
25C
330
1F
100
AcDbEntity
  8
1
  6
CONTINUOUS
 62
     7
100
AcDbLine
 10
110.11415257103
 20
138.705645980611
 30
0.0
 11
109.98455257103
 21
138.663785515495
 31
0.0
  0
LINE
  5
25D
330
1F
100
AcDbEntity
  8
1
  6
CONTINUOUS
 62
     7
100
AcDbLine
 10
109.98455257103
 20
138.663785515495
 30
0.0
 11
109.87655257103
 21
138.548669236425
 31
0.0
  0
LINE
  5
25E
330
1F
100
AcDbEntity
  8
1
  6
CONTINUOUS
 62
     7
100
AcDbLine
 10
109.87655257103
 20
138.548669236425
 30
0.0
 11
109.79015257103
 21
138.328901794565
 31
0.0
  0
LINE
  5
25F
330
1F
100
AcDbEntity
  8
1
  6
CONTINUOUS
 62
     7
100
AcDbLine
 10
109.79015257103
 20
138.328901794565
 30
0.0
 11
109.76135257103
 21
138.004483189914
 31
0.0
  0
LINE
  5
260
330
1F
100
AcDbEntity
  8
1
  6
CONTINUOUS
 62
     7
100
AcDbLine
 10
109.76135257103
 20
138.004483189914
 30
0.0
 11
109.79015257103
 21
137.680064585263
 31
0.0
  0
LINE
  5
261
330
1F
100
AcDbEntity
  8
1
  6
CONTINUOUS
 62
     7
100
AcDbLine
 10
109.79015257103
 20
137.680064585263
 30
0.0
 11
109.87655257103
 21
137.470762259681
 31
0.0
  0
LINE
  5
262
330
1F
100
AcDbEntity
  8
1
  6
CONTINUOUS
 62
     7
100
AcDbLine
 10
109.87655257103
 20
137.470762259681
 30
0.0
 11
109.98455257103
 21
137.345180864332
 31
0.0
  0
LINE
  5
263
330
1F
100
AcDbEntity
  8
1
  6
CONTINUOUS
 62
     7
100
AcDbLine
 10
109.98455257103
 20
137.345180864332
 30
0.0
 11
110.11415257103
 21
137.313785515495
 31
0.0
  0
LINE
  5
264
330
1F
100
AcDbEntity
  8
1
  6
CONTINUOUS
 62
     7
100
AcDbLine
 10
110.11415257103
 20
137.313785515495
 30
0.0
 11
110.24375257103
 21
137.345180864332
 31
0.0
  0
LINE
  5
265
330
1F
100
AcDbEntity
  8
1
  6
CONTINUOUS
 62
     7
100
AcDbLine
 10
110.24375257103
 20
137.345180864332
 30
0.0
 11
110.35895257103
 21
137.470762259681
 31
0.0
  0
LINE
  5
266
330
1F
100
AcDbEntity
  8
1
  6
CONTINUOUS
 62
     7
100
AcDbLine
 10
110.35895257103
 20
137.470762259681
 30
0.0
 11
110.44535257103
 21
137.680064585263
 31
0.0
  0
LINE
  5
267
330
1F
100
AcDbEntity
  8
1
  6
CONTINUOUS
 62
     7
100
AcDbLine
 10
110.44535257103
 20
137.680064585263
 30
0.0
 11
110.47415257103
 21
138.004483189914
 31
0.0
  0
LINE
  5
268
330
1F
100
AcDbEntity
  8
1
  6
CONTINUOUS
 62
     7
100
AcDbLine
 10
110.47415257103
 20
138.004483189914
 30
0.0
 11
110.44535257103
 21
138.328901794565
 31
0.0
  0
LINE
  5
269
330
1F
100
AcDbEntity
  8
1
  6
CONTINUOUS
 62
     7
100
AcDbLine
 10
110.44535257103
 20
138.328901794565
 30
0.0
 11
110.35895257103
 21
138.548669236425
 31
0.0
  0
LINE
  5
26A
330
1F
100
AcDbEntity
  8
1
  6
CONTINUOUS
 62
     7
100
AcDbLine
 10
110.35895257103
 20
138.548669236425
 30
0.0
 11
110.24375257103
 21
138.663785515495
 31
0.0
  0
LINE
  5
26B
330
1F
100
AcDbEntity
  8
1
  6
CONTINUOUS
 62
     7
100
AcDbLine
 10
110.24375257103
 20
138.663785515495
 30
0.0
 11
110.11415257103
 21
138.705645980611
 31
0.0
  0
LINE
  5
26C
330
1F
100
AcDbEntity
  8
1
  6
CONTINUOUS
 62
     7
100
AcDbLine
 10
110.92055257103
 20
138.873087841077
 30
0.0
 11
111.08615257103
 21
138.873087841077
 31
0.0
  0
LINE
  5
26D
330
1F
100
AcDbEntity
  8
1
  6
CONTINUOUS
 62
     7
100
AcDbLine
 10
111.08615257103
 20
138.873087841077
 30
0.0
 11
111.08615257103
 21
137.648669236425
 31
0.0
  0
LINE
  5
26E
330
1F
100
AcDbEntity
  8
1
  6
CONTINUOUS
 62
     7
100
AcDbLine
 10
111.08615257103
 20
137.648669236425
 30
0.0
 11
111.10055257103
 21
137.523087841076
 31
0.0
  0
LINE
  5
26F
330
1F
100
AcDbEntity
  8
1
  6
CONTINUOUS
 62
     7
100
AcDbLine
 10
111.10055257103
 20
137.523087841076
 30
0.0
 11
111.14375257103
 21
137.418436678286
 31
0.0
  0
LINE
  5
270
330
1F
100
AcDbEntity
  8
1
  6
CONTINUOUS
 62
     7
100
AcDbLine
 10
111.14375257103
 20
137.418436678286
 30
0.0
 11
111.23735257103
 21
137.324250631774
 31
0.0
  0
LINE
  5
271
330
1F
100
AcDbEntity
  8
1
  6
CONTINUOUS
 62
     7
100
AcDbLine
 10
111.23735257103
 20
137.324250631774
 30
0.0
 11
111.37415257103
 21
137.303320399216
 31
0.0
  0
LINE
  5
272
330
1F
100
AcDbEntity
  8
1
  6
CONTINUOUS
 62
     7
100
AcDbLine
 10
111.37415257103
 20
137.303320399216
 30
0.0
 11
111.49655257103
 21
137.324250631774
 31
0.0
  0
LINE
  5
273
330
1F
100
AcDbEntity
  8
1
  6
CONTINUOUS
 62
     7
100
AcDbLine
 10
111.49655257103
 20
137.324250631774
 30
0.0
 11
111.59735257103
 21
137.418436678286
 31
0.0
  0
LINE
  5
274
330
1F
100
AcDbEntity
  8
1
  6
CONTINUOUS
 62
     7
100
AcDbLine
 10
111.59735257103
 20
137.418436678286
 30
0.0
 11
111.64055257103
 21
137.523087841076
 31
0.0
  0
LINE
  5
275
330
1F
100
AcDbEntity
  8
1
  6
CONTINUOUS
 62
     7
100
AcDbLine
 10
111.64055257103
 20
137.523087841076
 30
0.0
 11
111.65495257103
 21
137.648669236425
 31
0.0
  0
LINE
  5
276
330
1F
100
AcDbEntity
  8
1
  6
CONTINUOUS
 62
     7
100
AcDbLine
 10
111.65495257103
 20
137.648669236425
 30
0.0
 11
111.65495257103
 21
138.873087841077
 31
0.0
  0
LINE
  5
277
330
1F
100
AcDbEntity
  8
1
  6
CONTINUOUS
 62
     7
100
AcDbLine
 10
111.65495257103
 20
138.873087841077
 30
0.0
 11
111.82055257103
 21
138.873087841077
 31
0.0
  0
LINE
  5
278
330
1F
100
AcDbEntity
  8
1
  6
CONTINUOUS
 62
     7
100
AcDbLine
 10
111.82055257103
 20
138.873087841077
 30
0.0
 11
111.82055257103
 21
137.638204120146
 31
0.0
  0
LINE
  5
279
330
1F
100
AcDbEntity
  8
1
  6
CONTINUOUS
 62
     7
100
AcDbLine
 10
111.82055257103
 20
137.638204120146
 30
0.0
 11
111.79175257103
 21
137.428901794565
 31
0.0
  0
LINE
  5
27A
330
1F
100
AcDbEntity
  8
1
  6
CONTINUOUS
 62
     7
100
AcDbLine
 10
111.79175257103
 20
137.428901794565
 30
0.0
 11
111.71975257103
 21
137.271925050379
 31
0.0
  0
LINE
  5
27B
330
1F
100
AcDbEntity
  8
1
  6
CONTINUOUS
 62
     7
100
AcDbLine
 10
111.71975257103
 20
137.271925050379
 30
0.0
 11
111.57575257103
 21
137.14634365503
 31
0.0
  0
LINE
  5
27C
330
1F
100
AcDbEntity
  8
1
  6
CONTINUOUS
 62
     7
100
AcDbLine
 10
111.57575257103
 20
137.14634365503
 30
0.0
 11
111.37415257103
 21
137.104483189914
 31
0.0
  0
LINE
  5
27D
330
1F
100
AcDbEntity
  8
1
  6
CONTINUOUS
 62
     7
100
AcDbLine
 10
111.37415257103
 20
137.104483189914
 30
0.0
 11
111.15815257103
 21
137.14634365503
 31
0.0
  0
LINE
  5
27E
330
1F
100
AcDbEntity
  8
1
  6
CONTINUOUS
 62
     7
100
AcDbLine
 10
111.15815257103
 20
137.14634365503
 30
0.0
 11
111.02135257103
 21
137.271925050379
 31
0.0
  0
LINE
  5
27F
330
1F
100
AcDbEntity
  8
1
  6
CONTINUOUS
 62
     7
100
AcDbLine
 10
111.02135257103
 20
137.271925050379
 30
0.0
 11
110.94215257103
 21
137.428901794565
 31
0.0
  0
LINE
  5
280
330
1F
100
AcDbEntity
  8
1
  6
CONTINUOUS
 62
     7
100
AcDbLine
 10
110.94215257103
 20
137.428901794565
 30
0.0
 11
110.92055257103
 21
137.638204120146
 31
0.0
  0
LINE
  5
281
330
1F
100
AcDbEntity
  8
1
  6
CONTINUOUS
 62
     7
100
AcDbLine
 10
110.92055257103
 20
137.638204120146
 30
0.0
 11
110.92055257103
 21
138.873087841077
 31
0.0
  0
LINE
  5
282
330
1F
100
AcDbEntity
  8
1
  6
CONTINUOUS
 62
     7
100
AcDbLine
 10
112.02935257103
 20
138.873087841077
 30
0.0
 11
112.99415257103
 21
138.873087841077
 31
0.0
  0
LINE
  5
283
330
1F
100
AcDbEntity
  8
1
  6
CONTINUOUS
 62
     7
100
AcDbLine
 10
112.99415257103
 20
138.873087841077
 30
0.0
 11
112.99415257103
 21
138.663785515495
 31
0.0
  0
LINE
  5
284
330
1F
100
AcDbEntity
  8
1
  6
CONTINUOUS
 62
     7
100
AcDbLine
 10
112.99415257103
 20
138.663785515495
 30
0.0
 11
112.59095257103
 21
138.663785515495
 31
0.0
  0
LINE
  5
285
330
1F
100
AcDbEntity
  8
1
  6
CONTINUOUS
 62
     7
100
AcDbLine
 10
112.59095257103
 20
138.663785515495
 30
0.0
 11
112.59095257103
 21
137.125413422472
 31
0.0
  0
LINE
  5
286
330
1F
100
AcDbEntity
  8
1
  6
CONTINUOUS
 62
     7
100
AcDbLine
 10
112.59095257103
 20
137.125413422472
 30
0.0
 11
112.42535257103
 21
137.125413422472
 31
0.0
  0
LINE
  5
287
330
1F
100
AcDbEntity
  8
1
  6
CONTINUOUS
 62
     7
100
AcDbLine
 10
112.42535257103
 20
137.125413422472
 30
0.0
 11
112.42535257103
 21
138.663785515495
 31
0.0
  0
LINE
  5
288
330
1F
100
AcDbEntity
  8
1
  6
CONTINUOUS
 62
     7
100
AcDbLine
 10
112.42535257103
 20
138.663785515495
 30
0.0
 11
112.02935257103
 21
138.663785515495
 31
0.0
  0
LINE
  5
289
330
1F
100
AcDbEntity
  8
1
  6
CONTINUOUS
 62
     7
100
AcDbLine
 10
112.02935257103
 20
138.663785515495
 30
0.0
 11
112.02935257103
 21
138.873087841077
 31
0.0
  0
LINE
  5
28A
330
1F
100
AcDbEntity
  8
1
  6
CONTINUOUS
 62
     7
100
AcDbLine
 10
120.96359878457
 20
208.075020489278
 30
0.0
 11
121.00139878457
 21
208.32409025672
 31
0.0
  0
LINE
  5
28B
330
1F
100
AcDbEntity
  8
1
  6
CONTINUOUS
 62
     7
100
AcDbLine
 10
121.00139878457
 20
208.32409025672
 30
0.0
 11
121.13999878457
 21
208.558508861371
 31
0.0
  0
LINE
  5
28C
330
1F
100
AcDbEntity
  8
1
  6
CONTINUOUS
 62
     7
100
AcDbLine
 10
121.13999878457
 20
208.558508861371
 30
0.0
 11
121.35419878457
 21
208.690369326487
 31
0.0
  0
LINE
  5
28D
330
1F
100
AcDbEntity
  8
1
  6
CONTINUOUS
 62
     7
100
AcDbLine
 10
121.35419878457
 20
208.690369326487
 30
0.0
 11
121.66919878457
 21
208.74897397765
 31
0.0
  0
LINE
  5
28E
330
1F
100
AcDbEntity
  8
1
  6
CONTINUOUS
 62
     7
100
AcDbLine
 10
121.66919878457
 20
208.74897397765
 30
0.0
 11
121.99679878457
 21
208.690369326487
 31
0.0
  0
LINE
  5
28F
330
1F
100
AcDbEntity
  8
1
  6
CONTINUOUS
 62
     7
100
AcDbLine
 10
121.99679878457
 20
208.690369326487
 30
0.0
 11
122.24879878457
 21
208.52920653579
 31
0.0
  0
LINE
  5
290
330
1F
100
AcDbEntity
  8
1
  6
CONTINUOUS
 62
     7
100
AcDbLine
 10
122.24879878457
 20
208.52920653579
 30
0.0
 11
122.36219878457
 21
208.309439093929
 31
0.0
  0
LINE
  5
291
330
1F
100
AcDbEntity
  8
1
  6
CONTINUOUS
 62
     7
100
AcDbLine
 10
122.36219878457
 20
208.309439093929
 30
0.0
 11
122.41259878457
 21
208.060369326487
 31
0.0
  0
LINE
  5
292
330
1F
100
AcDbEntity
  8
1
  6
CONTINUOUS
 62
     7
100
AcDbLine
 10
122.41259878457
 20
208.060369326487
 30
0.0
 11
122.13539878457
 21
208.060369326487
 31
0.0
  0
LINE
  5
293
330
1F
100
AcDbEntity
  8
1
  6
CONTINUOUS
 62
     7
100
AcDbLine
 10
122.13539878457
 20
208.060369326487
 30
0.0
 11
122.11019878457
 21
208.206880954394
 31
0.0
  0
LINE
  5
294
330
1F
100
AcDbEntity
  8
1
  6
CONTINUOUS
 62
     7
100
AcDbLine
 10
122.11019878457
 20
208.206880954394
 30
0.0
 11
122.03459878457
 21
208.338741419511
 31
0.0
  0
LINE
  5
295
330
1F
100
AcDbEntity
  8
1
  6
CONTINUOUS
 62
     7
100
AcDbLine
 10
122.03459878457
 20
208.338741419511
 30
0.0
 11
121.88339878457
 21
208.426648396255
 31
0.0
  0
LINE
  5
296
330
1F
100
AcDbEntity
  8
1
  6
CONTINUOUS
 62
     7
100
AcDbLine
 10
121.88339878457
 20
208.426648396255
 30
0.0
 11
121.69439878457
 21
208.470601884627
 31
0.0
  0
LINE
  5
297
330
1F
100
AcDbEntity
  8
1
  6
CONTINUOUS
 62
     7
100
AcDbLine
 10
121.69439878457
 20
208.470601884627
 30
0.0
 11
121.46759878457
 21
208.441299559045
 31
0.0
  0
LINE
  5
298
330
1F
100
AcDbEntity
  8
1
  6
CONTINUOUS
 62
     7
100
AcDbLine
 10
121.46759878457
 20
208.441299559045
 30
0.0
 11
121.32899878457
 21
208.353392582301
 31
0.0
  0
LINE
  5
299
330
1F
100
AcDbEntity
  8
1
  6
CONTINUOUS
 62
     7
100
AcDbLine
 10
121.32899878457
 20
208.353392582301
 30
0.0
 11
121.26599878457
 21
208.236183279976
 31
0.0
  0
LINE
  5
29A
330
1F
100
AcDbEntity
  8
1
  6
CONTINUOUS
 62
     7
100
AcDbLine
 10
121.26599878457
 20
208.236183279976
 30
0.0
 11
121.25339878457
 21
208.11897397765
 31
0.0
  0
LINE
  5
29B
330
1F
100
AcDbEntity
  8
1
  6
CONTINUOUS
 62
     7
100
AcDbLine
 10
121.25339878457
 20
208.11897397765
 30
0.0
 11
121.25339878457
 21
208.016415838115
 31
0.0
  0
LINE
  5
29C
330
1F
100
AcDbEntity
  8
1
  6
CONTINUOUS
 62
     7
100
AcDbLine
 10
121.25339878457
 20
208.016415838115
 30
0.0
 11
121.29119878457
 21
207.943160024162
 31
0.0
  0
LINE
  5
29D
330
1F
100
AcDbEntity
  8
1
  6
CONTINUOUS
 62
     7
100
AcDbLine
 10
121.29119878457
 20
207.943160024162
 30
0.0
 11
121.37939878457
 21
207.869904210208
 31
0.0
  0
LINE
  5
29E
330
1F
100
AcDbEntity
  8
1
  6
CONTINUOUS
 62
     7
100
AcDbLine
 10
121.37939878457
 20
207.869904210208
 30
0.0
 11
121.51799878457
 21
207.796648396255
 31
0.0
  0
LINE
  5
29F
330
1F
100
AcDbEntity
  8
1
  6
CONTINUOUS
 62
     7
100
AcDbLine
 10
121.51799878457
 20
207.796648396255
 30
0.0
 11
121.80779878457
 21
207.635485605557
 31
0.0
  0
LINE
  5
2A0
330
1F
100
AcDbEntity
  8
1
  6
CONTINUOUS
 62
     7
100
AcDbLine
 10
121.80779878457
 20
207.635485605557
 30
0.0
 11
122.16059878457
 21
207.459671652069
 31
0.0
  0
LINE
  5
2A1
330
1F
100
AcDbEntity
  8
1
  6
CONTINUOUS
 62
     7
100
AcDbLine
 10
122.16059878457
 20
207.459671652069
 30
0.0
 11
122.24879878457
 21
207.401067000906
 31
0.0
  0
LINE
  5
2A2
330
1F
100
AcDbEntity
  8
1
  6
CONTINUOUS
 62
     7
100
AcDbLine
 10
122.24879878457
 20
207.401067000906
 30
0.0
 11
122.33699878457
 21
207.327811186952
 31
0.0
  0
LINE
  5
2A3
330
1F
100
AcDbEntity
  8
1
  6
CONTINUOUS
 62
     7
100
AcDbLine
 10
122.33699878457
 20
207.327811186952
 30
0.0
 11
122.43779878457
 21
207.151997233464
 31
0.0
  0
LINE
  5
2A4
330
1F
100
AcDbEntity
  8
1
  6
CONTINUOUS
 62
     7
100
AcDbLine
 10
122.43779878457
 20
207.151997233464
 30
0.0
 11
122.47559878457
 21
206.946880954394
 31
0.0
  0
LINE
  5
2A5
330
1F
100
AcDbEntity
  8
1
  6
CONTINUOUS
 62
     7
100
AcDbLine
 10
122.47559878457
 20
206.946880954394
 30
0.0
 11
122.42519878457
 21
206.683160024162
 31
0.0
  0
LINE
  5
2A6
330
1F
100
AcDbEntity
  8
1
  6
CONTINUOUS
 62
     7
100
AcDbLine
 10
122.42519878457
 20
206.683160024162
 30
0.0
 11
122.31179878457
 21
206.463392582301
 31
0.0
  0
LINE
  5
2A7
330
1F
100
AcDbEntity
  8
1
  6
CONTINUOUS
 62
     7
100
AcDbLine
 10
122.31179878457
 20
206.463392582301
 30
0.0
 11
122.05979878457
 21
206.287578628813
 31
0.0
  0
LINE
  5
2A8
330
1F
100
AcDbEntity
  8
1
  6
CONTINUOUS
 62
     7
100
AcDbLine
 10
122.05979878457
 20
206.287578628813
 30
0.0
 11
121.70699878457
 21
206.243625140441
 31
0.0
  0
LINE
  5
2A9
330
1F
100
AcDbEntity
  8
1
  6
CONTINUOUS
 62
     7
100
AcDbLine
 10
121.70699878457
 20
206.243625140441
 30
0.0
 11
121.34159878457
 21
206.302229791604
 31
0.0
  0
LINE
  5
2AA
330
1F
100
AcDbEntity
  8
1
  6
CONTINUOUS
 62
     7
100
AcDbLine
 10
121.34159878457
 20
206.302229791604
 30
0.0
 11
121.07699878457
 21
206.507346070673
 31
0.0
  0
LINE
  5
2AB
330
1F
100
AcDbEntity
  8
1
  6
CONTINUOUS
 62
     7
100
AcDbLine
 10
121.07699878457
 20
206.507346070673
 30
0.0
 11
120.95099878457
 21
206.727113512534
 31
0.0
  0
LINE
  5
2AC
330
1F
100
AcDbEntity
  8
1
  6
CONTINUOUS
 62
     7
100
AcDbLine
 10
120.95099878457
 20
206.727113512534
 30
0.0
 11
120.91319878457
 21
207.049439093929
 31
0.0
  0
LINE
  5
2AD
330
1F
100
AcDbEntity
  8
1
  6
CONTINUOUS
 62
     7
100
AcDbLine
 10
120.91319878457
 20
207.049439093929
 30
0.0
 11
121.20299878457
 21
207.049439093929
 31
0.0
  0
LINE
  5
2AE
330
1F
100
AcDbEntity
  8
1
  6
CONTINUOUS
 62
     7
100
AcDbLine
 10
121.20299878457
 20
207.049439093929
 30
0.0
 11
121.21559878457
 21
206.829671652069
 31
0.0
  0
LINE
  5
2AF
330
1F
100
AcDbEntity
  8
1
  6
CONTINUOUS
 62
     7
100
AcDbLine
 10
121.21559878457
 20
206.829671652069
 30
0.0
 11
121.29119878457
 21
206.683160024162
 31
0.0
  0
LINE
  5
2B0
330
1F
100
AcDbEntity
  8
1
  6
CONTINUOUS
 62
     7
100
AcDbLine
 10
121.29119878457
 20
206.683160024162
 30
0.0
 11
121.46759878457
 21
206.551299559045
 31
0.0
  0
LINE
  5
2B1
330
1F
100
AcDbEntity
  8
1
  6
CONTINUOUS
 62
     7
100
AcDbLine
 10
121.46759878457
 20
206.551299559045
 30
0.0
 11
121.71959878457
 21
206.521997233464
 31
0.0
  0
LINE
  5
2B2
330
1F
100
AcDbEntity
  8
1
  6
CONTINUOUS
 62
     7
100
AcDbLine
 10
121.71959878457
 20
206.521997233464
 30
0.0
 11
121.93379878457
 21
206.551299559045
 31
0.0
  0
LINE
  5
2B3
330
1F
100
AcDbEntity
  8
1
  6
CONTINUOUS
 62
     7
100
AcDbLine
 10
121.93379878457
 20
206.551299559045
 30
0.0
 11
122.09759878457
 21
206.668508861371
 31
0.0
  0
LINE
  5
2B4
330
1F
100
AcDbEntity
  8
1
  6
CONTINUOUS
 62
     7
100
AcDbLine
 10
122.09759878457
 20
206.668508861371
 30
0.0
 11
122.17319878457
 21
206.771067000906
 31
0.0
  0
LINE
  5
2B5
330
1F
100
AcDbEntity
  8
1
  6
CONTINUOUS
 62
     7
100
AcDbLine
 10
122.17319878457
 20
206.771067000906
 30
0.0
 11
122.19839878457
 21
206.888276303231
 31
0.0
  0
LINE
  5
2B6
330
1F
100
AcDbEntity
  8
1
  6
CONTINUOUS
 62
     7
100
AcDbLine
 10
122.19839878457
 20
206.888276303231
 30
0.0
 11
122.17319878457
 21
207.005485605557
 31
0.0
  0
LINE
  5
2B7
330
1F
100
AcDbEntity
  8
1
  6
CONTINUOUS
 62
     7
100
AcDbLine
 10
122.17319878457
 20
207.005485605557
 30
0.0
 11
122.12279878457
 21
207.108043745092
 31
0.0
  0
LINE
  5
2B8
330
1F
100
AcDbEntity
  8
1
  6
CONTINUOUS
 62
     7
100
AcDbLine
 10
122.12279878457
 20
207.108043745092
 30
0.0
 11
122.03459878457
 21
207.181299559045
 31
0.0
  0
LINE
  5
2B9
330
1F
100
AcDbEntity
  8
1
  6
CONTINUOUS
 62
     7
100
AcDbLine
 10
122.03459878457
 20
207.181299559045
 30
0.0
 11
121.92119878457
 21
207.254555372999
 31
0.0
  0
LINE
  5
2BA
330
1F
100
AcDbEntity
  8
1
  6
CONTINUOUS
 62
     7
100
AcDbLine
 10
121.92119878457
 20
207.254555372999
 30
0.0
 11
121.76999878457
 21
207.327811186952
 31
0.0
  0
LINE
  5
2BB
330
1F
100
AcDbEntity
  8
1
  6
CONTINUOUS
 62
     7
100
AcDbLine
 10
121.76999878457
 20
207.327811186952
 30
0.0
 11
121.60619878457
 21
207.430369326487
 31
0.0
  0
LINE
  5
2BC
330
1F
100
AcDbEntity
  8
1
  6
CONTINUOUS
 62
     7
100
AcDbLine
 10
121.60619878457
 20
207.430369326487
 30
0.0
 11
121.40459878457
 21
207.518276303231
 31
0.0
  0
LINE
  5
2BD
330
1F
100
AcDbEntity
  8
1
  6
CONTINUOUS
 62
     7
100
AcDbLine
 10
121.40459878457
 20
207.518276303231
 30
0.0
 11
121.25339878457
 21
207.606183279976
 31
0.0
  0
LINE
  5
2BE
330
1F
100
AcDbEntity
  8
1
  6
CONTINUOUS
 62
     7
100
AcDbLine
 10
121.25339878457
 20
207.606183279976
 30
0.0
 11
121.15259878457
 21
207.650136768348
 31
0.0
  0
LINE
  5
2BF
330
1F
100
AcDbEntity
  8
1
  6
CONTINUOUS
 62
     7
100
AcDbLine
 10
121.15259878457
 20
207.650136768348
 30
0.0
 11
121.07699878457
 21
207.738043745092
 31
0.0
  0
LINE
  5
2C0
330
1F
100
AcDbEntity
  8
1
  6
CONTINUOUS
 62
     7
100
AcDbLine
 10
121.07699878457
 20
207.738043745092
 30
0.0
 11
120.98879878457
 21
207.884555372999
 31
0.0
  0
LINE
  5
2C1
330
1F
100
AcDbEntity
  8
1
  6
CONTINUOUS
 62
     7
100
AcDbLine
 10
120.98879878457
 20
207.884555372999
 30
0.0
 11
120.96359878457
 21
208.075020489278
 31
0.0
  0
LINE
  5
2C2
330
1F
100
AcDbEntity
  8
1
  6
CONTINUOUS
 62
     7
100
AcDbLine
 10
122.90399878457
 20
208.719671652069
 30
0.0
 11
123.19379878457
 21
208.719671652069
 31
0.0
  0
LINE
  5
2C3
330
1F
100
AcDbEntity
  8
1
  6
CONTINUOUS
 62
     7
100
AcDbLine
 10
123.19379878457
 20
208.719671652069
 30
0.0
 11
123.19379878457
 21
207.69409025672
 31
0.0
  0
LINE
  5
2C4
330
1F
100
AcDbEntity
  8
1
  6
CONTINUOUS
 62
     7
100
AcDbLine
 10
123.19379878457
 20
207.69409025672
 30
0.0
 11
124.18919878457
 21
207.69409025672
 31
0.0
  0
LINE
  5
2C5
330
1F
100
AcDbEntity
  8
1
  6
CONTINUOUS
 62
     7
100
AcDbLine
 10
124.18919878457
 20
207.69409025672
 30
0.0
 11
124.18919878457
 21
208.719671652069
 31
0.0
  0
LINE
  5
2C6
330
1F
100
AcDbEntity
  8
1
  6
CONTINUOUS
 62
     7
100
AcDbLine
 10
124.18919878457
 20
208.719671652069
 30
0.0
 11
124.47899878457
 21
208.719671652069
 31
0.0
  0
LINE
  5
2C7
330
1F
100
AcDbEntity
  8
1
  6
CONTINUOUS
 62
     7
100
AcDbLine
 10
124.47899878457
 20
208.719671652069
 30
0.0
 11
124.47899878457
 21
206.272927466022
 31
0.0
  0
LINE
  5
2C8
330
1F
100
AcDbEntity
  8
1
  6
CONTINUOUS
 62
     7
100
AcDbLine
 10
124.47899878457
 20
206.272927466022
 30
0.0
 11
124.18919878457
 21
206.272927466022
 31
0.0
  0
LINE
  5
2C9
330
1F
100
AcDbEntity
  8
1
  6
CONTINUOUS
 62
     7
100
AcDbLine
 10
124.18919878457
 20
206.272927466022
 30
0.0
 11
124.18919878457
 21
207.401067000906
 31
0.0
  0
LINE
  5
2CA
330
1F
100
AcDbEntity
  8
1
  6
CONTINUOUS
 62
     7
100
AcDbLine
 10
124.18919878457
 20
207.401067000906
 30
0.0
 11
123.19379878457
 21
207.401067000906
 31
0.0
  0
LINE
  5
2CB
330
1F
100
AcDbEntity
  8
1
  6
CONTINUOUS
 62
     7
100
AcDbLine
 10
123.19379878457
 20
207.401067000906
 30
0.0
 11
123.19379878457
 21
206.272927466022
 31
0.0
  0
LINE
  5
2CC
330
1F
100
AcDbEntity
  8
1
  6
CONTINUOUS
 62
     7
100
AcDbLine
 10
123.19379878457
 20
206.272927466022
 30
0.0
 11
122.90399878457
 21
206.272927466022
 31
0.0
  0
LINE
  5
2CD
330
1F
100
AcDbEntity
  8
1
  6
CONTINUOUS
 62
     7
100
AcDbLine
 10
122.90399878457
 20
206.272927466022
 30
0.0
 11
122.90399878457
 21
208.719671652069
 31
0.0
  0
LINE
  5
2CE
330
1F
100
AcDbEntity
  8
1
  6
CONTINUOUS
 62
     7
100
AcDbLine
 10
108.930530602861
 20
142.74316328921
 30
0.0
 11
109.818032602861
 21
142.74316328921
 31
0.0
  0
LINE
  5
2CF
330
1F
100
AcDbEntity
  8
1
  6
CONTINUOUS
 62
     7
100
AcDbLine
 10
109.818032602861
 20
142.74316328921
 30
0.0
 11
109.818032602861
 21
142.517814452
 31
0.0
  0
LINE
  5
2D0
330
1F
100
AcDbEntity
  8
1
  6
CONTINUOUS
 62
     7
100
AcDbLine
 10
109.818032602861
 20
142.517814452
 30
0.0
 11
109.071902602861
 21
140.987814452
 31
0.0
  0
LINE
  5
2D1
330
1F
100
AcDbEntity
  8
1
  6
CONTINUOUS
 62
     7
100
AcDbLine
 10
109.071902602861
 20
140.987814452
 30
0.0
 11
109.841594602861
 21
140.987814452
 31
0.0
  0
LINE
  5
2D2
330
1F
100
AcDbEntity
  8
1
  6
CONTINUOUS
 62
     7
100
AcDbLine
 10
109.841594602861
 20
140.987814452
 30
0.0
 11
109.841594602861
 21
140.750605149675
 31
0.0
  0
LINE
  5
2D3
330
1F
100
AcDbEntity
  8
1
  6
CONTINUOUS
 62
     7
100
AcDbLine
 10
109.841594602861
 20
140.750605149675
 30
0.0
 11
108.883406602861
 21
140.750605149675
 31
0.0
  0
LINE
  5
2D4
330
1F
100
AcDbEntity
  8
1
  6
CONTINUOUS
 62
     7
100
AcDbLine
 10
108.883406602861
 20
140.750605149675
 30
0.0
 11
108.883406602861
 21
140.999674917117
 31
0.0
  0
LINE
  5
2D5
330
1F
100
AcDbEntity
  8
1
  6
CONTINUOUS
 62
     7
100
AcDbLine
 10
108.883406602861
 20
140.999674917117
 30
0.0
 11
109.637390602861
 21
142.505953986884
 31
0.0
  0
LINE
  5
2D6
330
1F
100
AcDbEntity
  8
1
  6
CONTINUOUS
 62
     7
100
AcDbLine
 10
109.637390602861
 20
142.505953986884
 30
0.0
 11
108.930530602861
 21
142.505953986884
 31
0.0
  0
LINE
  5
2D7
330
1F
100
AcDbEntity
  8
1
  6
CONTINUOUS
 62
     7
100
AcDbLine
 10
108.930530602861
 20
142.505953986884
 30
0.0
 11
108.930530602861
 21
142.74316328921
 31
0.0
  0
LINE
  5
2D8
330
1F
100
AcDbEntity
  8
1
  6
CONTINUOUS
 62
     7
100
AcDbLine
 10
110.100776602861
 20
142.74316328921
 30
0.0
 11
110.949008602861
 21
142.74316328921
 31
0.0
  0
LINE
  5
2D9
330
1F
100
AcDbEntity
  8
1
  6
CONTINUOUS
 62
     7
100
AcDbLine
 10
110.949008602861
 20
142.74316328921
 30
0.0
 11
110.949008602861
 21
142.505953986884
 31
0.0
  0
LINE
  5
2DA
330
1F
100
AcDbEntity
  8
1
  6
CONTINUOUS
 62
     7
100
AcDbLine
 10
110.949008602861
 20
142.505953986884
 30
0.0
 11
110.281418602861
 21
142.505953986884
 31
0.0
  0
LINE
  5
2DB
330
1F
100
AcDbEntity
  8
1
  6
CONTINUOUS
 62
     7
100
AcDbLine
 10
110.281418602861
 20
142.505953986884
 30
0.0
 11
110.281418602861
 21
141.91293073107
 31
0.0
  0
LINE
  5
2DC
330
1F
100
AcDbEntity
  8
1
  6
CONTINUOUS
 62
     7
100
AcDbLine
 10
110.281418602861
 20
141.91293073107
 30
0.0
 11
110.901884602861
 21
141.91293073107
 31
0.0
  0
LINE
  5
2DD
330
1F
100
AcDbEntity
  8
1
  6
CONTINUOUS
 62
     7
100
AcDbLine
 10
110.901884602861
 20
141.91293073107
 30
0.0
 11
110.901884602861
 21
141.675721428745
 31
0.0
  0
LINE
  5
2DE
330
1F
100
AcDbEntity
  8
1
  6
CONTINUOUS
 62
     7
100
AcDbLine
 10
110.901884602861
 20
141.675721428745
 30
0.0
 11
110.281418602861
 21
141.675721428745
 31
0.0
  0
LINE
  5
2DF
330
1F
100
AcDbEntity
  8
1
  6
CONTINUOUS
 62
     7
100
AcDbLine
 10
110.281418602861
 20
141.675721428745
 30
0.0
 11
110.281418602861
 21
140.987814452
 31
0.0
  0
LINE
  5
2E0
330
1F
100
AcDbEntity
  8
1
  6
CONTINUOUS
 62
     7
100
AcDbLine
 10
110.281418602861
 20
140.987814452
 30
0.0
 11
110.980424602861
 21
140.987814452
 31
0.0
  0
LINE
  5
2E1
330
1F
100
AcDbEntity
  8
1
  6
CONTINUOUS
 62
     7
100
AcDbLine
 10
110.980424602861
 20
140.987814452
 30
0.0
 11
110.980424602861
 21
140.750605149675
 31
0.0
  0
LINE
  5
2E2
330
1F
100
AcDbEntity
  8
1
  6
CONTINUOUS
 62
     7
100
AcDbLine
 10
110.980424602861
 20
140.750605149675
 30
0.0
 11
110.100776602861
 21
140.750605149675
 31
0.0
  0
LINE
  5
2E3
330
1F
100
AcDbEntity
  8
1
  6
CONTINUOUS
 62
     7
100
AcDbLine
 10
110.100776602861
 20
140.750605149675
 30
0.0
 11
110.100776602861
 21
142.74316328921
 31
0.0
  0
LINE
  5
2E4
330
1F
100
AcDbEntity
  8
1
  6
CONTINUOUS
 62
     7
100
AcDbLine
 10
111.278876602861
 20
142.755023754326
 30
0.0
 11
111.930758602861
 21
142.755023754326
 31
0.0
  0
LINE
  5
2E5
330
1F
100
AcDbEntity
  8
1
  6
CONTINUOUS
 62
     7
100
AcDbLine
 10
111.930758602861
 20
142.755023754326
 30
0.0
 11
112.072130602861
 21
142.719442358977
 31
0.0
  0
LINE
  5
2E6
330
1F
100
AcDbEntity
  8
1
  6
CONTINUOUS
 62
     7
100
AcDbLine
 10
112.072130602861
 20
142.719442358977
 30
0.0
 11
112.182086602861
 21
142.612698172931
 31
0.0
  0
LINE
  5
2E7
330
1F
100
AcDbEntity
  8
1
  6
CONTINUOUS
 62
     7
100
AcDbLine
 10
112.182086602861
 20
142.612698172931
 30
0.0
 11
112.252772602861
 21
142.42293073107
 31
0.0
  0
LINE
  5
2E8
330
1F
100
AcDbEntity
  8
1
  6
CONTINUOUS
 62
     7
100
AcDbLine
 10
112.252772602861
 20
142.42293073107
 30
0.0
 11
112.284188602861
 21
142.197581893861
 31
0.0
  0
LINE
  5
2E9
330
1F
100
AcDbEntity
  8
1
  6
CONTINUOUS
 62
     7
100
AcDbLine
 10
112.284188602861
 20
142.197581893861
 30
0.0
 11
112.252772602861
 21
141.948512126419
 31
0.0
  0
LINE
  5
2EA
330
1F
100
AcDbEntity
  8
1
  6
CONTINUOUS
 62
     7
100
AcDbLine
 10
112.252772602861
 20
141.948512126419
 30
0.0
 11
112.182086602861
 21
141.770605149675
 31
0.0
  0
LINE
  5
2EB
330
1F
100
AcDbEntity
  8
1
  6
CONTINUOUS
 62
     7
100
AcDbLine
 10
112.182086602861
 20
141.770605149675
 30
0.0
 11
112.111400602861
 21
141.711302824093
 31
0.0
  0
LINE
  5
2EC
330
1F
100
AcDbEntity
  8
1
  6
CONTINUOUS
 62
     7
100
AcDbLine
 10
112.111400602861
 20
141.711302824093
 30
0.0
 11
112.032860602861
 21
141.675721428745
 31
0.0
  0
LINE
  5
2ED
330
1F
100
AcDbEntity
  8
1
  6
CONTINUOUS
 62
     7
100
AcDbLine
 10
112.032860602861
 20
141.675721428745
 30
0.0
 11
112.331312602861
 21
140.774326079907
 31
0.0
  0
LINE
  5
2EE
330
1F
100
AcDbEntity
  8
1
  6
CONTINUOUS
 62
     7
100
AcDbLine
 10
112.331312602861
 20
140.774326079907
 30
0.0
 11
112.134962602861
 21
140.774326079907
 31
0.0
  0
LINE
  5
2EF
330
1F
100
AcDbEntity
  8
1
  6
CONTINUOUS
 62
     7
100
AcDbLine
 10
112.134962602861
 20
140.774326079907
 30
0.0
 11
111.860072602861
 21
141.616419103163
 31
0.0
  0
LINE
  5
2F0
330
1F
100
AcDbEntity
  8
1
  6
CONTINUOUS
 62
     7
100
AcDbLine
 10
111.860072602861
 20
141.616419103163
 30
0.0
 11
111.459518602861
 21
141.616419103163
 31
0.0
  0
LINE
  5
2F1
330
1F
100
AcDbEntity
  8
1
  6
CONTINUOUS
 62
     7
100
AcDbLine
 10
111.459518602861
 20
141.616419103163
 30
0.0
 11
111.459518602861
 21
140.774326079907
 31
0.0
  0
LINE
  5
2F2
330
1F
100
AcDbEntity
  8
1
  6
CONTINUOUS
 62
     7
100
AcDbLine
 10
111.459518602861
 20
140.774326079907
 30
0.0
 11
111.278876602861
 21
140.774326079907
 31
0.0
  0
LINE
  5
2F3
330
1F
100
AcDbEntity
  8
1
  6
CONTINUOUS
 62
     7
100
AcDbLine
 10
111.278876602861
 20
140.774326079907
 30
0.0
 11
111.278876602861
 21
142.755023754326
 31
0.0
  0
LINE
  5
2F4
330
1F
100
AcDbEntity
  8
1
  6
CONTINUOUS
 62
     7
100
AcDbLine
 10
111.459518602861
 20
142.517814452
 30
0.0
 11
111.459518602861
 21
141.853628405489
 31
0.0
  0
LINE
  5
2F5
330
1F
100
AcDbEntity
  8
1
  6
CONTINUOUS
 62
     7
100
AcDbLine
 10
111.459518602861
 20
141.853628405489
 30
0.0
 11
111.915050602861
 21
141.853628405489
 31
0.0
  0
LINE
  5
2F6
330
1F
100
AcDbEntity
  8
1
  6
CONTINUOUS
 62
     7
100
AcDbLine
 10
111.915050602861
 20
141.853628405489
 30
0.0
 11
111.985736602861
 21
141.865488870605
 31
0.0
  0
LINE
  5
2F7
330
1F
100
AcDbEntity
  8
1
  6
CONTINUOUS
 62
     7
100
AcDbLine
 10
111.985736602861
 20
141.865488870605
 30
0.0
 11
112.048568602861
 21
141.936651661303
 31
0.0
  0
LINE
  5
2F8
330
1F
100
AcDbEntity
  8
1
  6
CONTINUOUS
 62
     7
100
AcDbLine
 10
112.048568602861
 20
141.936651661303
 30
0.0
 11
112.087838602861
 21
142.043395847349
 31
0.0
  0
LINE
  5
2F9
330
1F
100
AcDbEntity
  8
1
  6
CONTINUOUS
 62
     7
100
AcDbLine
 10
112.087838602861
 20
142.043395847349
 30
0.0
 11
112.103546602861
 21
142.197581893861
 31
0.0
  0
LINE
  5
2FA
330
1F
100
AcDbEntity
  8
1
  6
CONTINUOUS
 62
     7
100
AcDbLine
 10
112.103546602861
 20
142.197581893861
 30
0.0
 11
112.087838602861
 21
142.32804701014
 31
0.0
  0
LINE
  5
2FB
330
1F
100
AcDbEntity
  8
1
  6
CONTINUOUS
 62
     7
100
AcDbLine
 10
112.087838602861
 20
142.32804701014
 30
0.0
 11
112.040714602861
 21
142.446651661303
 31
0.0
  0
LINE
  5
2FC
330
1F
100
AcDbEntity
  8
1
  6
CONTINUOUS
 62
     7
100
AcDbLine
 10
112.040714602861
 20
142.446651661303
 30
0.0
 11
111.970028602861
 21
142.494093521768
 31
0.0
  0
LINE
  5
2FD
330
1F
100
AcDbEntity
  8
1
  6
CONTINUOUS
 62
     7
100
AcDbLine
 10
111.970028602861
 20
142.494093521768
 30
0.0
 11
111.891488602861
 21
142.517814452
 31
0.0
  0
LINE
  5
2FE
330
1F
100
AcDbEntity
  8
1
  6
CONTINUOUS
 62
     7
100
AcDbLine
 10
111.891488602861
 20
142.517814452
 30
0.0
 11
111.459518602861
 21
142.517814452
 31
0.0
  0
LINE
  5
2FF
330
1F
100
AcDbEntity
  8
1
  6
CONTINUOUS
 62
     7
100
AcDbLine
 10
112.504100602861
 20
141.758744684559
 30
0.0
 11
112.551224602861
 21
142.185721428745
 31
0.0
  0
LINE
  5
300
330
1F
100
AcDbEntity
  8
1
  6
CONTINUOUS
 62
     7
100
AcDbLine
 10
112.551224602861
 20
142.185721428745
 30
0.0
 11
112.692596602861
 21
142.529674917117
 31
0.0
  0
LINE
  5
301
330
1F
100
AcDbEntity
  8
1
  6
CONTINUOUS
 62
     7
100
AcDbLine
 10
112.692596602861
 20
142.529674917117
 30
0.0
 11
112.865384602861
 21
142.707581893861
 31
0.0
  0
LINE
  5
302
330
1F
100
AcDbEntity
  8
1
  6
CONTINUOUS
 62
     7
100
AcDbLine
 10
112.865384602861
 20
142.707581893861
 30
0.0
 11
113.077442602861
 21
142.766884219442
 31
0.0
  0
LINE
  5
303
330
1F
100
AcDbEntity
  8
1
  6
CONTINUOUS
 62
     7
100
AcDbLine
 10
113.077442602861
 20
142.766884219442
 30
0.0
 11
113.289500602861
 21
142.707581893861
 31
0.0
  0
LINE
  5
304
330
1F
100
AcDbEntity
  8
1
  6
CONTINUOUS
 62
     7
100
AcDbLine
 10
113.289500602861
 20
142.707581893861
 30
0.0
 11
113.470142602861
 21
142.529674917117
 31
0.0
  0
LINE
  5
305
330
1F
100
AcDbEntity
  8
1
  6
CONTINUOUS
 62
     7
100
AcDbLine
 10
113.470142602861
 20
142.529674917117
 30
0.0
 11
113.611514602861
 21
142.185721428745
 31
0.0
  0
LINE
  5
306
330
1F
100
AcDbEntity
  8
1
  6
CONTINUOUS
 62
     7
100
AcDbLine
 10
113.611514602861
 20
142.185721428745
 30
0.0
 11
113.658638602861
 21
141.758744684559
 31
0.0
  0
LINE
  5
307
330
1F
100
AcDbEntity
  8
1
  6
CONTINUOUS
 62
     7
100
AcDbLine
 10
113.658638602861
 20
141.758744684559
 30
0.0
 11
113.611514602861
 21
141.319907475256
 31
0.0
  0
LINE
  5
308
330
1F
100
AcDbEntity
  8
1
  6
CONTINUOUS
 62
     7
100
AcDbLine
 10
113.611514602861
 20
141.319907475256
 30
0.0
 11
113.470142602861
 21
140.999674917117
 31
0.0
  0
LINE
  5
309
330
1F
100
AcDbEntity
  8
1
  6
CONTINUOUS
 62
     7
100
AcDbLine
 10
113.470142602861
 20
140.999674917117
 30
0.0
 11
113.289500602861
 21
140.809907475256
 31
0.0
  0
LINE
  5
30A
330
1F
100
AcDbEntity
  8
1
  6
CONTINUOUS
 62
     7
100
AcDbLine
 10
113.289500602861
 20
140.809907475256
 30
0.0
 11
113.077442602861
 21
140.750605149675
 31
0.0
  0
LINE
  5
30B
330
1F
100
AcDbEntity
  8
1
  6
CONTINUOUS
 62
     7
100
AcDbLine
 10
113.077442602861
 20
140.750605149675
 30
0.0
 11
112.865384602861
 21
140.809907475256
 31
0.0
  0
LINE
  5
30C
330
1F
100
AcDbEntity
  8
1
  6
CONTINUOUS
 62
     7
100
AcDbLine
 10
112.865384602861
 20
140.809907475256
 30
0.0
 11
112.692596602861
 21
140.999674917117
 31
0.0
  0
LINE
  5
30D
330
1F
100
AcDbEntity
  8
1
  6
CONTINUOUS
 62
     7
100
AcDbLine
 10
112.692596602861
 20
140.999674917117
 30
0.0
 11
112.551224602861
 21
141.319907475256
 31
0.0
  0
LINE
  5
30E
330
1F
100
AcDbEntity
  8
1
  6
CONTINUOUS
 62
     7
100
AcDbLine
 10
112.551224602861
 20
141.319907475256
 30
0.0
 11
112.504100602861
 21
141.758744684559
 31
0.0
  0
LINE
  5
30F
330
1F
100
AcDbEntity
  8
1
  6
CONTINUOUS
 62
     7
100
AcDbLine
 10
113.077442602861
 20
142.553395847349
 30
0.0
 11
112.936070602861
 21
142.505953986884
 31
0.0
  0
LINE
  5
310
330
1F
100
AcDbEntity
  8
1
  6
CONTINUOUS
 62
     7
100
AcDbLine
 10
112.936070602861
 20
142.505953986884
 30
0.0
 11
112.818260602861
 21
142.375488870605
 31
0.0
  0
LINE
  5
311
330
1F
100
AcDbEntity
  8
1
  6
CONTINUOUS
 62
     7
100
AcDbLine
 10
112.818260602861
 20
142.375488870605
 30
0.0
 11
112.724012602861
 21
142.126419103163
 31
0.0
  0
LINE
  5
312
330
1F
100
AcDbEntity
  8
1
  6
CONTINUOUS
 62
     7
100
AcDbLine
 10
112.724012602861
 20
142.126419103163
 30
0.0
 11
112.692596602861
 21
141.758744684559
 31
0.0
  0
LINE
  5
313
330
1F
100
AcDbEntity
  8
1
  6
CONTINUOUS
 62
     7
100
AcDbLine
 10
112.692596602861
 20
141.758744684559
 30
0.0
 11
112.724012602861
 21
141.391070265954
 31
0.0
  0
LINE
  5
314
330
1F
100
AcDbEntity
  8
1
  6
CONTINUOUS
 62
     7
100
AcDbLine
 10
112.724012602861
 20
141.391070265954
 30
0.0
 11
112.818260602861
 21
141.153860963628
 31
0.0
  0
LINE
  5
315
330
1F
100
AcDbEntity
  8
1
  6
CONTINUOUS
 62
     7
100
AcDbLine
 10
112.818260602861
 20
141.153860963628
 30
0.0
 11
112.936070602861
 21
141.011535382233
 31
0.0
  0
LINE
  5
316
330
1F
100
AcDbEntity
  8
1
  6
CONTINUOUS
 62
     7
100
AcDbLine
 10
112.936070602861
 20
141.011535382233
 30
0.0
 11
113.077442602861
 21
140.975953986884
 31
0.0
  0
LINE
  5
317
330
1F
100
AcDbEntity
  8
1
  6
CONTINUOUS
 62
     7
100
AcDbLine
 10
113.077442602861
 20
140.975953986884
 30
0.0
 11
113.218814602861
 21
141.011535382233
 31
0.0
  0
LINE
  5
318
330
1F
100
AcDbEntity
  8
1
  6
CONTINUOUS
 62
     7
100
AcDbLine
 10
113.218814602861
 20
141.011535382233
 30
0.0
 11
113.344478602861
 21
141.153860963628
 31
0.0
  0
LINE
  5
319
330
1F
100
AcDbEntity
  8
1
  6
CONTINUOUS
 62
     7
100
AcDbLine
 10
113.344478602861
 20
141.153860963628
 30
0.0
 11
113.438726602861
 21
141.391070265954
 31
0.0
  0
LINE
  5
31A
330
1F
100
AcDbEntity
  8
1
  6
CONTINUOUS
 62
     7
100
AcDbLine
 10
113.438726602861
 20
141.391070265954
 30
0.0
 11
113.470142602861
 21
141.758744684559
 31
0.0
  0
LINE
  5
31B
330
1F
100
AcDbEntity
  8
1
  6
CONTINUOUS
 62
     7
100
AcDbLine
 10
113.470142602861
 20
141.758744684559
 30
0.0
 11
113.438726602861
 21
142.126419103163
 31
0.0
  0
LINE
  5
31C
330
1F
100
AcDbEntity
  8
1
  6
CONTINUOUS
 62
     7
100
AcDbLine
 10
113.438726602861
 20
142.126419103163
 30
0.0
 11
113.344478602861
 21
142.375488870605
 31
0.0
  0
LINE
  5
31D
330
1F
100
AcDbEntity
  8
1
  6
CONTINUOUS
 62
     7
100
AcDbLine
 10
113.344478602861
 20
142.375488870605
 30
0.0
 11
113.218814602861
 21
142.505953986884
 31
0.0
  0
LINE
  5
31E
330
1F
100
AcDbEntity
  8
1
  6
CONTINUOUS
 62
     7
100
AcDbLine
 10
113.218814602861
 20
142.505953986884
 30
0.0
 11
113.077442602861
 21
142.553395847349
 31
0.0
  0
LINE
  5
31F
330
1F
100
AcDbEntity
  8
1
  6
CONTINUOUS
 62
     7
100
AcDbLine
 10
108.941946602861
 20
134.706670290045
 30
0.0
 11
108.965508602861
 21
134.908298197022
 31
0.0
  0
LINE
  5
320
330
1F
100
AcDbEntity
  8
1
  6
CONTINUOUS
 62
     7
100
AcDbLine
 10
108.965508602861
 20
134.908298197022
 30
0.0
 11
109.051902602861
 21
135.098065638883
 31
0.0
  0
LINE
  5
321
330
1F
100
AcDbEntity
  8
1
  6
CONTINUOUS
 62
     7
100
AcDbLine
 10
109.051902602861
 20
135.098065638883
 30
0.0
 11
109.185420602861
 21
135.204809824929
 31
0.0
  0
LINE
  5
322
330
1F
100
AcDbEntity
  8
1
  6
CONTINUOUS
 62
     7
100
AcDbLine
 10
109.185420602861
 20
135.204809824929
 30
0.0
 11
109.381770602861
 21
135.252251685394
 31
0.0
  0
LINE
  5
323
330
1F
100
AcDbEntity
  8
1
  6
CONTINUOUS
 62
     7
100
AcDbLine
 10
109.381770602861
 20
135.252251685394
 30
0.0
 11
109.585974602861
 21
135.204809824929
 31
0.0
  0
LINE
  5
324
330
1F
100
AcDbEntity
  8
1
  6
CONTINUOUS
 62
     7
100
AcDbLine
 10
109.585974602861
 20
135.204809824929
 30
0.0
 11
109.743054602861
 21
135.07434470865
 31
0.0
  0
LINE
  5
325
330
1F
100
AcDbEntity
  8
1
  6
CONTINUOUS
 62
     7
100
AcDbLine
 10
109.743054602861
 20
135.07434470865
 30
0.0
 11
109.813740602861
 21
134.896437731906
 31
0.0
  0
LINE
  5
326
330
1F
100
AcDbEntity
  8
1
  6
CONTINUOUS
 62
     7
100
AcDbLine
 10
109.813740602861
 20
134.896437731906
 30
0.0
 11
109.845156602861
 21
134.694809824929
 31
0.0
  0
LINE
  5
327
330
1F
100
AcDbEntity
  8
1
  6
CONTINUOUS
 62
     7
100
AcDbLine
 10
109.845156602861
 20
134.694809824929
 30
0.0
 11
109.672368602861
 21
134.694809824929
 31
0.0
  0
LINE
  5
328
330
1F
100
AcDbEntity
  8
1
  6
CONTINUOUS
 62
     7
100
AcDbLine
 10
109.672368602861
 20
134.694809824929
 30
0.0
 11
109.656660602861
 21
134.813414476092
 31
0.0
  0
LINE
  5
329
330
1F
100
AcDbEntity
  8
1
  6
CONTINUOUS
 62
     7
100
AcDbLine
 10
109.656660602861
 20
134.813414476092
 30
0.0
 11
109.609536602861
 21
134.920158662138
 31
0.0
  0
LINE
  5
32A
330
1F
100
AcDbEntity
  8
1
  6
CONTINUOUS
 62
     7
100
AcDbLine
 10
109.609536602861
 20
134.920158662138
 30
0.0
 11
109.515288602861
 21
134.991321452836
 31
0.0
  0
LINE
  5
32B
330
1F
100
AcDbEntity
  8
1
  6
CONTINUOUS
 62
     7
100
AcDbLine
 10
109.515288602861
 20
134.991321452836
 30
0.0
 11
109.397478602861
 21
135.026902848185
 31
0.0
  0
LINE
  5
32C
330
1F
100
AcDbEntity
  8
1
  6
CONTINUOUS
 62
     7
100
AcDbLine
 10
109.397478602861
 20
135.026902848185
 30
0.0
 11
109.256106602861
 21
135.003181917952
 31
0.0
  0
LINE
  5
32D
330
1F
100
AcDbEntity
  8
1
  6
CONTINUOUS
 62
     7
100
AcDbLine
 10
109.256106602861
 20
135.003181917952
 30
0.0
 11
109.169712602861
 21
134.932019127255
 31
0.0
  0
LINE
  5
32E
330
1F
100
AcDbEntity
  8
1
  6
CONTINUOUS
 62
     7
100
AcDbLine
 10
109.169712602861
 20
134.932019127255
 30
0.0
 11
109.130442602861
 21
134.837135406325
 31
0.0
  0
LINE
  5
32F
330
1F
100
AcDbEntity
  8
1
  6
CONTINUOUS
 62
     7
100
AcDbLine
 10
109.130442602861
 20
134.837135406325
 30
0.0
 11
109.122588602861
 21
134.742251685394
 31
0.0
  0
LINE
  5
330
330
1F
100
AcDbEntity
  8
1
  6
CONTINUOUS
 62
     7
100
AcDbLine
 10
109.122588602861
 20
134.742251685394
 30
0.0
 11
109.122588602861
 21
134.65922842958
 31
0.0
  0
LINE
  5
331
330
1F
100
AcDbEntity
  8
1
  6
CONTINUOUS
 62
     7
100
AcDbLine
 10
109.122588602861
 20
134.65922842958
 30
0.0
 11
109.146150602861
 21
134.599926103999
 31
0.0
  0
LINE
  5
332
330
1F
100
AcDbEntity
  8
1
  6
CONTINUOUS
 62
     7
100
AcDbLine
 10
109.146150602861
 20
134.599926103999
 30
0.0
 11
109.201128602861
 21
134.540623778418
 31
0.0
  0
LINE
  5
333
330
1F
100
AcDbEntity
  8
1
  6
CONTINUOUS
 62
     7
100
AcDbLine
 10
109.201128602861
 20
134.540623778418
 30
0.0
 11
109.287522602861
 21
134.481321452836
 31
0.0
  0
LINE
  5
334
330
1F
100
AcDbEntity
  8
1
  6
CONTINUOUS
 62
     7
100
AcDbLine
 10
109.287522602861
 20
134.481321452836
 30
0.0
 11
109.468164602861
 21
134.350856336557
 31
0.0
  0
LINE
  5
335
330
1F
100
AcDbEntity
  8
1
  6
CONTINUOUS
 62
     7
100
AcDbLine
 10
109.468164602861
 20
134.350856336557
 30
0.0
 11
109.688076602861
 21
134.208530755162
 31
0.0
  0
LINE
  5
336
330
1F
100
AcDbEntity
  8
1
  6
CONTINUOUS
 62
     7
100
AcDbLine
 10
109.688076602861
 20
134.208530755162
 30
0.0
 11
109.743054602861
 21
134.161088894697
 31
0.0
  0
LINE
  5
337
330
1F
100
AcDbEntity
  8
1
  6
CONTINUOUS
 62
     7
100
AcDbLine
 10
109.743054602861
 20
134.161088894697
 30
0.0
 11
109.798032602861
 21
134.101786569115
 31
0.0
  0
LINE
  5
338
330
1F
100
AcDbEntity
  8
1
  6
CONTINUOUS
 62
     7
100
AcDbLine
 10
109.798032602861
 20
134.101786569115
 30
0.0
 11
109.860864602861
 21
133.95946098772
 31
0.0
  0
LINE
  5
339
330
1F
100
AcDbEntity
  8
1
  6
CONTINUOUS
 62
     7
100
AcDbLine
 10
109.860864602861
 20
133.95946098772
 30
0.0
 11
109.884426602861
 21
133.793414476092
 31
0.0
  0
LINE
  5
33A
330
1F
100
AcDbEntity
  8
1
  6
CONTINUOUS
 62
     7
100
AcDbLine
 10
109.884426602861
 20
133.793414476092
 30
0.0
 11
109.853010602861
 21
133.579926103999
 31
0.0
  0
LINE
  5
33B
330
1F
100
AcDbEntity
  8
1
  6
CONTINUOUS
 62
     7
100
AcDbLine
 10
109.853010602861
 20
133.579926103999
 30
0.0
 11
109.782324602861
 21
133.402019127255
 31
0.0
  0
LINE
  5
33C
330
1F
100
AcDbEntity
  8
1
  6
CONTINUOUS
 62
     7
100
AcDbLine
 10
109.782324602861
 20
133.402019127255
 30
0.0
 11
109.625244602861
 21
133.259693545859
 31
0.0
  0
LINE
  5
33D
330
1F
100
AcDbEntity
  8
1
  6
CONTINUOUS
 62
     7
100
AcDbLine
 10
109.625244602861
 20
133.259693545859
 30
0.0
 11
109.405332602861
 21
133.224112150511
 31
0.0
  0
LINE
  5
33E
330
1F
100
AcDbEntity
  8
1
  6
CONTINUOUS
 62
     7
100
AcDbLine
 10
109.405332602861
 20
133.224112150511
 30
0.0
 11
109.177566602861
 21
133.271554010976
 31
0.0
  0
LINE
  5
33F
330
1F
100
AcDbEntity
  8
1
  6
CONTINUOUS
 62
     7
100
AcDbLine
 10
109.177566602861
 20
133.271554010976
 30
0.0
 11
109.012632602861
 21
133.437600522604
 31
0.0
  0
LINE
  5
340
330
1F
100
AcDbEntity
  8
1
  6
CONTINUOUS
 62
     7
100
AcDbLine
 10
109.012632602861
 20
133.437600522604
 30
0.0
 11
108.934092602861
 21
133.615507499348
 31
0.0
  0
LINE
  5
341
330
1F
100
AcDbEntity
  8
1
  6
CONTINUOUS
 62
     7
100
AcDbLine
 10
108.934092602861
 20
133.615507499348
 30
0.0
 11
108.910530602861
 21
133.876437731906
 31
0.0
  0
LINE
  5
342
330
1F
100
AcDbEntity
  8
1
  6
CONTINUOUS
 62
     7
100
AcDbLine
 10
108.910530602861
 20
133.876437731906
 30
0.0
 11
109.091172602861
 21
133.876437731906
 31
0.0
  0
LINE
  5
343
330
1F
100
AcDbEntity
  8
1
  6
CONTINUOUS
 62
     7
100
AcDbLine
 10
109.091172602861
 20
133.876437731906
 30
0.0
 11
109.099026602861
 21
133.698530755162
 31
0.0
  0
LINE
  5
344
330
1F
100
AcDbEntity
  8
1
  6
CONTINUOUS
 62
     7
100
AcDbLine
 10
109.099026602861
 20
133.698530755162
 30
0.0
 11
109.146150602861
 21
133.579926103999
 31
0.0
  0
LINE
  5
345
330
1F
100
AcDbEntity
  8
1
  6
CONTINUOUS
 62
     7
100
AcDbLine
 10
109.146150602861
 20
133.579926103999
 30
0.0
 11
109.256106602861
 21
133.473181917952
 31
0.0
  0
LINE
  5
346
330
1F
100
AcDbEntity
  8
1
  6
CONTINUOUS
 62
     7
100
AcDbLine
 10
109.256106602861
 20
133.473181917952
 30
0.0
 11
109.413186602861
 21
133.44946098772
 31
0.0
  0
LINE
  5
347
330
1F
100
AcDbEntity
  8
1
  6
CONTINUOUS
 62
     7
100
AcDbLine
 10
109.413186602861
 20
133.44946098772
 30
0.0
 11
109.546704602861
 21
133.473181917952
 31
0.0
  0
LINE
  5
348
330
1F
100
AcDbEntity
  8
1
  6
CONTINUOUS
 62
     7
100
AcDbLine
 10
109.546704602861
 20
133.473181917952
 30
0.0
 11
109.648806602861
 21
133.568065638883
 31
0.0
  0
LINE
  5
349
330
1F
100
AcDbEntity
  8
1
  6
CONTINUOUS
 62
     7
100
AcDbLine
 10
109.648806602861
 20
133.568065638883
 30
0.0
 11
109.695930602861
 21
133.651088894697
 31
0.0
  0
LINE
  5
34A
330
1F
100
AcDbEntity
  8
1
  6
CONTINUOUS
 62
     7
100
AcDbLine
 10
109.695930602861
 20
133.651088894697
 30
0.0
 11
109.711638602861
 21
133.745972615627
 31
0.0
  0
LINE
  5
34B
330
1F
100
AcDbEntity
  8
1
  6
CONTINUOUS
 62
     7
100
AcDbLine
 10
109.711638602861
 20
133.745972615627
 30
0.0
 11
109.695930602861
 21
133.840856336557
 31
0.0
  0
LINE
  5
34C
330
1F
100
AcDbEntity
  8
1
  6
CONTINUOUS
 62
     7
100
AcDbLine
 10
109.695930602861
 20
133.840856336557
 30
0.0
 11
109.664514602861
 21
133.923879592371
 31
0.0
  0
LINE
  5
34D
330
1F
100
AcDbEntity
  8
1
  6
CONTINUOUS
 62
     7
100
AcDbLine
 10
109.664514602861
 20
133.923879592371
 30
0.0
 11
109.609536602861
 21
133.983181917952
 31
0.0
  0
LINE
  5
34E
330
1F
100
AcDbEntity
  8
1
  6
CONTINUOUS
 62
     7
100
AcDbLine
 10
109.609536602861
 20
133.983181917952
 30
0.0
 11
109.538850602861
 21
134.042484243534
 31
0.0
  0
LINE
  5
34F
330
1F
100
AcDbEntity
  8
1
  6
CONTINUOUS
 62
     7
100
AcDbLine
 10
109.538850602861
 20
134.042484243534
 30
0.0
 11
109.444602602861
 21
134.101786569115
 31
0.0
  0
LINE
  5
350
330
1F
100
AcDbEntity
  8
1
  6
CONTINUOUS
 62
     7
100
AcDbLine
 10
109.444602602861
 20
134.101786569115
 30
0.0
 11
109.342500602861
 21
134.184809824929
 31
0.0
  0
LINE
  5
351
330
1F
100
AcDbEntity
  8
1
  6
CONTINUOUS
 62
     7
100
AcDbLine
 10
109.342500602861
 20
134.184809824929
 30
0.0
 11
109.216836602861
 21
134.255972615627
 31
0.0
  0
LINE
  5
352
330
1F
100
AcDbEntity
  8
1
  6
CONTINUOUS
 62
     7
100
AcDbLine
 10
109.216836602861
 20
134.255972615627
 30
0.0
 11
109.122588602861
 21
134.327135406324
 31
0.0
  0
LINE
  5
353
330
1F
100
AcDbEntity
  8
1
  6
CONTINUOUS
 62
     7
100
AcDbLine
 10
109.122588602861
 20
134.327135406324
 30
0.0
 11
109.059756602861
 21
134.362716801673
 31
0.0
  0
LINE
  5
354
330
1F
100
AcDbEntity
  8
1
  6
CONTINUOUS
 62
     7
100
AcDbLine
 10
109.059756602861
 20
134.362716801673
 30
0.0
 11
109.012632602861
 21
134.433879592371
 31
0.0
  0
LINE
  5
355
330
1F
100
AcDbEntity
  8
1
  6
CONTINUOUS
 62
     7
100
AcDbLine
 10
109.012632602861
 20
134.433879592371
 30
0.0
 11
108.957654602861
 21
134.552484243534
 31
0.0
  0
LINE
  5
356
330
1F
100
AcDbEntity
  8
1
  6
CONTINUOUS
 62
     7
100
AcDbLine
 10
108.957654602861
 20
134.552484243534
 30
0.0
 11
108.941946602861
 21
134.706670290045
 31
0.0
  0
LINE
  5
357
330
1F
100
AcDbEntity
  8
1
  6
CONTINUOUS
 62
     7
100
AcDbLine
 10
110.135754602861
 20
135.228530755162
 30
0.0
 11
110.748366602861
 21
135.228530755162
 31
0.0
  0
LINE
  5
358
330
1F
100
AcDbEntity
  8
1
  6
CONTINUOUS
 62
     7
100
AcDbLine
 10
110.748366602861
 20
135.228530755162
 30
0.0
 11
110.897592602861
 21
135.181088894697
 31
0.0
  0
LINE
  5
359
330
1F
100
AcDbEntity
  8
1
  6
CONTINUOUS
 62
     7
100
AcDbLine
 10
110.897592602861
 20
135.181088894697
 30
0.0
 11
111.023256602861
 21
135.07434470865
 31
0.0
  0
LINE
  5
35A
330
1F
100
AcDbEntity
  8
1
  6
CONTINUOUS
 62
     7
100
AcDbLine
 10
111.023256602861
 20
135.07434470865
 30
0.0
 11
111.101796602861
 21
134.872716801673
 31
0.0
  0
LINE
  5
35B
330
1F
100
AcDbEntity
  8
1
  6
CONTINUOUS
 62
     7
100
AcDbLine
 10
111.101796602861
 20
134.872716801673
 30
0.0
 11
111.133212602861
 21
134.623647034231
 31
0.0
  0
LINE
  5
35C
330
1F
100
AcDbEntity
  8
1
  6
CONTINUOUS
 62
     7
100
AcDbLine
 10
111.133212602861
 20
134.623647034231
 30
0.0
 11
111.101796602861
 21
134.362716801673
 31
0.0
  0
LINE
  5
35D
330
1F
100
AcDbEntity
  8
1
  6
CONTINUOUS
 62
     7
100
AcDbLine
 10
111.101796602861
 20
134.362716801673
 30
0.0
 11
111.031110602861
 21
134.184809824929
 31
0.0
  0
LINE
  5
35E
330
1F
100
AcDbEntity
  8
1
  6
CONTINUOUS
 62
     7
100
AcDbLine
 10
111.031110602861
 20
134.184809824929
 30
0.0
 11
110.913300602861
 21
134.042484243534
 31
0.0
  0
LINE
  5
35F
330
1F
100
AcDbEntity
  8
1
  6
CONTINUOUS
 62
     7
100
AcDbLine
 10
110.913300602861
 20
134.042484243534
 30
0.0
 11
110.748366602861
 21
134.006902848185
 31
0.0
  0
LINE
  5
360
330
1F
100
AcDbEntity
  8
1
  6
CONTINUOUS
 62
     7
100
AcDbLine
 10
110.748366602861
 20
134.006902848185
 30
0.0
 11
110.316396602861
 21
134.006902848185
 31
0.0
  0
LINE
  5
361
330
1F
100
AcDbEntity
  8
1
  6
CONTINUOUS
 62
     7
100
AcDbLine
 10
110.316396602861
 20
134.006902848185
 30
0.0
 11
110.316396602861
 21
133.247833080743
 31
0.0
  0
LINE
  5
362
330
1F
100
AcDbEntity
  8
1
  6
CONTINUOUS
 62
     7
100
AcDbLine
 10
110.316396602861
 20
133.247833080743
 30
0.0
 11
110.135754602861
 21
133.247833080743
 31
0.0
  0
LINE
  5
363
330
1F
100
AcDbEntity
  8
1
  6
CONTINUOUS
 62
     7
100
AcDbLine
 10
110.135754602861
 20
133.247833080743
 30
0.0
 11
110.135754602861
 21
135.228530755162
 31
0.0
  0
LINE
  5
364
330
1F
100
AcDbEntity
  8
1
  6
CONTINUOUS
 62
     7
100
AcDbLine
 10
110.316396602861
 20
134.991321452836
 30
0.0
 11
110.316396602861
 21
134.24411215051
 31
0.0
  0
LINE
  5
365
330
1F
100
AcDbEntity
  8
1
  6
CONTINUOUS
 62
     7
100
AcDbLine
 10
110.316396602861
 20
134.24411215051
 30
0.0
 11
110.709096602861
 21
134.24411215051
 31
0.0
  0
LINE
  5
366
330
1F
100
AcDbEntity
  8
1
  6
CONTINUOUS
 62
     7
100
AcDbLine
 10
110.709096602861
 20
134.24411215051
 30
0.0
 11
110.803344602861
 21
134.267833080743
 31
0.0
  0
LINE
  5
367
330
1F
100
AcDbEntity
  8
1
  6
CONTINUOUS
 62
     7
100
AcDbLine
 10
110.803344602861
 20
134.267833080743
 30
0.0
 11
110.881884602861
 21
134.338995871441
 31
0.0
  0
LINE
  5
368
330
1F
100
AcDbEntity
  8
1
  6
CONTINUOUS
 62
     7
100
AcDbLine
 10
110.881884602861
 20
134.338995871441
 30
0.0
 11
110.929008602861
 21
134.457600522604
 31
0.0
  0
LINE
  5
369
330
1F
100
AcDbEntity
  8
1
  6
CONTINUOUS
 62
     7
100
AcDbLine
 10
110.929008602861
 20
134.457600522604
 30
0.0
 11
110.952570602861
 21
134.623647034231
 31
0.0
  0
LINE
  5
36A
330
1F
100
AcDbEntity
  8
1
  6
CONTINUOUS
 62
     7
100
AcDbLine
 10
110.952570602861
 20
134.623647034231
 30
0.0
 11
110.936862602861
 21
134.789693545859
 31
0.0
  0
LINE
  5
36B
330
1F
100
AcDbEntity
  8
1
  6
CONTINUOUS
 62
     7
100
AcDbLine
 10
110.936862602861
 20
134.789693545859
 30
0.0
 11
110.889738602861
 21
134.908298197022
 31
0.0
  0
LINE
  5
36C
330
1F
100
AcDbEntity
  8
1
  6
CONTINUOUS
 62
     7
100
AcDbLine
 10
110.889738602861
 20
134.908298197022
 30
0.0
 11
110.803344602861
 21
134.967600522604
 31
0.0
  0
LINE
  5
36D
330
1F
100
AcDbEntity
  8
1
  6
CONTINUOUS
 62
     7
100
AcDbLine
 10
110.803344602861
 20
134.967600522604
 30
0.0
 11
110.709096602861
 21
134.991321452836
 31
0.0
  0
LINE
  5
36E
330
1F
100
AcDbEntity
  8
1
  6
CONTINUOUS
 62
     7
100
AcDbLine
 10
110.709096602861
 20
134.991321452836
 30
0.0
 11
110.316396602861
 21
134.991321452836
 31
0.0
  0
LINE
  5
36F
330
1F
100
AcDbEntity
  8
1
  6
CONTINUOUS
 62
     7
100
AcDbLine
 10
111.282438602861
 20
133.247833080743
 30
0.0
 11
111.808656602861
 21
135.252251685394
 31
0.0
  0
LINE
  5
370
330
1F
100
AcDbEntity
  8
1
  6
CONTINUOUS
 62
     7
100
AcDbLine
 10
111.808656602861
 20
135.252251685394
 30
0.0
 11
111.957882602861
 21
135.252251685394
 31
0.0
  0
LINE
  5
371
330
1F
100
AcDbEntity
  8
1
  6
CONTINUOUS
 62
     7
100
AcDbLine
 10
111.957882602861
 20
135.252251685394
 30
0.0
 11
112.484100602861
 21
133.247833080743
 31
0.0
  0
LINE
  5
372
330
1F
100
AcDbEntity
  8
1
  6
CONTINUOUS
 62
     7
100
AcDbLine
 10
112.484100602861
 20
133.247833080743
 30
0.0
 11
112.295604602861
 21
133.247833080743
 31
0.0
  0
LINE
  5
373
330
1F
100
AcDbEntity
  8
1
  6
CONTINUOUS
 62
     7
100
AcDbLine
 10
112.295604602861
 20
133.247833080743
 30
0.0
 11
112.138524602861
 21
133.840856336557
 31
0.0
  0
LINE
  5
374
330
1F
100
AcDbEntity
  8
1
  6
CONTINUOUS
 62
     7
100
AcDbLine
 10
112.138524602861
 20
133.840856336557
 30
0.0
 11
111.628014602861
 21
133.840856336557
 31
0.0
  0
LINE
  5
375
330
1F
100
AcDbEntity
  8
1
  6
CONTINUOUS
 62
     7
100
AcDbLine
 10
111.628014602861
 20
133.840856336557
 30
0.0
 11
111.470934602861
 21
133.247833080743
 31
0.0
  0
LINE
  5
376
330
1F
100
AcDbEntity
  8
1
  6
CONTINUOUS
 62
     7
100
AcDbLine
 10
111.470934602861
 20
133.247833080743
 30
0.0
 11
111.282438602861
 21
133.247833080743
 31
0.0
  0
LINE
  5
377
330
1F
100
AcDbEntity
  8
1
  6
CONTINUOUS
 62
     7
100
AcDbLine
 10
111.887196602861
 20
134.872716801673
 30
0.0
 11
111.682992602861
 21
134.078065638883
 31
0.0
  0
LINE
  5
378
330
1F
100
AcDbEntity
  8
1
  6
CONTINUOUS
 62
     7
100
AcDbLine
 10
111.682992602861
 20
134.078065638883
 30
0.0
 11
112.083546602861
 21
134.078065638883
 31
0.0
  0
LINE
  5
379
330
1F
100
AcDbEntity
  8
1
  6
CONTINUOUS
 62
     7
100
AcDbLine
 10
112.083546602861
 20
134.078065638883
 30
0.0
 11
111.887196602861
 21
134.872716801673
 31
0.0
  0
LINE
  5
37A
330
1F
100
AcDbEntity
  8
1
  6
CONTINUOUS
 62
     7
100
AcDbLine
 10
112.680450602861
 20
135.228530755162
 30
0.0
 11
112.876800602861
 21
135.228530755162
 31
0.0
  0
LINE
  5
37B
330
1F
100
AcDbEntity
  8
1
  6
CONTINUOUS
 62
     7
100
AcDbLine
 10
112.876800602861
 20
135.228530755162
 30
0.0
 11
113.481558602861
 21
133.674809824929
 31
0.0
  0
LINE
  5
37C
330
1F
100
AcDbEntity
  8
1
  6
CONTINUOUS
 62
     7
100
AcDbLine
 10
113.481558602861
 20
133.674809824929
 30
0.0
 11
113.481558602861
 21
135.228530755162
 31
0.0
  0
LINE
  5
37D
330
1F
100
AcDbEntity
  8
1
  6
CONTINUOUS
 62
     7
100
AcDbLine
 10
113.481558602861
 20
135.228530755162
 30
0.0
 11
113.662200602861
 21
135.228530755162
 31
0.0
  0
LINE
  5
37E
330
1F
100
AcDbEntity
  8
1
  6
CONTINUOUS
 62
     7
100
AcDbLine
 10
113.662200602861
 20
135.228530755162
 30
0.0
 11
113.662200602861
 21
133.247833080743
 31
0.0
  0
LINE
  5
37F
330
1F
100
AcDbEntity
  8
1
  6
CONTINUOUS
 62
     7
100
AcDbLine
 10
113.662200602861
 20
133.247833080743
 30
0.0
 11
113.473704602861
 21
133.247833080743
 31
0.0
  0
LINE
  5
380
330
1F
100
AcDbEntity
  8
1
  6
CONTINUOUS
 62
     7
100
AcDbLine
 10
113.473704602861
 20
133.247833080743
 30
0.0
 11
112.861092602861
 21
134.813414476092
 31
0.0
  0
LINE
  5
381
330
1F
100
AcDbEntity
  8
1
  6
CONTINUOUS
 62
     7
100
AcDbLine
 10
112.861092602861
 20
134.813414476092
 30
0.0
 11
112.861092602861
 21
133.247833080743
 31
0.0
  0
LINE
  5
382
330
1F
100
AcDbEntity
  8
1
  6
CONTINUOUS
 62
     7
100
AcDbLine
 10
112.861092602861
 20
133.247833080743
 30
0.0
 11
112.680450602861
 21
133.247833080743
 31
0.0
  0
LINE
  5
383
330
1F
100
AcDbEntity
  8
1
  6
CONTINUOUS
 62
     7
100
AcDbLine
 10
112.680450602861
 20
133.247833080743
 30
0.0
 11
112.680450602861
 21
135.228530755162
 31
0.0
  0
LINE
  5
384
330
1F
100
AcDbEntity
  8
1
  6
CONTINUOUS
 62
     7
100
AcDbLine
 10
122.317827338408
 20
139.553291223999
 30
0.0
 11
122.424227338408
 21
139.712360991441
 31
0.0
  0
LINE
  5
385
330
1F
100
AcDbEntity
  8
1
  6
CONTINUOUS
 62
     7
100
AcDbLine
 10
122.424227338408
 20
139.712360991441
 30
0.0
 11
122.469827338408
 21
139.889105177487
 31
0.0
  0
LINE
  5
386
330
1F
100
AcDbEntity
  8
1
  6
CONTINUOUS
 62
     7
100
AcDbLine
 10
122.469827338408
 20
139.889105177487
 30
0.0
 11
122.652227338408
 21
139.889105177487
 31
0.0
  0
LINE
  5
387
330
1F
100
AcDbEntity
  8
1
  6
CONTINUOUS
 62
     7
100
AcDbLine
 10
122.652227338408
 20
139.889105177487
 30
0.0
 11
122.652227338408
 21
136.902128433301
 31
0.0
  0
LINE
  5
388
330
1F
100
AcDbEntity
  8
1
  6
CONTINUOUS
 62
     7
100
AcDbLine
 10
122.652227338408
 20
136.902128433301
 30
0.0
 11
122.302627338408
 21
136.902128433301
 31
0.0
  0
LINE
  5
389
330
1F
100
AcDbEntity
  8
1
  6
CONTINUOUS
 62
     7
100
AcDbLine
 10
122.302627338408
 20
136.902128433301
 30
0.0
 11
122.302627338408
 21
139.182128433301
 31
0.0
  0
LINE
  5
38A
330
1F
100
AcDbEntity
  8
1
  6
CONTINUOUS
 62
     7
100
AcDbLine
 10
122.302627338408
 20
139.182128433301
 30
0.0
 11
121.861827338408
 21
139.182128433301
 31
0.0
  0
LINE
  5
38B
330
1F
100
AcDbEntity
  8
1
  6
CONTINUOUS
 62
     7
100
AcDbLine
 10
121.861827338408
 20
139.182128433301
 30
0.0
 11
121.861827338408
 21
139.411895875162
 31
0.0
  0
LINE
  5
38C
330
1F
100
AcDbEntity
  8
1
  6
CONTINUOUS
 62
     7
100
AcDbLine
 10
121.861827338408
 20
139.411895875162
 30
0.0
 11
121.998627338408
 21
139.411895875162
 31
0.0
  0
LINE
  5
38D
330
1F
100
AcDbEntity
  8
1
  6
CONTINUOUS
 62
     7
100
AcDbLine
 10
121.998627338408
 20
139.411895875162
 30
0.0
 11
122.165827338408
 21
139.447244712371
 31
0.0
  0
LINE
  5
38E
330
1F
100
AcDbEntity
  8
1
  6
CONTINUOUS
 62
     7
100
AcDbLine
 10
122.165827338408
 20
139.447244712371
 30
0.0
 11
122.317827338408
 21
139.553291223999
 31
0.0
  0
ARC
  5
38F
330
1F
100
AcDbEntity
  8
0
  6
CONTINUOUS
 62
     7
100
AcDbCircle
 10
112.0726684477946
 20
207.7720508970269
 30
0.0
 40
0.2423076923076222
100
AcDbArc
 50
301.00271913389
 51
238.9972808661101
  0
ARC
  5
390
330
1F
100
AcDbEntity
  8
0
  6
CONTINUOUS
 62
     7
100
AcDbCircle
 10
115.1617787607435
 20
206.595127820104
 30
0.0
 40
0.3461538461539249
100
AcDbArc
 50
165.0000000000222
 51
270.0
  0
ARC
  5
391
330
1F
100
AcDbEntity
  8
0
  6
CONTINUOUS
 62
     7
100
AcDbCircle
 10
110.9330737469146
 20
206.595127820104
 30
0.0
 40
0.3461538461539249
100
AcDbArc
 50
165.0000000000222
 51
269.1163180996141
  0
ARC
  5
392
330
1F
100
AcDbEntity
  8
0
  6
CONTINUOUS
 62
     7
100
AcDbCircle
 10
116.446409513176
 20
206.9758970508732
 30
0.0
 40
0.1038461538461206
100
AcDbArc
 50
90.0
 51
165.0000000000257
  0
ARC
  5
393
330
1F
100
AcDbEntity
  8
0
  6
CONTINUOUS
 62
     7
100
AcDbCircle
 10
116.5475980914526
 20
206.9758970508732
 30
0.0
 40
0.1038461538462566
100
AcDbArc
 50
14.99999999997427
 51
90.0
  0
ARC
  5
394
330
1F
100
AcDbEntity
  8
0
  6
CONTINUOUS
 62
     7
100
AcDbCircle
 10
116.5395871013449
 20
206.8720508970269
 30
0.0
 40
0.1384615384613994
100
AcDbArc
 50
270.0
 51
15.00000000004157
  0
ARC
  5
395
330
1F
100
AcDbEntity
  8
0
  6
CONTINUOUS
 62
     7
100
AcDbCircle
 10
116.4544205032839
 20
206.8720508970269
 30
0.0
 40
0.1384615384615445
100
AcDbArc
 50
164.9999999999706
 51
270.0
  0
ARC
  5
396
330
1F
100
AcDbEntity
  8
0
  6
CONTINUOUS
 62
     7
100
AcDbCircle
 10
108.8385357429523
 20
206.8028201277964
 30
0.0
 40
0.0692307692308987
100
AcDbArc
 50
270.0
 51
49.07232707800213
  0
ARC
  5
397
330
1F
100
AcDbEntity
  8
0
  6
CONTINUOUS
 62
     7
100
AcDbCircle
 10
108.4346333191156
 20
207.7028201277961
 30
0.0
 40
0.3461538461539249
100
AcDbArc
 50
90.0
 51
229.0723270780596
  0
ARC
  5
398
330
1F
100
AcDbEntity
  8
0
  6
CONTINUOUS
 62
     7
100
AcDbCircle
 10
109.606895643581
 20
206.6643585893347
 30
0.0
 40
1.384615384615327
100
AcDbArc
 50
64.15806723683234
 51
90.0
  0
ARC
  5
399
330
1F
100
AcDbEntity
  8
0
  6
CONTINUOUS
 62
     7
100
AcDbCircle
 10
110.8850078062672
 20
207.218204743181
 30
0.0
 40
0.3461538461538803
100
AcDbArc
 50
344.9999999999861
 51
165.0000000000309
  0
ARC
  5
39A
330
1F
100
AcDbEntity
  8
0
  6
CONTINUOUS
 62
     7
100
AcDbCircle
 10
111.293966927086
 20
206.8720508970269
 30
0.0
 40
0.1384615384617367
100
AcDbArc
 50
164.9999999999919
 51
270.0
  0
ARC
  5
39B
330
1F
100
AcDbEntity
  8
0
  6
CONTINUOUS
 62
     7
100
AcDbCircle
 10
111.3841902221288
 20
206.9412816662577
 30
0.0
 40
0.2076923076922128
100
AcDbArc
 50
270.0
 51
344.9999999999969
  0
ARC
  5
39C
330
1F
100
AcDbEntity
  8
0
  6
CONTINUOUS
 62
     7
100
AcDbCircle
 10
112.2257154894549
 20
206.8720508970269
 30
0.0
 40
0.1384615384614484
100
AcDbArc
 50
164.99999999996
 51
270.0865868057829
  0
ARC
  5
39D
330
1F
100
AcDbEntity
  8
0
  6
CONTINUOUS
 62
     7
100
AcDbCircle
 10
112.3159387844979
 20
206.9412816662577
 30
0.0
 40
0.2076923076922128
100
AcDbArc
 50
270.0
 51
344.9999999999817
  0
ARC
  5
39E
330
1F
100
AcDbEntity
  8
0
  6
CONTINUOUS
 62
     7
100
AcDbCircle
 10
113.4652345943663
 20
207.218204743181
 30
0.0
 40
0.3461538461536882
100
AcDbArc
 50
344.9999999999775
 51
165.0000000000352
  0
ARC
  5
39F
330
1F
100
AcDbEntity
  8
0
  6
CONTINUOUS
 62
     7
100
AcDbCircle
 10
113.874193715185
 20
206.8720508970269
 30
0.0
 40
0.1384615384616406
100
AcDbArc
 50
164.9999999999813
 51
270.0
  0
ARC
  5
3A0
330
1F
100
AcDbEntity
  8
0
  6
CONTINUOUS
 62
     7
100
AcDbCircle
 10
113.9644170102277
 20
206.9412816662577
 30
0.0
 40
0.2076923076922128
100
AcDbArc
 50
270.0
 51
345.000000000003
  0
ARC
  5
3A1
330
1F
100
AcDbEntity
  8
0
  6
CONTINUOUS
 62
     7
100
AcDbCircle
 10
115.1668354577254
 20
207.1489739739501
 30
0.0
 40
0.4153846153847133
100
AcDbArc
 50
314.4153085972062
 51
165.0000000000118
  0
ARC
  5
3A2
330
1F
100
AcDbEntity
  8
0
  6
CONTINUOUS
 62
     7
100
AcDbCircle
 10
115.5059955759569
 20
206.8028201277964
 30
0.0
 40
0.0692307692305563
100
AcDbArc
 50
134.4153085971919
 51
270.0
  0
ARC
  5
3A3
330
1F
100
AcDbEntity
  8
0
  6
CONTINUOUS
 62
     7
100
AcDbCircle
 10
115.6128952359578
 20
206.9412816662577
 30
0.0
 40
0.2076923076922128
100
AcDbArc
 50
270.0
 51
344.9999999999817
  0
ARC
  5
3A4
330
1F
100
AcDbEntity
  8
0
  6
CONTINUOUS
 62
     7
100
AcDbCircle
 10
116.3401642379175
 20
207.1143585893346
 30
0.0
 40
0.4500000000000739
100
AcDbArc
 50
90.0
 51
165.0000000000125
  0
ARC
  5
3A5
330
1F
100
AcDbEntity
  8
0
  6
CONTINUOUS
 62
     7
100
AcDbCircle
 10
116.6538433667114
 20
207.1143585893346
 30
0.0
 40
0.4499999999999154
100
AcDbArc
 50
14.99999999999735
 51
90.0
  0
ARC
  5
3A6
330
1F
100
AcDbEntity
  8
0
  6
CONTINUOUS
 62
     7
100
AcDbCircle
 10
116.8553686339948
 20
206.6297432047195
 30
0.0
 40
0.3807692307694879
100
AcDbArc
 50
270.0
 51
14.99999999996947
  0
ARC
  5
3A7
330
1F
100
AcDbEntity
  8
0
  6
CONTINUOUS
 62
     7
100
AcDbCircle
 10
115.9700143653453
 20
206.7335893585655
 30
0.0
 40
0.484615384615362
100
AcDbArc
 50
231.7867892982763
 51
270.0
  0
ARC
  5
3A8
330
1F
100
AcDbEntity
  8
0
  6
CONTINUOUS
 62
     7
100
AcDbCircle
 10
115.3704583165714
 20
206.7335893585655
 30
0.0
 40
0.4846153846154948
100
AcDbArc
 50
270.0
 51
308.2132107017501
  0
ARC
  5
3A9
330
1F
100
AcDbEntity
  8
0
  6
CONTINUOUS
 62
     7
100
AcDbCircle
 10
114.8961655725969
 20
206.9412816662577
 30
0.0
 40
0.1384615384615464
100
AcDbArc
 50
265.45076085685
 51
90.0
  0
ARC
  5
3AA
330
1F
100
AcDbEntity
  8
0
  6
CONTINUOUS
 62
     7
100
AcDbCircle
 10
114.8776152438901
 20
206.8720508970269
 30
0.0
 40
0.2076923076924118
100
AcDbArc
 50
90.0
 51
164.9999999999661
  0
ARC
  5
3AB
330
1F
100
AcDbEntity
  8
0
  6
CONTINUOUS
 62
     7
100
AcDbCircle
 10
113.7219800908416
 20
206.7335893585655
 30
0.0
 40
0.4846153846154948
100
AcDbArc
 50
270.0
 51
308.2132107017316
  0
ARC
  5
3AC
330
1F
100
AcDbEntity
  8
0
  6
CONTINUOUS
 62
     7
100
AcDbCircle
 10
113.5133005350136
 20
206.595127820104
 30
0.0
 40
0.3461538461539249
100
AcDbArc
 50
165.0000000000222
 51
270.0
  0
ARC
  5
3AD
330
1F
100
AcDbEntity
  8
0
  6
CONTINUOUS
 62
     7
100
AcDbCircle
 10
113.1528504314646
 20
206.9885762073859
 30
0.0
 40
0.1038461538459684
100
AcDbArc
 50
344.9999999999831
 51
61.39059877895617
  0
ARC
  5
3AE
330
1F
100
AcDbEntity
  8
0
  6
CONTINUOUS
 62
     7
100
AcDbCircle
 10
113.2025756993455
 20
206.9066662816424
 30
0.0
 40
0.1730769230769056
100
AcDbArc
 50
90.0
 51
164.9999999999812
  0
ARC
  5
3AF
330
1F
100
AcDbEntity
  8
0
  6
CONTINUOUS
 62
     7
100
AcDbCircle
 10
112.0735018651118
 20
206.7335893585655
 30
0.0
 40
0.4846153846154948
100
AcDbArc
 50
270.0
 51
308.2132107017237
  0
ARC
  5
3B0
330
1F
100
AcDbEntity
  8
0
  6
CONTINUOUS
 62
     7
100
AcDbCircle
 10
111.7413093515164
 20
206.7335893585655
 30
0.0
 40
0.484615384615362
100
AcDbArc
 50
231.7867892982763
 51
270.0
  0
ARC
  5
3B1
330
1F
100
AcDbEntity
  8
0
  6
CONTINUOUS
 62
     7
100
AcDbCircle
 10
111.1417533027426
 20
206.7335893585655
 30
0.0
 40
0.4846153846154948
100
AcDbArc
 50
270.0
 51
308.2132107017408
  0
ARC
  5
3B2
330
1F
100
AcDbEntity
  8
0
  6
CONTINUOUS
 62
     7
100
AcDbCircle
 10
110.5692262736172
 20
206.9758970508732
 30
0.0
 40
0.1038461538461311
100
AcDbArc
 50
345.0000000000721
 51
164.9999999999973
  0
ARC
  5
3B3
330
1F
100
AcDbEntity
  8
0
  6
CONTINUOUS
 62
     7
100
AcDbCircle
 10
109.606895643581
 20
206.6643585893347
 30
0.0
 40
0.8999999999999353
100
AcDbArc
 50
58.17886729790602
 51
90.0
  0
ARC
  5
3B4
330
1F
100
AcDbEntity
  8
0
  6
CONTINUOUS
 62
     7
100
AcDbCircle
 10
108.8806930973479
 20
207.4951278201039
 30
0.0
 40
0.069230769230785
100
AcDbArc
 50
90.0
 51
229.0723270780643
  0
ARC
  5
3B5
330
1F
100
AcDbEntity
  8
0
  6
CONTINUOUS
 62
     7
100
AcDbCircle
 10
109.2845955211845
 20
206.595127820104
 30
0.0
 40
0.3461538461540101
100
AcDbArc
 50
270.0
 51
49.07232707806885
  0
ARC
  5
3B6
330
1F
100
AcDbEntity
  8
1
  6
CONTINUOUS
 62
     7
100
AcDbCircle
 10
113.186711478893
 20
138.7989743092
 30
0.0
 40
0.5
100
AcDbArc
 50
0.0
 51
90.0
  0
ARC
  5
3B7
330
1F
100
AcDbEntity
  8
1
  6
CONTINUOUS
 62
     7
100
AcDbCircle
 10
113.186711478893
 20
137.1989743092
 30
0.0
 40
0.5
100
AcDbArc
 50
270.0
 51
0.0
  0
ARC
  5
3B8
330
1F
100
AcDbEntity
  8
1
  6
CONTINUOUS
 62
     7
100
AcDbCircle
 10
109.386711478893
 20
138.7989743092
 30
0.0
 40
0.5
100
AcDbArc
 50
90.0
 51
180.0
  0
ARC
  5
3B9
330
1F
100
AcDbEntity
  8
1
  6
CONTINUOUS
 62
     7
100
AcDbCircle
 10
109.386711478893
 20
137.1989743092
 30
0.0
 40
0.5
100
AcDbArc
 50
180.0
 51
270.0
  0
ARC
  5
3BA
330
1F
100
AcDbEntity
  8
1
  6
CONTINUOUS
 62
     7
100
AcDbCircle
 10
118.036711363393
 20
134.44897445445
 30
0.0
 40
3.800000000000007
100
AcDbArc
 50
87.25669033595759
 51
238.8961574620615
  0
ARC
  5
3BB
330
1F
100
AcDbEntity
  8
1
  6
CONTINUOUS
 62
     7
100
AcDbCircle
 10
117.836711363394
 20
134.24897445445
 30
0.0
 40
3.199999999999381
100
AcDbArc
 50
65.000003523564
 51
239.9999999999828
  0
ARC
  5
3BC
330
1F
100
AcDbEntity
  8
1
  6
CONTINUOUS
 62
     7
100
AcDbCircle
 10
118.036711363393
 20
141.9489742868
 30
0.0
 40
3.800000000000007
100
AcDbArc
 50
87.25669033595759
 51
238.8961574620615
  0
ARC
  5
3BD
330
1F
100
AcDbEntity
  8
1
  6
CONTINUOUS
 62
     7
100
AcDbCircle
 10
117.836711363394
 20
141.7489742868
 30
0.0
 40
3.199999999999381
100
AcDbArc
 50
65.000003523564
 51
239.9999999999828
  0
ARC
  5
3BE
330
1F
100
AcDbEntity
  8
1
  6
CONTINUOUS
 62
     7
100
AcDbCircle
 10
121.736712208993
 20
144.79897426525
 30
0.0
 40
0.5
100
AcDbArc
 50
0.0
 51
90.0
  0
ARC
  5
3BF
330
1F
100
AcDbEntity
  8
1
  6
CONTINUOUS
 62
     7
100
AcDbCircle
 10
121.736712208993
 20
144.79897426525
 30
0.0
 40
0.7999999999999972
100
AcDbArc
 50
0.0
 51
90.0
  0
ARC
  5
3C0
330
1F
100
AcDbEntity
  8
1
  6
CONTINUOUS
 62
     7
100
AcDbCircle
 10
121.736712208993
 20
131.99897435315
 30
0.0
 40
0.8000000000000114
100
AcDbArc
 50
270.0
 51
0.0
  0
ARC
  5
3C1
330
1F
100
AcDbEntity
  8
1
  6
CONTINUOUS
 62
     7
100
AcDbCircle
 10
121.736712208993
 20
131.99897435315
 30
0.0
 40
0.5
100
AcDbArc
 50
270.0
 51
0.0
  0
ARC
  5
3C2
330
1F
100
AcDbEntity
  8
0
  6
CONTINUOUS
 62
     7
100
AcDbCircle
 10
217.7893533801
 20
210.2489739739
 30
0.0
 40
0.5000000000001331
100
AcDbArc
 50
5.00000000001808
 51
90.0
  0
ARC
  5
3C3
330
1F
100
AcDbEntity
  8
0
  6
CONTINUOUS
 62
     7
100
AcDbCircle
 10
232.3962496951
 20
126.2489739739
 30
0.0
 40
0.5
100
AcDbArc
 50
270.0
 51
270.8639705361873
  0
ARC
  5
3C4
330
1F
100
AcDbEntity
  8
0
  6
CONTINUOUS
 62
     7
100
AcDbCircle
 10
232.3962496951
 20
208.5489739739
 30
0.0
 40
0.5000000000000207
100
AcDbArc
 50
89.13602946381269
 51
90.0
  0
ARC
  5
3C5
330
1F
100
AcDbEntity
  8
0
  6
CONTINUOUS
 62
     7
100
AcDbCircle
 10
232.3962496951
 20
126.2489739739
 30
0.0
 40
0.5000000000000209
100
AcDbArc
 50
359.136029463811
 51
0.0
  0
ARC
  5
3C6
330
1F
100
AcDbEntity
  8
0
  6
CONTINUOUS
 62
     7
100
AcDbCircle
 10
232.3962496951
 20
208.5489739739
 30
0.0
 40
0.5
100
AcDbArc
 50
0.0
 51
0.86397053619058
  0
ARC
  5
3C7
330
1F
100
AcDbEntity
  8
0
  6
CONTINUOUS
 62
     7
100
AcDbCircle
 10
232.3962496951
 20
126.2489739739
 30
0.0
 40
0.5000000000000207
100
AcDbArc
 50
270.8639705361873
 51
359.136029463811
  0
ARC
  5
3C8
330
1F
100
AcDbEntity
  8
0
  6
CONTINUOUS
 62
     7
100
AcDbCircle
 10
232.3962496951
 20
208.5489739739
 30
0.0
 40
0.500000000000021
100
AcDbArc
 50
0.86397053619058
 51
89.13602946381269
  0
ARC
  5
3C9
330
1F
100
AcDbEntity
  8
0
  6
CONTINUOUS
 62
     7
100
AcDbCircle
 10
183.2462496951
 20
130.2489739739
 30
0.0
 40
1.299999999999983
100
AcDbArc
 50
90.0
 51
270.0
  0
ARC
  5
3CA
330
1F
100
AcDbEntity
  8
0
  6
CONTINUOUS
 62
     7
100
AcDbCircle
 10
189.2462496951
 20
130.2489739739
 30
0.0
 40
1.300000000000011
100
AcDbArc
 50
270.0
 51
90.0
  0
ARC
  5
3CB
330
1F
100
AcDbEntity
  8
0
  6
CONTINUOUS
 62
     7
100
AcDbCircle
 10
223.8962496951
 20
209.7489739739
 30
0.0
 40
0.2999999999999829
100
AcDbArc
 50
90.0
 51
180.0
  0
ARC
  5
3CC
330
1F
100
AcDbEntity
  8
0
  6
CONTINUOUS
 62
     7
100
AcDbCircle
 10
232.2962496951
 20
209.7489739739
 30
0.0
 40
0.3000000000000114
100
AcDbArc
 50
0.0
 51
90.0
  0
ARC
  5
3CD
330
1F
100
AcDbEntity
  8
0
  6
CONTINUOUS
 62
     7
100
AcDbCircle
 10
218.8962496951
 20
209.7489739739
 30
0.0
 40
0.2999999999999829
100
AcDbArc
 50
90.0
 51
180.0
  0
ARC
  5
3CE
330
1F
100
AcDbEntity
  8
0
  6
CONTINUOUS
 62
     7
100
AcDbCircle
 10
159.2143052506
 20
169.2489739739
 30
0.0
 40
6.318055555556101
100
AcDbArc
 50
149.0427236691981
 51
210.9572763308021
  0
ARC
  5
3CF
330
1F
100
AcDbEntity
  8
0
  6
CONTINUOUS
 62
     7
100
AcDbCircle
 10
116.186711478893
 20
169.2489739739
 30
0.0
 40
3.999999999999858
100
AcDbArc
 50
28.32877405140112
 51
29.37598985249281
  0
ARC
  5
3D0
330
1F
100
AcDbEntity
  8
0
  6
CONTINUOUS
 62
     7
100
AcDbCircle
 10
116.186711478893
 20
169.2489739739
 30
0.0
 40
3.99999999999997
100
AcDbArc
 50
40.32877405140218
 51
41.37598985249321
  0
ARC
  5
3D1
330
1F
100
AcDbEntity
  8
0
  6
CONTINUOUS
 62
     7
100
AcDbCircle
 10
116.186711478893
 20
169.2489739739
 30
0.0
 40
4.000000000000222
100
AcDbArc
 50
52.3287740514048
 51
53.37598985250325
  0
ARC
  5
3D2
330
1F
100
AcDbEntity
  8
0
  6
CONTINUOUS
 62
     7
100
AcDbCircle
 10
116.186711478893
 20
169.2489739739
 30
0.0
 40
4.000000000000135
100
AcDbArc
 50
64.32877405140295
 51
65.37598985249822
  0
ARC
  5
3D3
330
1F
100
AcDbEntity
  8
0
  6
CONTINUOUS
 62
     7
100
AcDbCircle
 10
116.186711478893
 20
169.2489739739
 30
0.0
 40
4.000000000000011
100
AcDbArc
 50
76.32877405139928
 51
77.37598985250015
  0
ARC
  5
3D4
330
1F
100
AcDbEntity
  8
0
  6
CONTINUOUS
 62
     7
100
AcDbCircle
 10
116.186711478893
 20
169.2489739739
 30
0.0
 40
3.999999999999661
100
AcDbArc
 50
88.32877405139871
 51
89.37598985249532
  0
ARC
  5
3D5
330
1F
100
AcDbEntity
  8
0
  6
CONTINUOUS
 62
     7
100
AcDbCircle
 10
116.186711478893
 20
169.2489739739
 30
0.0
 40
4.000000000000151
100
AcDbArc
 50
100.3287740514034
 51
101.3759898525029
  0
ARC
  5
3D6
330
1F
100
AcDbEntity
  8
0
  6
CONTINUOUS
 62
     7
100
AcDbCircle
 10
116.186711478893
 20
169.2489739739
 30
0.0
 40
3.999999999999861
100
AcDbArc
 50
112.3287740513942
 51
113.3759898525042
  0
ARC
  5
3D7
330
1F
100
AcDbEntity
  8
0
  6
CONTINUOUS
 62
     7
100
AcDbCircle
 10
116.186711478893
 20
169.2489739739
 30
0.0
 40
3.999999999999868
100
AcDbArc
 50
124.3287740514037
 51
125.3759898524858
  0
ARC
  5
3D8
330
1F
100
AcDbEntity
  8
0
  6
CONTINUOUS
 62
     7
100
AcDbCircle
 10
116.186711478893
 20
169.2489739739
 30
0.0
 40
4.000000000000185
100
AcDbArc
 50
136.3287740513919
 51
137.3759898525006
  0
ARC
  5
3D9
330
1F
100
AcDbEntity
  8
0
  6
CONTINUOUS
 62
     7
100
AcDbCircle
 10
116.186711478893
 20
169.2489739739
 30
0.0
 40
3.999999999999599
100
AcDbArc
 50
148.3287740514027
 51
149.3759898524933
  0
ARC
  5
3DA
330
1F
100
AcDbEntity
  8
0
  6
CONTINUOUS
 62
     7
100
AcDbCircle
 10
116.186711478893
 20
169.2489739739
 30
0.0
 40
4.000000000000137
100
AcDbArc
 50
160.3287740514006
 51
161.3759898524966
  0
ARC
  5
3DB
330
1F
100
AcDbEntity
  8
0
  6
CONTINUOUS
 62
     7
100
AcDbCircle
 10
116.186711478893
 20
169.2489739739
 30
0.0
 40
4.000000000000385
100
AcDbArc
 50
172.3287740514063
 51
173.3759898525044
  0
ARC
  5
3DC
330
1F
100
AcDbEntity
  8
0
  6
CONTINUOUS
 62
     7
100
AcDbCircle
 10
116.186711478893
 20
169.2489739739
 30
0.0
 40
4.000000000000048
100
AcDbArc
 50
184.328774051407
 51
185.3759898524968
  0
ARC
  5
3DD
330
1F
100
AcDbEntity
  8
0
  6
CONTINUOUS
 62
     7
100
AcDbCircle
 10
116.186711478893
 20
169.2489739739
 30
0.0
 40
3.999999999999941
100
AcDbArc
 50
196.3287740514075
 51
197.375989852501
  0
ARC
  5
3DE
330
1F
100
AcDbEntity
  8
0
  6
CONTINUOUS
 62
     7
100
AcDbCircle
 10
116.186711478893
 20
169.2489739739
 30
0.0
 40
3.999999999999871
100
AcDbArc
 50
208.3287740514015
 51
209.3759898524928
  0
ARC
  5
3DF
330
1F
100
AcDbEntity
  8
0
  6
CONTINUOUS
 62
     7
100
AcDbCircle
 10
116.186711478893
 20
169.2489739739
 30
0.0
 40
3.99999999999997
100
AcDbArc
 50
220.3287740514021
 51
221.375989852503
  0
ARC
  5
3E0
330
1F
100
AcDbEntity
  8
0
  6
CONTINUOUS
 62
     7
100
AcDbCircle
 10
116.186711478893
 20
169.2489739739
 30
0.0
 40
4.000000000000244
100
AcDbArc
 50
232.328774051405
 51
233.3759898525035
  0
ARC
  5
3E1
330
1F
100
AcDbEntity
  8
0
  6
CONTINUOUS
 62
     7
100
AcDbCircle
 10
116.186711478893
 20
169.2489739739
 30
0.0
 40
4.000000000000161
100
AcDbArc
 50
244.3287740514031
 51
245.3759898524982
  0
ARC
  5
3E2
330
1F
100
AcDbEntity
  8
0
  6
CONTINUOUS
 62
     7
100
AcDbCircle
 10
116.186711478893
 20
169.2489739739
 30
0.0
 40
4.000000000000038
100
AcDbArc
 50
256.3287740513994
 51
257.3759898525003
  0
ARC
  5
3E3
330
1F
100
AcDbEntity
  8
0
  6
CONTINUOUS
 62
     7
100
AcDbCircle
 10
116.186711478893
 20
169.2489739739
 30
0.0
 40
3.999999999999661
100
AcDbArc
 50
268.3287740513987
 51
269.3759898524951
  0
ARC
  5
3E4
330
1F
100
AcDbEntity
  8
0
  6
CONTINUOUS
 62
     7
100
AcDbCircle
 10
116.186711478893
 20
169.2489739739
 30
0.0
 40
4.000000000000151
100
AcDbArc
 50
280.3287740514034
 51
281.3759898525029
  0
ARC
  5
3E5
330
1F
100
AcDbEntity
  8
0
  6
CONTINUOUS
 62
     7
100
AcDbCircle
 10
116.186711478893
 20
169.2489739739
 30
0.0
 40
3.999999999999856
100
AcDbArc
 50
292.3287740513941
 51
293.3759898525041
  0
ARC
  5
3E6
330
1F
100
AcDbEntity
  8
0
  6
CONTINUOUS
 62
     7
100
AcDbCircle
 10
116.186711478893
 20
169.2489739739
 30
0.0
 40
3.999999999999868
100
AcDbArc
 50
304.3287740514036
 51
305.3759898524974
  0
ARC
  5
3E7
330
1F
100
AcDbEntity
  8
0
  6
CONTINUOUS
 62
     7
100
AcDbCircle
 10
116.186711478893
 20
169.2489739739
 30
0.0
 40
3.999999999999498
100
AcDbArc
 50
316.3287740514023
 51
317.3759898525111
  0
ARC
  5
3E8
330
1F
100
AcDbEntity
  8
0
  6
CONTINUOUS
 62
     7
100
AcDbCircle
 10
116.186711478893
 20
169.2489739739
 30
0.0
 40
3.999999999999614
100
AcDbArc
 50
328.3287740514024
 51
329.3759898525005
  0
ARC
  5
3E9
330
1F
100
AcDbEntity
  8
0
  6
CONTINUOUS
 62
     7
100
AcDbCircle
 10
116.186711478893
 20
169.2489739739
 30
0.0
 40
4.000000000000137
100
AcDbArc
 50
340.3287740514006
 51
341.3759898525007
  0
ARC
  5
3EA
330
1F
100
AcDbEntity
  8
0
  6
CONTINUOUS
 62
     7
100
AcDbCircle
 10
116.186711478893
 20
169.2489739739
 30
0.0
 40
4.000000000000389
100
AcDbArc
 50
352.3287740514059
 51
353.3759898525056
  0
ARC
  5
3EB
330
1F
100
AcDbEntity
  8
0
  6
CONTINUOUS
 62
     7
100
AcDbCircle
 10
116.186711478893
 20
169.2489739739
 30
0.0
 40
4.000000000000045
100
AcDbArc
 50
4.32877405140663
 51
5.37598985249686
  0
ARC
  5
3EC
330
1F
100
AcDbEntity
  8
0
  6
CONTINUOUS
 62
     7
100
AcDbCircle
 10
116.186711478893
 20
169.2489739739
 30
0.0
 40
3.999999999999933
100
AcDbArc
 50
16.32877405140712
 51
17.37598985249681
  0
ARC
  5
3ED
330
1F
100
AcDbEntity
  8
1
  6
CONTINUOUS
 62
     7
100
AcDbCircle
 10
125.086712208993
 20
209.8989754342
 30
0.0
 40
0.6999999999999886
100
AcDbArc
 50
0.0
 51
90.0
  0
ARC
  5
3EE
330
1F
100
AcDbEntity
  8
1
  6
CONTINUOUS
 62
     7
100
AcDbCircle
 10
125.086712208993
 20
209.8989754342
 30
0.0
 40
0.2999999999999972
100
AcDbArc
 50
0.0
 51
90.0
  0
ARC
  5
3EF
330
1F
100
AcDbEntity
  8
1
  6
CONTINUOUS
 62
     7
100
AcDbCircle
 10
125.086712208993
 20
126.5989725136
 30
0.0
 40
0.7000000000000028
100
AcDbArc
 50
270.0
 51
0.0
  0
ARC
  5
3F0
330
1F
100
AcDbEntity
  8
1
  6
CONTINUOUS
 62
     7
100
AcDbCircle
 10
125.086712208993
 20
126.5989725136
 30
0.0
 40
0.2999999999999972
100
AcDbArc
 50
270.0
 51
0.0
  0
ARC
  5
3F1
330
1F
100
AcDbEntity
  8
1
  6
CONTINUOUS
 62
     7
100
AcDbCircle
 10
107.286711526393
 20
126.5989725136
 30
0.0
 40
0.6999999999990081
100
AcDbArc
 50
180.0
 51
270.0
  0
ARC
  5
3F2
330
1F
100
AcDbEntity
  8
1
  6
CONTINUOUS
 62
     7
100
AcDbCircle
 10
107.286711526393
 20
126.5989725136
 30
0.0
 40
0.3000000000000114
100
AcDbArc
 50
180.0
 51
270.0
  0
ARC
  5
3F3
330
1F
100
AcDbEntity
  8
1
  6
CONTINUOUS
 62
     7
100
AcDbCircle
 10
107.286711526393
 20
209.8989754342
 30
0.0
 40
0.3000000000000114
100
AcDbArc
 50
90.0
 51
180.0
  0
ARC
  5
3F4
330
1F
100
AcDbEntity
  8
1
  6
CONTINUOUS
 62
     7
100
AcDbCircle
 10
107.286711526393
 20
209.8989754342
 30
0.0
 40
0.700000000000017
100
AcDbArc
 50
90.0
 51
180.0
  0
ARC
  5
3F5
330
1F
100
AcDbEntity
  8
1
  6
CONTINUOUS
 62
     7
100
AcDbCircle
 10
125.486712208993
 20
126.1989725136
 30
0.0
 40
0.7000000000000028
100
AcDbArc
 50
270.0
 51
0.0
  0
ARC
  5
3F6
330
1F
100
AcDbEntity
  8
1
  6
CONTINUOUS
 62
     7
100
AcDbCircle
 10
106.886711526393
 20
126.1989725136
 30
0.0
 40
0.7000000000000028
100
AcDbArc
 50
180.0
 51
270.0
  0
ARC
  5
3F7
330
1F
100
AcDbEntity
  8
1
  6
CONTINUOUS
 62
     7
100
AcDbCircle
 10
106.886711526393
 20
210.2989754342
 30
0.0
 40
0.6999999999999886
100
AcDbArc
 50
90.0
 51
180.0
  0
ARC
  5
3F8
330
1F
100
AcDbEntity
  8
1
  6
CONTINUOUS
 62
     7
100
AcDbCircle
 10
125.486712208993
 20
210.2989754342
 30
0.0
 40
0.7000000000000028
100
AcDbArc
 50
0.0
 51
90.0
  0
ARC
  5
3F9
330
1F
100
AcDbEntity
  8
0
  6
DOTTED
 62
     7
100
AcDbCircle
 10
260.6962683037
 20
188.88880720174
 30
0.0
 40
0.8000000119001114
100
AcDbArc
 50
179.9999640277765
 51
269.9999460417004
  0
ARC
  5
3FA
330
1F
100
AcDbEntity
  8
0
  6
DOTTED
 62
     7
100
AcDbCircle
 10
260.6962683037
 20
162.28880109814
 30
0.0
 40
0.80000001190005
100
AcDbArc
 50
89.99998201392181
 51
179.9999640277765
  0
ARC
  5
3FB
330
1F
100
AcDbEntity
  8
0
  6
DOTTED
 62
     7
100
AcDbCircle
 10
266.3962499931
 20
162.88880720174
 30
0.0
 40
0.80000001190005
100
AcDbArc
 50
270.0000179860741
 51
0.0
  0
ARC
  5
3FC
330
1F
100
AcDbEntity
  8
0
  6
DOTTED
 62
     7
100
AcDbCircle
 10
265.3962499931
 20
163.88880720174
 30
0.0
 40
0.80000001190005
100
AcDbArc
 50
270.0000179860741
 51
0.0
  0
ARC
  5
3FD
330
1F
100
AcDbEntity
  8
0
  6
DOTTED
 62
     7
100
AcDbCircle
 10
261.6962683037
 20
161.28880109814
 30
0.0
 40
0.80000001190005
100
AcDbArc
 50
89.99998201392181
 51
179.9999640277765
  0
ARC
  5
3FE
330
1F
100
AcDbEntity
  8
0
  6
DOTTED
 62
     7
100
AcDbCircle
 10
266.3962499931
 20
188.28880109814
 30
0.0
 40
0.8000000119000106
100
AcDbArc
 50
0.0
 51
89.99998201392589
  0
ARC
  5
3FF
330
1F
100
AcDbEntity
  8
0
  6
DOTTED
 62
     7
100
AcDbCircle
 10
261.6962683037
 20
189.88880720174
 30
0.0
 40
0.8000000119001114
100
AcDbArc
 50
179.9999640277765
 51
269.9999460417004
  0
ARC
  5
400
330
1F
100
AcDbEntity
  8
0
  6
DOTTED
 62
     7
100
AcDbCircle
 10
265.3962499931
 20
187.28880109814
 30
0.0
 40
0.8000000119000106
100
AcDbArc
 50
0.0
 51
89.99998201392589
  0
ARC
  5
401
330
1F
100
AcDbEntity
  8
1
  6
DOTTED
 62
     7
100
AcDbCircle
 10
73.5115153924361
 20
195.128590916119
 30
0.0
 40
23.99999999999994
100
AcDbArc
 50
342.942870757233
 51
355.1244494774533
  0
ARC
  5
402
330
1F
100
AcDbEntity
  8
1
  6
DOTTED
 62
     7
100
AcDbCircle
 10
73.5115153924361
 20
195.128590916119
 30
0.0
 40
23.99999999999993
100
AcDbArc
 50
337.6251999459308
 51
342.942870757233
  0
ARC
  5
403
330
1F
100
AcDbEntity
  8
1
  6
DOTTED
 62
     7
100
AcDbCircle
 10
103.579402950283
 20
163.013164113224
 30
0.0
 40
8.999999999999522
100
AcDbArc
 50
150.6143383496628
 51
179.5185520453244
  0
ARC
  5
404
330
1F
100
AcDbEntity
  8
1
  6
DOTTED
 62
     7
100
AcDbCircle
 10
103.579402950283
 20
163.013164113224
 30
0.0
 40
8.999999999999693
100
AcDbArc
 50
179.5185520453244
 51
213.1717856860894
  0
ARC
  5
405
330
1F
100
AcDbEntity
  8
1
  6
DOTTED
 62
     7
100
AcDbCircle
 10
138.988413597009
 20
163.013164113224
 30
0.0
 40
9.000000000000176
100
AcDbArc
 50
179.5185520453244
 51
213.171785686088
  0
ARC
  5
406
330
1F
100
AcDbEntity
  8
1
  6
DOTTED
 62
     7
100
AcDbCircle
 10
138.988413597009
 20
163.013164113224
 30
0.0
 40
8.999999999999956
100
AcDbArc
 50
150.6143383496644
 51
179.5185520453244
  0
ARC
  5
407
330
1F
100
AcDbEntity
  8
1
  6
DOTTED
 62
     7
100
AcDbCircle
 10
108.920526039162
 20
195.128590916119
 30
0.0
 40
23.99999999999928
100
AcDbArc
 50
337.6251999459302
 51
342.9428707572324
  0
ARC
  5
408
330
1F
100
AcDbEntity
  8
1
  6
DOTTED
 62
     7
100
AcDbCircle
 10
108.920526039162
 20
195.128590916119
 30
0.0
 40
23.99999999999926
100
AcDbArc
 50
342.9428707572324
 51
355.1244494774532
  0
ARC
  5
409
330
1F
100
AcDbEntity
  8
1
  6
DOTTED
 62
     7
100
AcDbCircle
 10
104.951776001619
 20
182.186024987113
 30
0.0
 40
10.00000000000014
100
AcDbArc
 50
157.6251999459307
 51
206.4664464766174
  0
ARC
  5
40A
330
1F
100
AcDbEntity
  8
1
  6
DOTTED
 62
     7
100
AcDbCircle
 10
86.1526702863699
 20
172.82687842843
 30
0.0
 40
10.99999999999985
100
AcDbArc
 50
330.6143383496681
 51
26.4664464766156
  0
ARC
  5
40B
330
1F
100
AcDbEntity
  8
1
  6
DOTTED
 62
     7
100
AcDbCircle
 10
121.561680933095
 20
172.82687842843
 30
0.0
 40
11.00000000000018
100
AcDbArc
 50
330.6143383496691
 51
26.46644647661398
  0
ARC
  5
40C
330
1F
100
AcDbEntity
  8
1
  6
DOTTED
 62
     7
100
AcDbCircle
 10
140.360786648344
 20
182.186024987113
 30
0.0
 40
9.99999999999997
100
AcDbArc
 50
157.6251999459303
 51
206.4664464766195
  0
CIRCLE
  5
40D
330
1F
100
AcDbEntity
  8
1
  6
CONTINUOUS
 62
     7
100
AcDbCircle
 10
117.836711363394
 20
141.7489742868
 30
0.0
 40
2.799696459020993
  0
CIRCLE
  5
40E
330
1F
100
AcDbEntity
  8
1
  6
CONTINUOUS
 62
     7
100
AcDbCircle
 10
117.836711363394
 20
134.2489739888
 30
0.0
 40
2.799696459020993
  0
CIRCLE
  5
40F
330
1F
100
AcDbEntity
  8
0
  6
CONTINUOUS
 62
     7
100
AcDbCircle
 10
166.8962496951
 20
168.2489739739
 30
0.0
 40
0.549999999999983
  0
CIRCLE
  5
410
330
1F
100
AcDbEntity
  8
0
  6
CONTINUOUS
 62
     7
100
AcDbCircle
 10
166.8962496951
 20
130.2489739739
 30
0.0
 40
0.549999999999983
  0
CIRCLE
  5
411
330
1F
100
AcDbEntity
  8
0
  6
CONTINUOUS
 62
     7
100
AcDbCircle
 10
166.8962496951
 20
206.2489739739
 30
0.0
 40
0.549999999999983
  0
CIRCLE
  5
412
330
1F
100
AcDbEntity
  8
0
  6
CONTINUOUS
 62
     7
100
AcDbCircle
 10
116.186711478893
 20
169.2489739739
 30
0.0
 40
3.25
  0
SPLINE
  5
413
330
1F
100
AcDbEntity
  8
0
  6
CONTINUOUS
 62
     7
100
AcDbSpline
210
0.0
220
0.0
230
1.0
 70
  1064
 71
     3
 72
    27
 73
    23
 74
    21
 42
0.000000001
 43
0.0000000001
 44
0.00000001
 40
0.0
 40
0.0
 40
0.0
 40
0.0
 40
0.0825762407475143
 40
0.1651524708956392
 40
0.1837438222630605
 40
0.2023348072011306
 40
0.2209260040175132
 40
0.2395172804771986
 40
0.2562035572356093
 40
0.2728895485602597
 40
0.2895765587634326
 40
0.3062637153107627
 40
0.3208014690745177
 40
0.33533829080132
 40
0.3498713614950723
 40
0.3644064861235889
 40
0.3767451530818698
 40
0.3890770323766519
 40
0.4014154487642374
 40
0.4137760576180055
 40
0.4529127122757765
 40
0.4920477835505555
 40
0.4920477835505555
 40
0.4920477835505555
 40
0.4920477835505555
 10
105.34988739006
 20
212.006114087227
 30
0.0
 10
105.3224703644008
 20
212.0035518980853
 30
0.0
 10
105.2676363165037
 20
211.9984275213345
 30
0.0
 10
105.2073860735789
 20
211.9867500028057
 30
0.0
 10
105.1686609842609
 20
211.9770599305976
 30
0.0
 10
105.1507352317008
 20
211.9721218264206
 30
0.0
 10
105.132937594827
 20
211.9667417288007
 30
0.0
 10
105.1158916950131
 20
211.9610895018524
 30
0.0
 10
105.0996012839491
 20
211.9551975307531
 30
0.0
 10
105.0840738717713
 20
211.9490804655316
 30
0.0
 10
105.0687432634924
 20
211.9424837875654
 30
0.0
 10
105.0542923406913
 20
211.9356764485224
 30
0.0
 10
105.0407218730337
 20
211.9287042391724
 30
0.0
 10
105.0280392277714
 20
211.9215946207656
 30
0.0
 10
105.0156560441952
 20
211.9139752979819
 30
0.0
 10
105.0042349953607
 20
211.9062164889818
 30
0.0
 10
104.9937682345269
 20
211.8983823873284
 30
0.0
 10
104.984270963931
 20
211.8905050937221
 30
0.0
 10
104.9752167219613
 20
211.8820867432018
 30
0.0
 10
104.9607134061728
 20
211.8665909655817
 30
0.0
 10
104.942208373682
 20
211.8414653206594
 30
0.0
 10
104.9385437479704
 20
211.8152574140822
 30
0.0
 10
104.936711478893
 20
211.8021537234
 30
0.0
 11
105.34988739006
 21
212.006114087227
 31
0.0
 11
105.2678063165578
 21
211.9970846206596
 31
0.0
 11
105.1867114788933
 21
211.981513457215
 31
0.0
 11
105.1686790690907
 21
211.9769890188363
 31
0.0
 11
105.150756658034
 21
211.9720481785628
 31
0.0
 11
105.1329624673307
 21
211.9666630717408
 31
0.0
 11
105.1153176740501
 21
211.9608067222703
 31
0.0
 11
105.0996288739738
 21
211.9551239955817
 31
0.0
 11
105.0841070414848
 21
211.9490006778071
 31
0.0
 11
105.0687819431705
 21
211.9423978247488
 31
0.0
 11
105.053689257334
 21
211.9352793962372
 31
0.0
 11
105.0407631193877
 21
211.9286264841674
 31
0.0
 11
105.0280879423177
 21
211.9215089657725
 31
0.0
 11
105.0157159301484
 21
211.9138837802927
 31
0.0
 11
105.0036987770013
 21
211.9057071139996
 31
0.0
 11
104.9938303009486
 21
211.898300638688
 31
0.0
 11
104.9843473367635
 21
211.890417198493
 31
0.0
 11
104.9753288344848
 21
211.8819967991345
 31
0.0
 11
104.9668651685002
 21
211.8729884143897
 31
0.0
 11
104.9452873348142
 21
211.8403376091142
 31
0.0
 11
104.936711478893
 21
211.8021537234
 31
0.0
  0
SPLINE
  5
414
330
1F
100
AcDbEntity
  8
0
  6
CONTINUOUS
 62
     7
100
AcDbSpline
210
0.0
220
0.0
230
1.0
 70
  1064
 71
     3
 72
    27
 73
    23
 74
    21
 42
0.000000001
 43
0.0000000001
 44
0.00000001
 40
0.0
 40
0.0
 40
0.0
 40
0.0
 40
0.0391350712747928
 40
0.0782717259325836
 40
0.0906323347863413
 40
0.1029707511739061
 40
0.115302630468679
 40
0.1276412974269912
 40
0.1421764220557467
 40
0.1567094927496937
 40
0.1712463144763917
 40
0.1857840682400354
 40
0.2024712247873041
 40
0.2191582349905589
 40
0.23584422631545
 40
0.2525305030740429
 40
0.2711217795335754
 40
0.2897129763496546
 40
0.3083039612875642
 40
0.3268953126549647
 40
0.4094715428030419
 40
0.4920477835505872
 40
0.4920477835505872
 40
0.4920477835505872
 40
0.4920477835505872
 10
104.936711478893
 20
124.6957942244
 30
0.0
 10
104.9385437479704
 20
124.6826905337178
 30
0.0
 10
104.942208373682
 20
124.6564826271407
 30
0.0
 10
104.9607134061728
 20
124.6313569822183
 30
0.0
 10
104.9752167219613
 20
124.6158612045981
 30
0.0
 10
104.9842709639309
 20
124.6074428540779
 30
0.0
 10
104.9937682345269
 20
124.5995655604716
 30
0.0
 10
105.0042349953606
 20
124.5917314588181
 30
0.0
 10
105.0156560441952
 20
124.5839726498176
 30
0.0
 10
105.0280392277713
 20
124.5763533270337
 30
0.0
 10
105.0407218730338
 20
124.569243708627
 30
0.0
 10
105.0542923406914
 20
124.5622714992774
 30
0.0
 10
105.0687432634925
 20
124.5554641602345
 30
0.0
 10
105.0840738717715
 20
124.5488674822684
 30
0.0
 10
105.0996012839495
 20
124.5427504170469
 30
0.0
 10
105.1158916950136
 20
124.5368584459477
 30
0.0
 10
105.1329375948274
 20
124.5312062189993
 30
0.0
 10
105.150735231701
 20
124.5258261213795
 30
0.0
 10
105.168660984261
 20
124.5208880172023
 30
0.0
 10
105.2073860735789
 20
124.5111979449945
 30
0.0
 10
105.2676363165037
 20
124.4995204264661
 30
0.0
 10
105.3224703644009
 20
124.4943960497149
 30
0.0
 10
105.34988739006
 20
124.491833860573
 30
0.0
 11
104.936711478893
 21
124.6957942244
 31
0.0
 11
104.9452873348142
 21
124.6576103386858
 31
0.0
 11
104.9668651685002
 21
124.6249595334103
 31
0.0
 11
104.9753288344848
 21
124.6159511486655
 31
0.0
 11
104.9843473367635
 21
124.607530749307
 31
0.0
 11
104.9938303009486
 21
124.599647309112
 31
0.0
 11
105.0036987770012
 21
124.5922408338002
 31
0.0
 11
105.0157159301484
 21
124.5840641675069
 31
0.0
 11
105.0280879423178
 21
124.5764389820268
 31
0.0
 11
105.0407631193877
 21
124.5693214636321
 31
0.0
 11
105.0536892573341
 21
124.5626685515626
 31
0.0
 11
105.0687819431706
 21
124.5555501230511
 31
0.0
 11
105.084107041485
 21
124.5489472699929
 31
0.0
 11
105.0996288739743
 21
124.5428239522183
 31
0.0
 11
105.1153176740508
 21
124.5371412255297
 31
0.0
 11
105.1329624673312
 21
124.5312848760592
 31
0.0
 11
105.1507566580342
 21
124.5258997692372
 31
0.0
 11
105.1686790690907
 21
124.5209589289637
 31
0.0
 11
105.1867114788933
 21
124.516434490585
 31
0.0
 11
105.2678063165578
 21
124.5008633271407
 31
0.0
 11
105.34988739006
 21
124.491833860573
 31
0.0
  0
SPLINE
  5
415
330
1F
100
AcDbEntity
  8
0
  6
CONTINUOUS
 62
     7
100
AcDbSpline
210
0.0
220
0.0
230
1.0
 70
  1064
 71
     3
 72
    27
 73
    23
 74
    21
 42
0.000000001
 43
0.0000000001
 44
0.00000001
 40
0.0
 40
0.0
 40
0.0
 40
0.0
 40
0.0391350712746949
 40
0.0782717259321367
 40
0.0906323347858865
 40
0.1029707511734811
 40
0.1153026304682668
 40
0.127641297426542
 40
0.1421764220550704
 40
0.1567094927488198
 40
0.1712463144756098
 40
0.1857840682393897
 40
0.2024712247867183
 40
0.2191582349899844
 40
0.2358442263149123
 40
0.2525305030736608
 40
0.2711217795335215
 40
0.2897129763499613
 40
0.3083039612880178
 40
0.3268953126553701
 40
0.4094715428031203
 40
0.4920477835510663
 40
0.4920477835510663
 40
0.4920477835510663
 40
0.4920477835510663
 10
127.436711478893
 20
211.8021537234
 30
0.0
 10
127.4348792098157
 20
211.8152574140821
 30
0.0
 10
127.4312145841044
 20
211.8414653206592
 30
0.0
 10
127.412709551614
 20
211.8665909655817
 30
0.0
 10
127.3982062358257
 20
211.8820867432019
 30
0.0
 10
127.3891519938561
 20
211.8905050937222
 30
0.0
 10
127.3796547232601
 20
211.8983823873284
 30
0.0
 10
127.3691879624263
 20
211.9062164889818
 30
0.0
 10
127.3577669135918
 20
211.9139752979821
 30
0.0
 10
127.3453837300156
 20
211.9215946207655
 30
0.0
 10
127.3327010847533
 20
211.9287042391725
 30
0.0
 10
127.3191306170957
 20
211.9356764485224
 30
0.0
 10
127.3046796942945
 20
211.9424837875654
 30
0.0
 10
127.2893490860156
 20
211.9490804655316
 30
0.0
 10
127.2738216738375
 20
211.9551975307531
 30
0.0
 10
127.2575312627732
 20
211.9610895018523
 30
0.0
 10
127.2404853629591
 20
211.9667417288007
 30
0.0
 10
127.2226877260853
 20
211.9721218264205
 30
0.0
 10
127.2047619735251
 20
211.9770599305978
 30
0.0
 10
127.1660368842072
 20
211.9867500028055
 30
0.0
 10
127.1057866412825
 20
211.9984275213347
 30
0.0
 10
127.0509525933853
 20
212.0035518980854
 30
0.0
 10
127.023535567726
 20
212.006114087227
 30
0.0
 11
127.436711478893
 21
211.8021537234
 31
0.0
 11
127.4281356229722
 21
211.8403376091142
 31
0.0
 11
127.4065577892867
 21
211.8729884143897
 31
0.0
 11
127.3980941233022
 21
211.8819967991345
 31
0.0
 11
127.3890756210235
 21
211.890417198493
 31
0.0
 11
127.3795926568383
 21
211.898300638688
 31
0.0
 11
127.3697241807858
 21
211.9057071139997
 31
0.0
 11
127.3577070276386
 21
211.9138837802927
 31
0.0
 11
127.3453350154693
 21
211.9215089657725
 31
0.0
 11
127.3326598383993
 21
211.9286264841674
 31
0.0
 11
127.3197337004529
 21
211.9352793962372
 31
0.0
 11
127.3046410146165
 21
211.9423978247488
 31
0.0
 11
127.289315916302
 21
211.9490006778071
 31
0.0
 11
127.2737940838128
 21
211.9551239955817
 31
0.0
 11
127.2581052837361
 21
211.9608067222703
 31
0.0
 11
127.2404604904553
 21
211.9666630717408
 31
0.0
 11
127.2226662997519
 21
211.9720481785628
 31
0.0
 11
127.2047438886953
 21
211.9769890188363
 31
0.0
 11
127.1867114788927
 21
211.981513457215
 31
0.0
 11
127.1056166412287
 21
211.9970846206597
 31
0.0
 11
127.023535567726
 21
212.006114087227
 31
0.0
  0
SPLINE
  5
416
330
1F
100
AcDbEntity
  8
0
  6
CONTINUOUS
 62
     7
100
AcDbSpline
210
0.0
220
0.0
230
1.0
 70
  1064
 71
     3
 72
    27
 73
    23
 74
    21
 42
0.000000001
 43
0.0000000001
 44
0.00000001
 40
0.0
 40
0.0
 40
0.0
 40
0.0
 40
0.082576240747935
 40
0.1651524708957131
 40
0.1837438222630309
 40
0.2023348072011186
 40
0.2209260040175419
 40
0.2395172804773982
 40
0.2562035572361162
 40
0.2728895485610204
 40
0.289576558764363
 40
0.3062637153117302
 40
0.3208014690754599
 40
0.3353382908022081
 40
0.3498713614959558
 40
0.3644064861243511
 40
0.3767451530823678
 40
0.3890770323769859
 40
0.4014154487646033
 40
0.4137760576185088
 40
0.4529127122762053
 40
0.4920477835509341
 40
0.4920477835509341
 40
0.4920477835509341
 40
0.4920477835509341
 10
127.023535567726
 20
124.491833860573
 30
0.0
 10
127.0509525933853
 20
124.4943960497146
 30
0.0
 10
127.1057866412825
 20
124.4995204264654
 30
0.0
 10
127.1660368842073
 20
124.5111979449945
 30
0.0
 10
127.2047619735251
 20
124.5208880172023
 30
0.0
 10
127.2226877260852
 20
124.5258261213794
 30
0.0
 10
127.2404853629591
 20
124.5312062189992
 30
0.0
 10
127.2575312627732
 20
124.5368584459477
 30
0.0
 10
127.2738216738374
 20
124.5427504170469
 30
0.0
 10
127.2893490860155
 20
124.5488674822684
 30
0.0
 10
127.3046796942945
 20
124.5554641602345
 30
0.0
 10
127.3191306170958
 20
124.5622714992776
 30
0.0
 10
127.3327010847532
 20
124.5692437086276
 30
0.0
 10
127.3453837300156
 20
124.5763533270343
 30
0.0
 10
127.3577669135917
 20
124.583972649818
 30
0.0
 10
127.3691879624261
 20
124.5917314588181
 30
0.0
 10
127.3796547232596
 20
124.5995655604716
 30
0.0
 10
127.3891519938553
 20
124.607442854078
 30
0.0
 10
127.3982062358249
 20
124.6158612045981
 30
0.0
 10
127.4127095516137
 20
124.6313569822182
 30
0.0
 10
127.4312145841044
 20
124.6564826271407
 30
0.0
 10
127.4348792098157
 20
124.6826905337178
 30
0.0
 10
127.436711478893
 20
124.6957942244
 30
0.0
 11
127.023535567726
 21
124.491833860573
 31
0.0
 11
127.1056166412287
 21
124.5008633271403
 31
0.0
 11
127.1867114788927
 21
124.516434490585
 31
0.0
 11
127.2047438886952
 21
124.5209589289637
 31
0.0
 11
127.222666299752
 21
124.5258997692372
 31
0.0
 11
127.2404604904554
 21
124.5312848760592
 31
0.0
 11
127.2581052837361
 21
124.5371412255297
 31
0.0
 11
127.2737940838127
 21
124.5428239522183
 31
0.0
 11
127.289315916302
 21
124.5489472699929
 31
0.0
 11
127.3046410146165
 21
124.5555501230512
 31
0.0
 11
127.319733700453
 21
124.5626685515628
 31
0.0
 11
127.3326598383993
 21
124.5693214636327
 31
0.0
 11
127.3453350154693
 21
124.5764389820274
 31
0.0
 11
127.3577070276385
 21
124.5840641675073
 31
0.0
 11
127.3697241807855
 21
124.5922408338003
 31
0.0
 11
127.3795926568378
 21
124.599647309112
 31
0.0
 11
127.3890756210227
 21
124.607530749307
 31
0.0
 11
127.3980941233015
 21
124.6159511486655
 31
0.0
 11
127.4065577892862
 21
124.6249595334103
 31
0.0
 11
127.4281356229722
 21
124.6576103386858
 31
0.0
 11
127.436711478893
 21
124.6957942244
 31
0.0
  0
SPLINE
  5
417
330
1F
100
AcDbEntity
  8
0
  6
CONTINUOUS
 62
     7
100
AcDbSpline
210
0.0
220
0.0
230
1.0
 70
  1064
 71
     3
 72
    31
 73
    27
 74
    25
 42
0.000000001
 43
0.0000000001
 44
0.00000001
 40
0.0
 40
0.0
 40
0.0
 40
0.0
 40
0.0871645420169343
 40
0.1743290838805525
 40
0.1961465178327723
 40
0.2179602040708002
 40
0.2397755325291251
 40
0.2615917737752815
 40
0.2834069682051329
 40
0.3052219984120716
 40
0.3270370340980489
 40
0.3488520338489838
 40
0.3706668666082653
 40
0.3924817842770381
 40
0.4142967022727413
 40
0.4361115353364099
 40
0.4579265363773099
 40
0.4797415734641977
 40
0.5015566039032906
 40
0.5233717981373107
 40
0.5451880374657835
 40
0.5670033656713874
 40
0.5888170588125176
 40
0.6106344931995196
 40
0.6977231726379061
 40
0.784811851372158
 40
0.784811851372158
 40
0.784811851372158
 40
0.784811851372158
 10
106.436635326454
 20
211.248973973927
 30
0.0
 10
106.4075472968993
 20
211.2475153103875
 30
0.0
 10
106.3493712391293
 20
211.2445979686819
 30
0.0
 10
106.2858552141416
 20
211.2268194946977
 30
0.0
 10
106.2452155656921
 20
211.2110603788279
 30
0.0
 10
106.2252412943434
 20
211.2022627077885
 30
0.0
 10
106.2056705227983
 20
211.192611797044
 30
0.0
 10
106.1865384017103
 20
211.182114302656
 30
0.0
 10
106.1678837747891
 20
211.170790876868
 30
0.0
 10
106.1497410032389
 20
211.158664865106
 30
0.0
 10
106.1321437261974
 20
211.145760135038
 30
0.0
 10
106.1151259662742
 20
211.1321002881227
 30
0.0
 10
106.0987220220037
 20
211.1177091657577
 30
0.0
 10
106.0829614027575
 20
211.1026163285796
 30
0.0
 10
106.0678733681199
 20
211.0868511115395
 30
0.0
 10
106.05348724394
 20
211.0704427828727
 30
0.0
 10
106.0398325820558
 20
211.0534208610372
 30
0.0
 10
106.0269332136359
 20
211.0358196521433
 30
0.0
 10
106.0148127299427
 20
211.0176731864873
 30
0.0
 10
106.0034949882457
 20
210.9990151111582
 30
0.0
 10
105.9930033228897
 20
210.9798797941124
 30
0.0
 10
105.9833583738597
 20
210.9603060809875
 30
0.0
 10
105.9745667912845
 20
210.9403291302146
 30
0.0
 10
105.9588291750432
 20
210.8997082331098
 30
0.0
 10
105.941079885348
 20
210.8362380884863
 30
0.0
 10
105.9381676094805
 20
210.7781127807388
 30
0.0
 10
105.936711478867
 20
210.749050126339
 30
0.0
 11
106.436635326454
 21
211.248973973927
 31
0.0
 11
106.3498024711368
 21
211.2413770714623
 31
0.0
 11
106.2656083988995
 21
211.2188156910647
 31
0.0
 11
106.2452745168916
 21
211.2109078668898
 31
0.0
 11
106.22530897299
 21
211.2021207183296
 31
0.0
 11
106.2057439716144
 21
211.1924708845391
 31
0.0
 11
106.1866176625721
 21
211.181976471772
 31
0.0
 11
106.1679689748022
 21
211.1706570562891
 31
0.0
 11
106.1498319054031
 21
211.158535081589
 31
0.0
 11
106.1322402879229
 21
211.145634275791
 31
0.0
 11
106.1152282145063
 21
211.1319783764854
 31
0.0
 11
106.0988292533723
 21
211.1175922367821
 31
0.0
 11
106.0830734933563
 21
211.1025042722846
 31
0.0
 11
106.0679903297648
 21
211.0867439157946
 31
0.0
 11
106.0536091869542
 21
211.0703405720324
 31
0.0
 11
106.0399584707567
 21
211.0533243376853
 31
0.0
 11
106.0270630246182
 21
211.0357287892191
 31
0.0
 11
106.0149465763197
 21
211.0175880271685
 31
0.0
 11
106.0036328428885
 21
210.9989358919094
 31
0.0
 11
105.993144258043
 21
210.9798063884872
 31
0.0
 11
105.9835003856482
 21
210.9602384482475
 31
0.0
 11
105.9747193185439
 21
210.9402702213661
 31
0.0
 11
105.9668176882346
 21
210.9199339311898
 31
0.0
 11
105.9442951823607
 21
210.8358079830986
 31
0.0
 11
105.936711478867
 21
210.749050126339
 31
0.0
  0
SPLINE
  5
418
330
1F
100
AcDbEntity
  8
0
  6
CONTINUOUS
 62
     7
100
AcDbSpline
210
0.0
220
0.0
230
1.0
 70
  1064
 71
     3
 72
    31
 73
    27
 74
    25
 42
0.000000001
 43
0.0000000001
 44
0.00000001
 40
0.0
 40
0.0
 40
0.0
 40
0.0
 40
0.0871645420177906
 40
0.1743290838816486
 40
0.1961465178338022
 40
0.2179602040716619
 40
0.2397755325297302
 40
0.2615917737757075
 40
0.2834069682055819
 40
0.3052219984125361
 40
0.3270370340985493
 40
0.3488520338494391
 40
0.3706668666084987
 40
0.3924817842771636
 40
0.4142967022729744
 40
0.4361115353368246
 40
0.4579265363776005
 40
0.4797415734643424
 40
0.5015566039035889
 40
0.5233717981377232
 40
0.5451880374659966
 40
0.5670033656714093
 40
0.5888170588123776
 40
0.610634493199353
 40
0.697723172637767
 40
0.7848118513719752
 40
0.7848118513719752
 40
0.7848118513719752
 40
0.7848118513719752
 10
105.936711478867
 20
125.748897821461
 30
0.0
 10
105.9381701424062
 20
125.719809791906
 30
0.0
 10
105.9410874841108
 20
125.6616337341356
 30
0.0
 10
105.9588659580954
 20
125.5981177091475
 30
0.0
 10
105.9746250739651
 20
125.5574780606981
 30
0.0
 10
105.9834227450047
 20
125.5375037893496
 30
0.0
 10
105.9930736557495
 20
125.5179330178048
 30
0.0
 10
106.0035711501379
 20
125.4988008967172
 30
0.0
 10
106.014894575926
 20
125.4801462697962
 30
0.0
 10
106.0270205876879
 20
125.4620034982458
 30
0.0
 10
106.0399253177554
 20
125.444406221204
 30
0.0
 10
106.0535851646704
 20
125.4273884612806
 30
0.0
 10
106.0679762870352
 20
125.4109845170101
 30
0.0
 10
106.0830691242136
 20
125.3952238977643
 30
0.0
 10
106.0988343412539
 20
125.3801358631269
 30
0.0
 10
106.1152426699209
 20
125.3657497389471
 30
0.0
 10
106.1322645917562
 20
125.3520950770628
 30
0.0
 10
106.1498658006502
 20
125.3391957086429
 30
0.0
 10
106.1680122663061
 20
125.3270752249497
 30
0.0
 10
106.1866703416355
 20
125.3157574832529
 30
0.0
 10
106.205805658681
 20
125.3052658178968
 30
0.0
 10
106.2253793718056
 20
125.2956208688666
 30
0.0
 10
106.2453563225785
 20
125.2868292862915
 30
0.0
 10
106.2859772196831
 20
125.2710916700503
 30
0.0
 10
106.3494473643068
 20
125.253342380355
 30
0.0
 10
106.4075726720542
 20
125.2504301044875
 30
0.0
 10
106.436635326454
 20
125.248973973874
 30
0.0
 11
105.936711478867
 21
125.748897821461
 31
0.0
 11
105.9443083813308
 21
125.6620649661429
 31
0.0
 11
105.9668697617284
 21
125.5778708939053
 31
0.0
 11
105.9747775859033
 21
125.5575370118975
 31
0.0
 11
105.9835647344636
 21
125.5375714679961
 31
0.0
 11
105.9932145682544
 21
125.5180064666209
 31
0.0
 11
106.0037089810218
 21
125.498880157579
 31
0.0
 11
106.0150283965049
 21
125.4802314698092
 31
0.0
 11
106.0271503712048
 21
125.46209440041
 31
0.0
 11
106.0400511770025
 21
125.4445027829295
 31
0.0
 11
106.0537070763077
 21
125.4274907095126
 31
0.0
 11
106.0680932160109
 21
125.4110917483788
 31
0.0
 11
106.0831811805085
 21
125.3953359883631
 31
0.0
 11
106.0989415369989
 21
125.3802528247718
 31
0.0
 11
106.1153448807613
 21
125.3658716819612
 31
0.0
 11
106.1323611151082
 21
125.3522209657636
 31
0.0
 11
106.1499566635742
 21
125.3393255196252
 31
0.0
 11
106.168097425625
 21
125.3272090713267
 31
0.0
 11
106.1867495608843
 21
125.3158953378955
 31
0.0
 11
106.2058790643062
 21
125.30540675305
 31
0.0
 11
106.2254470045457
 21
125.2957628806551
 31
0.0
 11
106.245415231427
 21
125.2869818135509
 31
0.0
 11
106.2657515216032
 21
125.2790801832416
 31
0.0
 11
106.3498774696944
 21
125.2565576773677
 31
0.0
 11
106.436635326454
 21
125.248973973874
 31
0.0
  0
SPLINE
  5
419
330
1F
100
AcDbEntity
  8
0
  6
CONTINUOUS
 62
     7
100
AcDbSpline
210
0.0
220
0.0
230
1.0
 70
  1064
 71
     3
 72
    31
 73
    27
 74
    25
 42
0.000000001
 43
0.0000000001
 44
0.00000001
 40
0.0
 40
0.0
 40
0.0
 40
0.0
 40
0.0871645420177315
 40
0.1743290838814375
 40
0.196146517833686
 40
0.2179602040715478
 40
0.2397755325295478
 40
0.2615917737754314
 40
0.2834069682052151
 40
0.3052219984121655
 40
0.3270370340983979
 40
0.3488520338495079
 40
0.3706668666086639
 40
0.3924817842773733
 40
0.4142967022731441
 40
0.4361115353370508
 40
0.4579265363780797
 40
0.4797415734650295
 40
0.5015566039041653
 40
0.5233717981382086
 40
0.5451880374665821
 40
0.5670033656721647
 40
0.5888170588131829
 40
0.6106344932001452
 40
0.697723172638414
 40
0.7848118513727068
 40
0.7848118513727068
 40
0.7848118513727068
 40
0.7848118513727068
 10
125.936787631232
 20
125.248973973874
 30
0.0
 10
125.965875660787
 20
125.2504326374132
 30
0.0
 10
126.0240517185573
 20
125.2533499791178
 30
0.0
 10
126.0875677435454
 20
125.2711284531022
 30
0.0
 10
126.1282073919948
 20
125.2868875689722
 30
0.0
 10
126.1481816633434
 20
125.2956852400115
 30
0.0
 10
126.1677524348881
 20
125.305336150756
 30
0.0
 10
126.1868845559759
 20
125.3158336451441
 30
0.0
 10
126.2055391828969
 20
125.327157070932
 30
0.0
 10
126.2236819544472
 20
125.3392830826941
 30
0.0
 10
126.241279231489
 20
125.3521878127619
 30
0.0
 10
126.2582969914124
 20
125.3658476596773
 30
0.0
 10
126.2747009356829
 20
125.3802387820422
 30
0.0
 10
126.2904615549289
 20
125.3953316192205
 30
0.0
 10
126.3055495895667
 20
125.4110968362605
 30
0.0
 10
126.3199357137468
 20
125.4275051649272
 30
0.0
 10
126.3335903756312
 20
125.4445270867627
 30
0.0
 10
126.346489744051
 20
125.4621282956569
 30
0.0
 10
126.3586102277438
 20
125.4802747613131
 30
0.0
 10
126.3699279694405
 20
125.4989328366425
 30
0.0
 10
126.3804196347968
 20
125.5180681536881
 30
0.0
 10
126.3900645838272
 20
125.5376418668127
 30
0.0
 10
126.3988561664025
 20
125.5576188175855
 30
0.0
 10
126.4145937826437
 20
125.5982397146901
 30
0.0
 10
126.4323430723382
 20
125.6617098593139
 30
0.0
 10
126.4352553482063
 20
125.7198351670612
 30
0.0
 10
126.43671147882
 20
125.748897821461
 30
0.0
 11
125.936787631232
 21
125.248973973874
 31
0.0
 11
126.02362048655
 21
125.2565708763378
 31
0.0
 11
126.1078145587875
 21
125.2791322567353
 31
0.0
 11
126.1281484407954
 21
125.2870400809103
 31
0.0
 11
126.1481139846969
 21
125.2958272294704
 31
0.0
 11
126.1676789860721
 21
125.3054770632609
 31
0.0
 11
126.1868052951141
 21
125.315971476028
 31
0.0
 11
126.2054539828839
 21
125.327290891511
 31
0.0
 11
126.223591052283
 21
125.3394128662109
 31
0.0
 11
126.2411826697636
 21
125.3523136720089
 31
0.0
 11
126.2581947431804
 21
125.3659695713145
 31
0.0
 11
126.2745937043142
 21
125.3803557110178
 31
0.0
 11
126.2903494643301
 21
125.3954436755154
 31
0.0
 11
126.3054326279217
 21
125.4112040320054
 31
0.0
 11
126.3198137707326
 21
125.4276073757676
 31
0.0
 11
126.3334644869303
 21
125.4446236101148
 31
0.0
 11
126.3463599330687
 21
125.4622191585811
 31
0.0
 11
126.3584763813668
 21
125.4803599206319
 31
0.0
 11
126.3697901147978
 21
125.4990120558912
 31
0.0
 11
126.3802786996435
 21
125.5181415593132
 31
0.0
 11
126.3899225720387
 21
125.5377094995527
 31
0.0
 11
126.3987036391431
 21
125.557677726434
 31
0.0
 11
126.4066052694524
 21
125.5780140166102
 31
0.0
 11
126.4291277753259
 21
125.6621399647014
 31
0.0
 11
126.43671147882
 21
125.748897821461
 31
0.0
  0
SPLINE
  5
41A
330
1F
100
AcDbEntity
  8
0
  6
CONTINUOUS
 62
     7
100
AcDbSpline
210
0.0
220
0.0
230
1.0
 70
  1064
 71
     3
 72
    31
 73
    27
 74
    25
 42
0.000000001
 43
0.0000000001
 44
0.00000001
 40
0.0
 40
0.0
 40
0.0
 40
0.0
 40
0.0871645420173834
 40
0.1743290838816542
 40
0.1961465178338858
 40
0.217960204071783
 40
0.2397755325297573
 40
0.2615917737755138
 40
0.2834069682053488
 40
0.3052219984121572
 40
0.3270370340979412
 40
0.3488520338487272
 40
0.370666866608172
 40
0.3924817842772418
 40
0.4142967022729674
 40
0.4361115353366493
 40
0.4579265363775871
 40
0.4797415734645521
 40
0.5015566039036056
 40
0.5233717981375745
 40
0.5451880374660336
 40
0.5670033656716629
 40
0.5888170588125848
 40
0.610634493199383
 40
0.6977231726373425
 40
0.7848118513724164
 40
0.7848118513724164
 40
0.7848118513724164
 40
0.7848118513724164
 10
126.43671147882
 20
210.749050126339
 30
0.0
 10
126.4352528152806
 20
210.7781381558939
 30
0.0
 10
126.4323354735754
 20
210.8363142136643
 30
0.0
 10
126.4145569995913
 20
210.8998302386524
 30
0.0
 10
126.3987978837211
 20
210.940469887102
 30
0.0
 10
126.3900002126815
 20
210.9604441584504
 30
0.0
 10
126.380349301937
 20
210.9800149299951
 30
0.0
 10
126.369851807549
 20
210.9991470510828
 30
0.0
 10
126.3585283817611
 20
211.0178016780039
 30
0.0
 10
126.3464023699991
 20
211.0359444495539
 30
0.0
 10
126.3334976399316
 20
211.0535417265956
 30
0.0
 10
126.3198377930162
 20
211.0705594865188
 30
0.0
 10
126.3054466706513
 20
211.0869634307894
 30
0.0
 10
126.2903538334728
 20
211.1027240500355
 30
0.0
 10
126.2745886164326
 20
211.1178120846731
 30
0.0
 10
126.2581802877657
 20
211.132198208853
 30
0.0
 10
126.2411583659302
 20
211.1458528707372
 30
0.0
 10
126.2235571570362
 20
211.158752239157
 30
0.0
 10
126.2054106913804
 20
211.1708727228503
 30
0.0
 10
126.1867526160512
 20
211.1821904645473
 30
0.0
 10
126.1676172990054
 20
211.1926821299032
 30
0.0
 10
126.1480435858806
 20
211.2023270789332
 30
0.0
 10
126.1280666351078
 20
211.2111186615085
 30
0.0
 10
126.0874457380035
 20
211.2268562777498
 30
0.0
 10
126.0239755933795
 20
211.2446055674444
 30
0.0
 10
125.965850285632
 20
211.2475178433122
 30
0.0
 10
125.936787631232
 20
211.248973973926
 30
0.0
 11
126.43671147882
 21
210.749050126339
 31
0.0
 11
126.4291145763557
 21
210.8358829816567
 31
0.0
 11
126.4065531959581
 21
210.9200770538947
 31
0.0
 11
126.3986453717829
 21
210.9404109359025
 31
0.0
 11
126.3898582232227
 21
210.960376479804
 31
0.0
 11
126.3802083894321
 21
210.9799414811791
 31
0.0
 11
126.3697139766651
 21
210.999067790221
 31
0.0
 11
126.3583945611821
 21
211.0177164779908
 31
0.0
 11
126.3462725864822
 21
211.0358535473898
 31
0.0
 11
126.3333717806845
 21
211.0534451648701
 31
0.0
 11
126.3197158813792
 21
211.0704572382867
 31
0.0
 11
126.3053297416756
 21
211.0868561994207
 31
0.0
 11
126.2902417771778
 21
211.1026119594367
 31
0.0
 11
126.2744814206876
 21
211.1176951230282
 31
0.0
 11
126.2580780769254
 21
211.1320762658388
 31
0.0
 11
126.2410618425783
 21
211.1457269820363
 31
0.0
 11
126.2234662941121
 21
211.1586224281748
 31
0.0
 11
126.2053255320615
 21
211.1707388764733
 31
0.0
 11
126.1866733968024
 21
211.1820526099045
 31
0.0
 11
126.1675438933803
 21
211.19254119475
 31
0.0
 11
126.1479759531406
 21
211.2021850671449
 31
0.0
 11
126.1280077262593
 21
211.2109661342492
 31
0.0
 11
126.1076714360833
 21
211.2188677645584
 31
0.0
 11
126.0235454879924
 21
211.2413902704319
 31
0.0
 11
125.936787631232
 21
211.248973973926
 31
0.0
  0
LWPOLYLINE
  5
41B
330
1F
100
AcDbEntity
  8
0
  6
CONTINUOUS
 62
     7
100
AcDbPolyline
 90
        8
 70
     0
 43
0.0
 10
104.936711478893
 20
212.5726455831
 10
104.946625234893
 20
212.5743964695
 10
104.975973371993
 20
212.5795708977
 10
105.023592095293
 20
212.5879677021
 10
105.087593070093
 20
212.5992516064
 10
105.165438351493
 20
212.6129793011
 10
105.254040961493
 20
212.6285994433
 10
105.349887383993
 20
212.6455010854
  0
LWPOLYLINE
  5
41C
330
1F
100
AcDbEntity
  8
0
  6
CONTINUOUS
 62
     7
100
AcDbPolyline
 90
        8
 70
     0
 43
0.0
 10
105.349887383993
 20
207.7417636298
 10
105.254040961493
 20
207.7434362852
 10
105.165438351493
 20
207.7449822806
 10
105.087593070093
 20
207.7463420116
 10
105.023592095293
 20
207.7474558734
 10
104.975973371993
 20
207.7482903384
 10
104.946625234893
 20
207.7488007032
 10
104.936711478893
 20
207.7489757918
  0
LWPOLYLINE
  5
41D
330
1F
100
AcDbEntity
  8
0
  6
CONTINUOUS
 62
     7
100
AcDbPolyline
 90
        9
 70
     0
 43
0.0
 10
105.349887383993
 20
123.8524468624
 10
105.265701411193
 20
123.8672921442
 10
105.186711490693
 20
123.8812210046
 10
105.115317669993
 20
123.8938087606
 10
105.053689253993
 20
123.9046754324
 10
105.003698775893
 20
123.9134894692
 10
104.966865168193
 20
123.9199826502
 10
104.944307602293
 20
123.9239612602
 10
104.936711478893
 20
123.9253023647
  0
LWPOLYLINE
  5
41E
330
1F
100
AcDbEntity
  8
0
  6
CONTINUOUS
 62
     7
100
AcDbPolyline
 90
        8
 70
     0
 43
0.0
 10
104.936711478893
 20
129.2489731692
 10
104.946625234893
 20
129.2491482579
 10
104.975973371993
 20
129.2496586226
 10
105.023592095293
 20
129.2504893624
 10
105.087593070093
 20
129.2516069495
 10
105.165438351493
 20
129.2529666804
 10
105.254040961493
 20
129.2545126759
 10
105.349887383993
 20
129.2561853313
  0
LWPOLYLINE
  5
41F
330
1F
100
AcDbEntity
  8
0
  6
CONTINUOUS
 62
     7
100
AcDbPolyline
 90
        9
 70
     0
 43
0.0
 10
127.023534837993
 20
212.6455010854
 10
127.107720810793
 20
212.6306558036
 10
127.186711866293
 20
212.6167269432
 10
127.258105192193
 20
212.6041391872
 10
127.319734532293
 20
212.5932725154
 10
127.369724202793
 20
212.5844584786
 10
127.406558010593
 20
212.5779652976
 10
127.429114643393
 20
212.5739866876
 10
127.436712372893
 20
212.5726455831
  0
LWPOLYLINE
  5
420
330
1F
100
AcDbEntity
  8
0
  6
CONTINUOUS
 62
     7
100
AcDbPolyline
 90
        9
 70
     0
 43
0.0
 10
127.436712372893
 20
123.9253023647
 10
127.429114643393
 20
123.9239612602
 10
127.406558010593
 20
123.9199826502
 10
127.369724202793
 20
123.9134894692
 10
127.319734532293
 20
123.9046754324
 10
127.258105192193
 20
123.8938087606
 10
127.186711866293
 20
123.8812210046
 10
127.107720810793
 20
123.8672921442
 10
127.023534837993
 20
123.8524468624
  0
LWPOLYLINE
  5
421
330
1F
100
AcDbEntity
  8
0
  6
CONTINUOUS
 62
     7
100
AcDbPolyline
 90
        9
 70
     0
 43
0.0
 10
104.936711478893
 20
207.5280288242
 10
104.946107195793
 20
207.528192737
 10
104.973941226093
 20
207.5286770247
 10
105.019167490893
 20
207.5294667863
 10
105.080086260893
 20
207.5305322193
 10
105.154408014293
 20
207.5318286203
 10
105.239339539893
 20
207.5333112859
 10
105.331688875193
 20
207.5349206113
 10
105.427985301093
 20
207.5366044425
  0
LWPOLYLINE
  5
422
330
1F
100
AcDbEntity
  8
0
  6
CONTINUOUS
 62
     7
100
AcDbPolyline
 90
        9
 70
     0
 43
0.0
 10
105.427985301093
 20
129.4613445186
 10
105.331688875193
 20
129.4630246245
 10
105.239339539893
 20
129.4646376752
 10
105.154408014293
 20
129.4661203407
 10
105.080086260893
 20
129.4674167418
 10
105.019167490893
 20
129.4684821748
 10
104.973941226093
 20
129.4692719363
 10
104.946107195793
 20
129.4697562241
 10
104.936711478893
 20
129.4699201368
  0
DIMENSION
  5
436
330
1F
100
AcDbEntity
  8
1
100
AcDbDimension
  2
*D1
 10
127.436712372893
 20
116.748973199
 30
0.0
 11
116.186711925893
 21
118.998973199
 31
0.0
 70
    32
  1
22.5
 53
0.00013888888889
  3
ME10_DIM_10
100
AcDbAlignedDimension
 13
104.936711478893
 23
124.6957929813
 33
0.0
 14
127.436712372893
 24
124.6957929813
 34
0.0
100
AcDbRotatedDimension
  0
DIMENSION
  5
443
330
1F
100
AcDbEntity
  8
1
100
AcDbDimension
  2
*D3
 10
138.833685757168
 20
212.7489747488
 30
0.0
 11
136.583685757168
 21
195.612167223687
 31
0.0
 70
    32
  1
37
 53
90.0
  3
ME10_DIM_11
100
AcDbAlignedDimension
 13
132.736623159917
 23
175.58878889114
 33
0.0
 14
126.436712208993
 24
212.7489747488
 34
0.0
 50
90.0
100
AcDbRotatedDimension
  0
DIMENSION
  5
450
330
1F
100
AcDbEntity
  8
1
100
AcDbDimension
  2
*D4
 10
145.833685757168
 20
212.7489747488
 30
0.0
 11
143.583685757168
 21
168.2489739739
 31
0.0
 70
    32
  1
89
 53
90.0
  3
ME10_DIM_12
100
AcDbAlignedDimension
 13
126.436712208993
 23
123.748973199
 33
0.0
 14
126.436712208993
 24
212.7489747488
 34
0.0
 50
90.0
100
AcDbRotatedDimension
  0
DIMENSION
  5
45D
330
1F
100
AcDbEntity
  8
1
100
AcDbDimension
  2
*D5
 10
152.8962496950439
 20
116.748973199
 30
0.0
 11
157.896249695072
 21
118.998973199
 31
0.0
 70
    32
  1
10
 53
0.00013888888889
  3
ME10_DIM_13
100
AcDbAlignedDimension
 13
162.8962496951
 23
125.7488990211
 33
0.0
 14
152.896249695044
 24
167.917631280651
 34
0.0
100
AcDbRotatedDimension
  0
DIMENSION
  5
46A
330
1F
100
AcDbEntity
  8
1
100
AcDbDimension
  2
*D6
 10
162.8962496951
 20
116.748973199
 30
0.0
 11
197.8962498441
 21
118.998973199
 31
0.0
 70
    32
  1
70
 53
0.00013888888889
  3
ME10_DIM_14
100
AcDbAlignedDimension
 13
232.8962499931
 23
126.2489745401
 33
0.0
 14
162.8962496951
 24
125.7488990211
 34
0.0
100
AcDbRotatedDimension
  0
DIMENSION
  5
477
330
1F
100
AcDbEntity
  8
1
100
AcDbDimension
  2
*D7
 10
262.8962499931
 20
116.748973199
 30
0.0
 11
247.8962499931
 21
118.998973199
 31
0.0
 70
    32
  1
30
 53
0.00013888888889
  3
ME10_DIM_15
100
AcDbAlignedDimension
 13
232.8962499931
 23
158.58880414994
 33
0.0
 14
262.8962499931
 24
135.58880414994
 34
0.0
100
AcDbRotatedDimension
  0
ENDSEC
  0
SECTION
  2
OBJECTS
  0
DICTIONARY
  5
C
330
0
100
AcDbDictionary
  3
ACAD_GROUP
350
D
  3
ACAD_LAYOUT
350
1A
  3
ACAD_MATERIAL
350
43
  3
ACAD_MLEADERSTYLE
350
6B
  3
ACAD_MLINESTYLE
350
17
  3
ACAD_PLOTSETTINGS
350
19
  3
ACAD_SCALELIST
350
47
  3
ACAD_VISUALSTYLE
350
2A
  3
ACDBHEADERROUNDTRIPXREC
350
478
  3
ACDBVARIABLEDICTIONARY
350
499
  0
DICTIONARY
  5
4A0
330
8
100
AcDbDictionary
280
     1
  3
ACAD_XREC_ROUNDTRIP
360
4A1
  0
DICTIONARY
  5
D
102
{ACAD_REACTORS
330
C
102
}
330
C
100
AcDbDictionary
  0
DICTIONARY
  5
1A
102
{ACAD_REACTORS
330
C
102
}
330
C
100
AcDbDictionary
  0
DICTIONARY
  5
43
102
{ACAD_REACTORS
330
C
102
}
330
C
100
AcDbDictionary
  3
BYBLOCK
350
45
  3
BYLAYER
350
44
  3
GLOBAL
350
46
  0
DICTIONARY
  5
6B
102
{ACAD_REACTORS
330
C
102
}
330
C
100
AcDbDictionary
  3
STANDARD
350
6C
  0
DICTIONARY
  5
17
102
{ACAD_REACTORS
330
C
102
}
330
C
100
AcDbDictionary
  3
STANDARD
350
18
  0
DICTIONARY
  5
19
102
{ACAD_REACTORS
330
C
102
}
330
C
100
AcDbDictionary
  0
DICTIONARY
  5
47
102
{ACAD_REACTORS
330
C
102
}
330
C
100
AcDbDictionary
  3
A0
350
48
  3
A1
350
49
  3
A2
350
4A
  3
A3
350
4B
  3
A4
350
4C
  3
A5
350
4D
  3
A6
350
4E
  3
A7
350
4F
  3
A8
350
50
  3
A9
350
51
  3
B0
350
52
  3
B1
350
53
  3
B2
350
54
  3
B3
350
55
  3
B4
350
56
  3
B5
350
57
  3
B6
350
58
  3
B7
350
59
  3
B8
350
5A
  3
B9
350
5B
  3
C0
350
5C
  3
C1
350
5D
  3
C2
350
5E
  3
C3
350
5F
  3
C4
350
60
  3
C5
350
61
  3
C6
350
62
  3
C7
350
63
  3
C8
350
64
  3
C9
350
65
  3
D0
350
66
  3
D1
350
67
  3
D2
350
68
  0
DICTIONARY
  5
2A
102
{ACAD_REACTORS
330
C
102
}
330
C
100
AcDbDictionary
  3
2DWIREFRAME
350
2F
  3
BASIC
350
32
  3
BRIGHTEN
350
36
  3
COLORCHANGE
350
3A
  3
CONCEPTUAL
350
34
  3
DIM
350
35
  3
EDGECOLOROFF
350
3D
  3
FACEPATTERN
350
39
  3
FLAT
350
2B
  3
FLATWITHEDGES
350
2C
  3
GOURAUD
350
2D
  3
GOURAUDWITHEDGES
350
2E
  3
HIDDEN
350
31
  3
JITTEROFF
350
3B
  3
LINEPATTERN
350
38
  3
OVERHANGOFF
350
3C
  3
REALISTIC
350
33
  3
SHADED
350
42
  3
SHADED_WITH_EDGES
350
41
  3
SHADES_OF_GRAY
350
3E
  3
SKETCHY
350
3F
  3
THICKEN
350
37
  3
WIREFRAME
350
30
  3
X-RAY
350
40
  0
DICTIONARY
  5
478
102
{ACAD_REACTORS
330
C
102
}
330
C
100
AcDbDictionary
  3
CEPSNID
350
482
  3
CEPSNTYPE
350
481
  3
DIMSTYLEDATA
350
498
  3
FINGERPRINTGUID
350
483
  3
HYPERLINKBASE
350
47B
  3
INSUNITS
350
480
  3
LAYOUTDICT
350
47D
  3
LWETCUNION
350
47F
  3
PLOTSETDICT
350
47E
  3
PSVPSCALE
350
485
  3
PUCSBASE
350
488
  3
PUCSORGBACK
350
48E
  3
PUCSORGBOTTOM
350
48A
  3
PUCSORGFRONT
350
48D
  3
PUCSORGLEFT
350
48B
  3
PUCSORGRIGHT
350
48C
  3
PUCSORGTOP
350
489
  3
PUCSORTHOREF
350
486
  3
PUCSORTHOVIEW
350
487
  3
STYLESHEET
350
47C
  3
TSTACKALIGN
350
479
  3
TSTACKSIZE
350
47A
  3
UCSBASE
350
491
  3
UCSORGBACK
350
497
  3
UCSORGBOTTOM
350
493
  3
UCSORGFRONT
350
496
  3
UCSORGLEFT
350
494
  3
UCSORGRIGHT
350
495
  3
UCSORGTOP
350
492
  3
UCSORTHOREF
350
48F
  3
UCSORTHOVIEW
350
490
  3
VERSIONGUID
350
484
  0
DICTIONARY
  5
499
102
{ACAD_REACTORS
330
C
102
}
330
C
100
AcDbDictionary
  3
CANNOSCALE
350
4A2
  3
CMLEADERSTYLE
350
49B
  3
CTABLESTYLE
350
49A
  3
DIMASSOC
350
49E
  3
HIDETEXT
350
49F
  3
MSLTSCALE
350
4A3
  0
XRECORD
  5
4A1
102
{ACAD_REACTORS
330
4A0
102
}
330
4A0
100
AcDbXrecord
102
VTR_0.000_0.000_1.000_1.000_GRIDDISPLAY
 70
     3
102
VTR_0.000_0.000_1.000_1.000_GRIDMAJOR
 70
     5
102
VTR_0.000_0.000_1.000_1.000_DEFAULTLIGHTING
280
     1
102
VTR_0.000_0.000_1.000_1.000_DEFAULTLIGHTINGTYPE
 70
     1
102
VTR_0.000_0.000_1.000_1.000_BRIGHTNESS
141
0.0
102
VTR_0.000_0.000_1.000_1.000_CONTRAST
142
0.0
  0
MATERIAL
  5
45
102
{ACAD_REACTORS
330
43
102
}
102
{ACAD_XDICTIONARY
360
4A6
102
}
330
43
100
AcDbMaterial
  1
BYBLOCK
  0
MATERIAL
  5
44
102
{ACAD_REACTORS
330
43
102
}
102
{ACAD_XDICTIONARY
360
4A4
102
}
330
43
100
AcDbMaterial
  1
BYLAYER
  0
MATERIAL
  5
46
102
{ACAD_REACTORS
330
43
102
}
102
{ACAD_XDICTIONARY
360
4A8
102
}
330
43
100
AcDbMaterial
  1
GLOBAL
  0
ACAD_PROXY_OBJECT
  5
6C
102
{ACAD_REACTORS
330
6B
102
}
330
6B
100
AcDbProxyObject
 90
      499
 91
      505
 93
      610
310
40901902A4063FBFFFFFE056BD1B81E855B9FC0AD7A3703D0AD73F4214DD185B99185C9900AD7A3703D0AC73F90141901A02B5E8DC0F42B1CFC02B5E8DC0F42B1CFE5764000000000000300FC0
340
14
340
0
340
11
340
0
 94
        0
1001
ACAD_MLEADERVER
1070
     2
  0
MLINESTYLE
  5
18
102
{ACAD_REACTORS
330
17
102
}
330
17
100
AcDbMlineStyle
  2
Standard
 70
     0
  3

 62
   256
 51
90.0
 52
90.0
 71
     2
 49
0.5
 62
   256
  6
BYLAYER
 49
-0.5
 62
   256
  6
BYLAYER
  0
ACAD_PROXY_OBJECT
  5
48
102
{ACAD_REACTORS
330
47
102
}
330
47
100
AcDbProxyObject
 90
      499
 91
      503
 93
       41
310
903313A31580
  0
ACAD_PROXY_OBJECT
  5
49
102
{ACAD_REACTORS
330
47
102
}
330
47
100
AcDbProxyObject
 90
      499
 91
      503
 93
      105
310
903313A324000000000000004000
  0
ACAD_PROXY_OBJECT
  5
4A
102
{ACAD_REACTORS
330
47
102
}
330
47
100
AcDbProxyObject
 90
      499
 91
      503
 93
      105
310
903313A344000000000000104000
  0
ACAD_PROXY_OBJECT
  5
4B
102
{ACAD_REACTORS
330
47
102
}
330
47
100
AcDbProxyObject
 90
      499
 91
      503
 93
      105
310
903313A354000000000000144000
  0
ACAD_PROXY_OBJECT
  5
4C
102
{ACAD_REACTORS
330
47
102
}
330
47
100
AcDbProxyObject
 90
      499
 91
      503
 93
      105
310
903313A384000000000000204000
  0
ACAD_PROXY_OBJECT
  5
4D
102
{ACAD_REACTORS
330
47
102
}
330
47
100
AcDbProxyObject
 90
      499
 91
      503
 93
      113
310
904313A31304000000000000244000
  0
ACAD_PROXY_OBJECT
  5
4E
102
{ACAD_REACTORS
330
47
102
}
330
47
100
AcDbProxyObject
 90
      499
 91
      503
 93
      113
310
904313A31364000000000000304000
  0
ACAD_PROXY_OBJECT
  5
4F
102
{ACAD_REACTORS
330
47
102
}
330
47
100
AcDbProxyObject
 90
      499
 91
      503
 93
      113
310
904313A32304000000000000344000
  0
ACAD_PROXY_OBJECT
  5
50
102
{ACAD_REACTORS
330
47
102
}
330
47
100
AcDbProxyObject
 90
      499
 91
      503
 93
      113
310
904313A333040000000000003E4000
  0
ACAD_PROXY_OBJECT
  5
51
102
{ACAD_REACTORS
330
47
102
}
330
47
100
AcDbProxyObject
 90
      499
 91
      503
 93
      113
310
904313A34304000000000000444000
  0
ACAD_PROXY_OBJECT
  5
52
102
{ACAD_REACTORS
330
47
102
}
330
47
100
AcDbProxyObject
 90
      499
 91
      503
 93
      113
310
904313A35304000000000000494000
  0
ACAD_PROXY_OBJECT
  5
53
102
{ACAD_REACTORS
330
47
102
}
330
47
100
AcDbProxyObject
 90
      499
 91
      503
 93
      121
310
905313A3130304000000000000594000
  0
ACAD_PROXY_OBJECT
  5
54
102
{ACAD_REACTORS
330
47
102
}
330
47
100
AcDbProxyObject
 90
      499
 91
      503
 93
      105
310
903323A310000000000000010100
  0
ACAD_PROXY_OBJECT
  5
55
102
{ACAD_REACTORS
330
47
102
}
330
47
100
AcDbProxyObject
 90
      499
 91
      503
 93
      105
310
903343A310000000000000410100
  0
ACAD_PROXY_OBJECT
  5
56
102
{ACAD_REACTORS
330
47
102
}
330
47
100
AcDbProxyObject
 90
      499
 91
      503
 93
      105
310
903383A310000000000000810100
  0
ACAD_PROXY_OBJECT
  5
57
102
{ACAD_REACTORS
330
47
102
}
330
47
100
AcDbProxyObject
 90
      499
 91
      503
 93
      113
310
90431303A310000000000000910100
  0
ACAD_PROXY_OBJECT
  5
58
102
{ACAD_REACTORS
330
47
102
}
330
47
100
AcDbProxyObject
 90
      499
 91
      503
 93
      121
310
9053130303A310000000000001650100
  0
ACAD_PROXY_OBJECT
  5
59
102
{ACAD_REACTORS
330
47
102
}
330
47
100
AcDbProxyObject
 90
      499
 91
      503
 93
      257
310
90E312F31323822203D2031272D3022000000000000200FC000000000000284000
  0
ACAD_PROXY_OBJECT
  5
5A
102
{ACAD_REACTORS
330
47
102
}
330
47
100
AcDbProxyObject
 90
      499
 91
      503
 93
      249
310
90D312F363422203D2031272D3022000000000000240FC000000000000284000
  0
ACAD_PROXY_OBJECT
  5
5B
102
{ACAD_REACTORS
330
47
102
}
330
47
100
AcDbProxyObject
 90
      499
 91
      503
 93
      249
310
90D312F333222203D2031272D3022000000000000280FC000000000000284000
  0
ACAD_PROXY_OBJECT
  5
5C
102
{ACAD_REACTORS
330
47
102
}
330
47
100
AcDbProxyObject
 90
      499
 91
      503
 93
      249
310
90D312F313622203D2031272D30220000000000002C0FC000000000000284000
  0
ACAD_PROXY_OBJECT
  5
5D
102
{ACAD_REACTORS
330
47
102
}
330
47
100
AcDbProxyObject
 90
      499
 91
      503
 93
      249
310
90D332F333222203D2031272D30220000000000002E0FC000000000000284000
  0
ACAD_PROXY_OBJECT
  5
5E
102
{ACAD_REACTORS
330
47
102
}
330
47
100
AcDbProxyObject
 90
      499
 91
      503
 93
      241
310
90C312F3822203D2031272D3022000000000000300FC000000000000284000
  0
ACAD_PROXY_OBJECT
  5
5F
102
{ACAD_REACTORS
330
47
102
}
330
47
100
AcDbProxyObject
 90
      499
 91
      503
 93
      249
310
90D332F313622203D2031272D3022000000000000320FC000000000000284000
  0
ACAD_PROXY_OBJECT
  5
60
102
{ACAD_REACTORS
330
47
102
}
330
47
100
AcDbProxyObject
 90
      499
 91
      503
 93
      241
310
90C312F3422203D2031272D3022000000000000340FC000000000000284000
  0
ACAD_PROXY_OBJECT
  5
61
102
{ACAD_REACTORS
330
47
102
}
330
47
100
AcDbProxyObject
 90
      499
 91
      503
 93
      241
310
90C332F3822203D2031272D3022000000000000360FC000000000000284000
  0
ACAD_PROXY_OBJECT
  5
62
102
{ACAD_REACTORS
330
47
102
}
330
47
100
AcDbProxyObject
 90
      499
 91
      503
 93
      241
310
90C312F3222203D2031272D3022000000000000380FC000000000000284000
  0
ACAD_PROXY_OBJECT
  5
63
102
{ACAD_REACTORS
330
47
102
}
330
47
100
AcDbProxyObject
 90
      499
 91
      503
 93
      241
310
90C332F3422203D2031272D30220000000000003A0FC000000000000284000
  0
ACAD_PROXY_OBJECT
  5
64
102
{ACAD_REACTORS
330
47
102
}
330
47
100
AcDbProxyObject
 90
      499
 91
      503
 93
      161
310
90A3122203D2031272D30224000000000000284000
  0
ACAD_PROXY_OBJECT
  5
65
102
{ACAD_REACTORS
330
47
102
}
330
47
100
AcDbProxyObject
 90
      499
 91
      503
 93
      257
310
90E312D312F3222203D2031272D30220000000000003E0FC000000000000284000
  0
ACAD_PROXY_OBJECT
  5
66
102
{ACAD_REACTORS
330
47
102
}
330
47
100
AcDbProxyObject
 90
      499
 91
      503
 93
      225
310
90A3322203D2031272D302200000000000002100000000000000284000
  0
ACAD_PROXY_OBJECT
  5
67
102
{ACAD_REACTORS
330
47
102
}
330
47
100
AcDbProxyObject
 90
      499
 91
      503
 93
      225
310
90A3622203D2031272D302200000000000006100000000000000284000
  0
ACAD_PROXY_OBJECT
  5
68
102
{ACAD_REACTORS
330
47
102
}
330
47
100
AcDbProxyObject
 90
      499
 91
      503
 93
      249
310
90D31272D3022203D2031272D30220000000000000A100000000000000284000
  0
ACAD_PROXY_OBJECT
  5
2F
102
{ACAD_REACTORS
330
2A
102
}
330
2A
100
AcDbProxyObject
 90
      499
 91
      501
 93
      436
310
42CC9915DA5C99599C985B595049028333333333333E33F0000000000000F90107901411070040501600405405064090741402480A0340
1001
ACAD
1000
AcDbSavedByObjectVersion
1070
     0
  0
ACAD_PROXY_OBJECT
  5
32
102
{ACAD_REACTORS
330
2A
102
}
330
2A
100
AcDbProxyObject
 90
      499
 91
      501
 93
      388
310
4150985CDA58D07406404333333333333E33F0000000000000F90107A41107004050150841D405064090741402480A0350
1001
ACAD
1000
AcDbSavedByObjectVersion
1070
     0
  0
ACAD_PROXY_OBJECT
  5
36
102
{ACAD_REACTORS
330
2A
102
}
330
2A
100
AcDbProxyObject
 90
      499
 91
      501
 93
      428
310
42109C9A59DA1D195B90C409028333333333333E33F0000000000000F9010790141107004050150841D405064090741402480A029950
1001
ACAD
1000
AcDbSavedByObjectVersion
1070
     0
  0
ACAD_PROXY_OBJECT
  5
3A
102
{ACAD_REACTORS
330
2A
102
}
330
2A
100
AcDbProxyObject
 90
      499
 91
      501
 93
      452
310
42D0DBDB1BDC90DA185B99D95104090240C333333333333E33F0000000000000F90108901411070040501508421405064090741402480A0350
1001
ACAD
1000
AcDbSavedByObjectVersion
1070
     0
  0
ACAD_PROXY_OBJECT
  5
34
102
{ACAD_REACTORS
330
2A
102
}
330
2A
100
AcDbProxyObject
 90
      499
 91
      501
 93
      500
310
4290DBDB98D95C1D1D585B10940D028333333333333E33F0000000000000F90107902409070040501000000000018199010841D405064090740C02480A0340
1001
ACAD
1000
AcDbSavedByObjectVersion
1070
     0
  0
ACAD_PROXY_OBJECT
  5
35
102
{ACAD_REACTORS
330
2A
102
}
330
2A
100
AcDbProxyObject
 90
      499
 91
      501
 93
      412
310
40D11A5B50B409028333333333333E33F0000000000000F9010790141107004050150841D405064090741402480A02677FFFFFD0
1001
ACAD
1000
AcDbSavedByObjectVersion
1070
     0
  0
ACAD_PROXY_OBJECT
  5
3D
102
{ACAD_REACTORS
330
2A
102
}
330
2A
100
AcDbProxyObject
 90
      499
 91
      501
 93
      452
310
43115919D950DBDB1BDC93D999916409028333333333333E33F0000000000000F9010790141107004050150841D405064090741402480A0350
1001
ACAD
1000
AcDbSavedByObjectVersion
1070
     0
  0
ACAD_PROXY_OBJECT
  5
39
102
{ACAD_REACTORS
330
2A
102
}
330
2A
100
AcDbProxyObject
 90
      499
 91
      501
 93
      444
310
42D19858D95C185D1D195C9B90F409028333333333333E33F0000000000000F9010790141107004050150841D405064090741402480A0350
1001
ACAD
1000
AcDbSavedByObjectVersion
1070
     0
  0
ACAD_PROXY_OBJECT
  5
2B
102
{ACAD_REACTORS
330
2A
102
}
330
2A
100
AcDbProxyObject
 90
      499
 91
      501
 93
      380
310
41119B185D240901404333333333333E33F0000000000000F9010740A907004050150841D405064090741402480A1B50
1001
ACAD
1000
AcDbSavedByObjectVersion
1070
     0
  0
ACAD_PROXY_OBJECT
  5
2C
102
{ACAD_REACTORS
330
2A
102
}
330
2A
100
AcDbProxyObject
 90
      499
 91
      501
 93
      468
310
43519B185D15DA5D1A115919D95CD0140901404333333333333E33F0000000000000F90107409019070040501600405405064090741402480A1B50
1001
ACAD
1000
AcDbSavedByObjectVersion
1070
     0
  0
ACAD_PROXY_OBJECT
  5
2D
102
{ACAD_REACTORS
330
2A
102
}
330
2A
100
AcDbProxyObject
 90
      499
 91
      501
 93
      404
310
41D1DBDD5C985D5910240902404333333333333E33F0000000000000F9010740A9070040501641D405064090741402480A1B50
1001
ACAD
1000
AcDbSavedByObjectVersion
1070
     0
  0
ACAD_PROXY_OBJECT
  5
2E
102
{ACAD_REACTORS
330
2A
102
}
330
2A
100
AcDbProxyObject
 90
      499
 91
      501
 93
      492
310
4411DBDD5C985D5915DA5D1A115919D95CD0340902404333333333333E33F0000000000000F90107409019070040501600405405064090741402480A1B50
1001
ACAD
1000
AcDbSavedByObjectVersion
1070
     0
  0
ACAD_PROXY_OBJECT
  5
31
102
{ACAD_REACTORS
330
2A
102
}
330
2A
100
AcDbProxyObject
 90
      499
 91
      501
 93
      476
310
41921A5919195B90640502408333333333333E33F0000000000000F901079024090700405020000000000001110200405405064090740C02480A0340
1001
ACAD
1000
AcDbSavedByObjectVersion
1070
     0
  0
ACAD_PROXY_OBJECT
  5
3B
102
{ACAD_REACTORS
330
2A
102
}
330
2A
100
AcDbProxyObject
 90
      499
 91
      501
 93
      428
310
42529A5D1D195C93D999914409028333333333333E33F0000000000000F9010790141107004050150A41D405064090741402480A0350
1001
ACAD
1000
AcDbSavedByObjectVersion
1070
     0
  0
ACAD_PROXY_OBJECT
  5
38
102
{ACAD_REACTORS
330
2A
102
}
330
2A
100
AcDbProxyObject
 90
      499
 91
      501
 93
      444
310
42D31A5B995C185D1D195C9B90E409028333333333333E33F0000000000000F9010790141107004050750841D405064090741402483A0350
1001
ACAD
1000
AcDbSavedByObjectVersion
1070
     0
  0
ACAD_PROXY_OBJECT
  5
3C
102
{ACAD_REACTORS
330
2A
102
}
330
2A
100
AcDbProxyObject
 90
      499
 91
      501
 93
      444
310
42D3DD995C9A185B99D3D999915409028333333333333E33F0000000000000F9010790141107004050150941D405064090741402480A0350
1001
ACAD
1000
AcDbSavedByObjectVersion
1070
     0
  0
ACAD_PROXY_OBJECT
  5
33
102
{ACAD_REACTORS
330
2A
102
}
330
2A
100
AcDbProxyObject
 90
      499
 91
      501
 93
      428
310
425499585B1A5CDD1A58D08409038333333333333E33F0000000000000F9010740A907004050150800405405064090740C02480A1B40
1001
ACAD
1000
AcDbSavedByObjectVersion
1070
     0
  0
ACAD_PROXY_OBJECT
  5
42
102
{ACAD_REACTORS
330
2A
102
}
330
2A
100
AcDbProxyObject
 90
      499
 91
      501
 93
      420
310
4194DA1859195911B40902404333333333333E33F0000000000000F9010740A41107004050150800405405064090840C02480A0B40
1001
ACAD
1000
AcDbSavedByObjectVersion
1070
     0
  0
ACAD_PROXY_OBJECT
  5
41
102
{ACAD_REACTORS
330
2A
102
}
330
2A
100
AcDbProxyObject
 90
      499
 91
      501
 93
      516
310
4454DA18591959081DDA5D1A08195919D95CD1A40902404333333333333E33F0000000000000F901074090142907004050250800405405064090740C02480A0B40
1001
ACAD
1000
AcDbSavedByObjectVersion
1070
     0
  0
ACAD_PROXY_OBJECT
  5
3E
102
{ACAD_REACTORS
330
2A
102
}
330
2A
100
AcDbProxyObject
 90
      499
 91
      501
 93
      532
310
4394DA1859195CC81BD98811DC985E5174090240C333333333333E33F0000000000000F901079024090741D01000000000000111010841D405064090740C02480A0340
1001
ACAD
1000
AcDbSavedByObjectVersion
1070
     0
  0
ACAD_PROXY_OBJECT
  5
3F
102
{ACAD_REACTORS
330
2A
102
}
330
2A
100
AcDbProxyObject
 90
      499
 91
      501
 93
      476
310
41D4DAD95D18DA1E51840502408333333333333E33F0000000000000F901079024090741D01000000000000111010B41D405064090741802480A0340
1001
ACAD
1000
AcDbSavedByObjectVersion
1070
     0
  0
ACAD_PROXY_OBJECT
  5
37
102
{ACAD_REACTORS
330
2A
102
}
330
2A
100
AcDbProxyObject
 90
      499
 91
      501
 93
      412
310
41D51A1A58DAD95B90D409028333333333333E33F0000000000000F9010790141107004050150C41D405064090741402480A0350
1001
ACAD
1000
AcDbSavedByObjectVersion
1070
     0
  0
ACAD_PROXY_OBJECT
  5
30
102
{ACAD_REACTORS
330
2A
102
}
330
2A
100
AcDbProxyObject
 90
      499
 91
      501
 93
      420
310
4255DA5C99599C985B595059028333333333333E33F0000000000000F90107901411070040501600405405064090740C02480A0340
1001
ACAD
1000
AcDbSavedByObjectVersion
1070
     0
  0
ACAD_PROXY_OBJECT
  5
40
102
{ACAD_REACTORS
330
2A
102
}
330
2A
100
AcDbProxyObject
 90
      499
 91
      501
 93
      404
310
41560B54985E51940902404000000000000E03F0000000000000F9010740501907004050150841D405064090740C02480A1B40
1001
ACAD
1000
AcDbSavedByObjectVersion
1070
     0
  0
XRECORD
  5
482
102
{ACAD_REACTORS
330
478
102
}
330
478
100
AcDbXrecord
340
0
  0
XRECORD
  5
481
102
{ACAD_REACTORS
330
478
102
}
330
478
100
AcDbXrecord
 90
        0
  0
XRECORD
  5
498
102
{ACAD_REACTORS
330
478
102
}
330
478
100
AcDbXrecord
1000
DSTYLE
1002
{
1070
   171
 70
     2
1070
   143
 40
25.4
1070
   274
 70
     2
1070
    41
 40
0.18
1070
   141
 40
0.09
1070
   271
 70
     4
1070
    43
 40
0.38
1070
   278
 70
    46
1070
    44
 40
0.18
1070
    42
 40
0.0625
1070
   147
 40
0.09
1070
    77
 70
     0
1070
   272
 70
     4
1070
    73
 70
     1
1070
   172
 70
     0
1070
    74
 70
     1
1070
   283
 70
     1
1070
   340
340
11
1070
   140
 40
0.18
1070
   284
 70
     0
1070
    78
 70
     0
1002
}
  0
XRECORD
  5
483
102
{ACAD_REACTORS
330
478
102
}
330
478
100
AcDbXrecord
  1
{AEA6938C-1969-4776-A619-B1300C3AF8C1}
  0
XRECORD
  5
47B
102
{ACAD_REACTORS
330
478
102
}
330
478
100
AcDbXrecord
  1

  0
XRECORD
  5
480
102
{ACAD_REACTORS
330
478
102
}
330
478
100
AcDbXrecord
 90
        4
  0
XRECORD
  5
47D
102
{ACAD_REACTORS
330
478
102
}
330
478
100
AcDbXrecord
340
1A
  0
XRECORD
  5
47F
102
{ACAD_REACTORS
330
478
102
}
330
478
100
AcDbXrecord
 90
    10781
  0
XRECORD
  5
47E
102
{ACAD_REACTORS
330
478
102
}
330
478
100
AcDbXrecord
340
19
  0
XRECORD
  5
485
102
{ACAD_REACTORS
330
478
102
}
330
478
100
AcDbXrecord
 40
0.0
  0
XRECORD
  5
488
102
{ACAD_REACTORS
330
478
102
}
330
478
100
AcDbXrecord
340
0
  0
XRECORD
  5
48E
102
{ACAD_REACTORS
330
478
102
}
330
478
100
AcDbXrecord
 10
0.0
 20
0.0
 30
0.0
  0
XRECORD
  5
48A
102
{ACAD_REACTORS
330
478
102
}
330
478
100
AcDbXrecord
 10
0.0
 20
0.0
 30
0.0
  0
XRECORD
  5
48D
102
{ACAD_REACTORS
330
478
102
}
330
478
100
AcDbXrecord
 10
0.0
 20
0.0
 30
0.0
  0
XRECORD
  5
48B
102
{ACAD_REACTORS
330
478
102
}
330
478
100
AcDbXrecord
 10
0.0
 20
0.0
 30
0.0
  0
XRECORD
  5
48C
102
{ACAD_REACTORS
330
478
102
}
330
478
100
AcDbXrecord
 10
0.0
 20
0.0
 30
0.0
  0
XRECORD
  5
489
102
{ACAD_REACTORS
330
478
102
}
330
478
100
AcDbXrecord
 10
0.0
 20
0.0
 30
0.0
  0
XRECORD
  5
486
102
{ACAD_REACTORS
330
478
102
}
330
478
100
AcDbXrecord
340
0
  0
XRECORD
  5
487
102
{ACAD_REACTORS
330
478
102
}
330
478
100
AcDbXrecord
 70
     0
  0
XRECORD
  5
47C
102
{ACAD_REACTORS
330
478
102
}
330
478
100
AcDbXrecord
  1

  0
XRECORD
  5
479
102
{ACAD_REACTORS
330
478
102
}
330
478
100
AcDbXrecord
 90
        1
  0
XRECORD
  5
47A
102
{ACAD_REACTORS
330
478
102
}
330
478
100
AcDbXrecord
 90
       70
  0
XRECORD
  5
491
102
{ACAD_REACTORS
330
478
102
}
330
478
100
AcDbXrecord
340
0
  0
XRECORD
  5
497
102
{ACAD_REACTORS
330
478
102
}
330
478
100
AcDbXrecord
 10
0.0
 20
0.0
 30
0.0
  0
XRECORD
  5
493
102
{ACAD_REACTORS
330
478
102
}
330
478
100
AcDbXrecord
 10
0.0
 20
0.0
 30
0.0
  0
XRECORD
  5
496
102
{ACAD_REACTORS
330
478
102
}
330
478
100
AcDbXrecord
 10
0.0
 20
0.0
 30
0.0
  0
XRECORD
  5
494
102
{ACAD_REACTORS
330
478
102
}
330
478
100
AcDbXrecord
 10
0.0
 20
0.0
 30
0.0
  0
XRECORD
  5
495
102
{ACAD_REACTORS
330
478
102
}
330
478
100
AcDbXrecord
 10
0.0
 20
0.0
 30
0.0
  0
XRECORD
  5
492
102
{ACAD_REACTORS
330
478
102
}
330
478
100
AcDbXrecord
 10
0.0
 20
0.0
 30
0.0
  0
XRECORD
  5
48F
102
{ACAD_REACTORS
330
478
102
}
330
478
100
AcDbXrecord
340
0
  0
XRECORD
  5
490
102
{ACAD_REACTORS
330
478
102
}
330
478
100
AcDbXrecord
 70
     0
  0
XRECORD
  5
484
102
{ACAD_REACTORS
330
478
102
}
330
478
100
AcDbXrecord
  1
{FAEB1C32-E019-11D5-929B-00C0DF256EC4}
  0
DICTIONARYVAR
  5
4A2
102
{ACAD_REACTORS
330
499
102
}
330
499
100
DictionaryVariables
280
     0
  1
1:1
  0
DICTIONARYVAR
  5
49B
102
{ACAD_REACTORS
330
499
102
}
330
499
100
DictionaryVariables
280
     0
  1
Standard
  0
DICTIONARYVAR
  5
49A
102
{ACAD_REACTORS
330
499
102
}
330
499
100
DictionaryVariables
280
     0
  1
Standard
  0
DICTIONARYVAR
  5
49E
102
{ACAD_REACTORS
330
499
102
}
330
499
100
DictionaryVariables
280
     0
  1
2
  0
DICTIONARYVAR
  5
49F
102
{ACAD_REACTORS
330
499
102
}
330
499
100
DictionaryVariables
280
     0
  1
1
  0
DICTIONARYVAR
  5
4A3
102
{ACAD_REACTORS
330
499
102
}
330
499
100
DictionaryVariables
280
     0
  1
1
  0
DICTIONARY
  5
4A6
330
45
100
AcDbDictionary
280
     1
  3
ACAD_XREC_ROUNDTRIP
360
4A7
  0
DICTIONARY
  5
4A4
330
44
100
AcDbDictionary
280
     1
  3
ACAD_XREC_ROUNDTRIP
360
4A5
  0
DICTIONARY
  5
4A8
330
46
100
AcDbDictionary
280
     1
  3
ACAD_XREC_ROUNDTRIP
360
4A9
  0
XRECORD
  5
4A7
102
{ACAD_REACTORS
330
4A6
102
}
330
4A6
100
AcDbXrecord
102
MATERIAL
148
0.0
149
0.0
149
0.0
 93
        0
 94
      127
282
     0
 72
     1
 77
     1
171
     1
175
     1
179
     1
273
     0
  0
XRECORD
  5
4A5
102
{ACAD_REACTORS
330
4A4
102
}
330
4A4
100
AcDbXrecord
102
MATERIAL
148
0.0
149
0.0
149
0.0
 93
        0
 94
      127
282
     0
 72
     1
 77
     1
171
     1
175
     1
179
     1
273
     0
  0
XRECORD
  5
4A9
102
{ACAD_REACTORS
330
4A8
102
}
330
4A8
100
AcDbXrecord
102
MATERIAL
148
0.0
149
0.0
149
0.0
 93
        0
 94
      127
282
     0
 72
     1
 77
     1
171
     1
175
     1
179
     1
273
     0
  0
ENDSEC
  0
EOF
